#VERSION:0.83;
#TITLE:Without You (feat. Sandro Cavazza);
#SUBTITLE:;
#ARTIST:Avicii;
#TITLETRANSLIT:;
#SUBTITLETRANSLIT:;
#ARTISTTRANSLIT:;
#GENRE:POP CHARTS;
#ORIGIN:;
#CREDIT:MUINELIM;
#BANNER:Without You (feat. Sandro Cavazza).png;
#BACKGROUND:Without You (feat. Sandro Cavazza)-bg.png;
#PREVIEWVID:;
#JACKET:Without You (feat. Sandro Cavazza)-jacket.png;
#CDIMAGE:;
#DISCIMAGE:;
#LYRICSPATH:;
#CDTITLE:;
#MUSIC:Without You (feat. Sandro Cavazza).ogg;
#OFFSET:-0.028000;
#SAMPLESTART:45.931522;
#SAMPLELENGTH:14.328358;
#SELECTABLE:YES;
#DISPLAYBPM:134.000000;
#BPMS:0.000=134.000;
#STOPS:;
#DELAYS:;
#WARPS:;
#TIMESIGNATURES:0.000=4=4;
#TICKCOUNTS:0.000=4;
#COMBOS:0.000=1;
#SPEEDS:0.000=1.000=0.000=0;
#SCROLLS:0.000=1.000;
#FAKES:;
#LABELS:0.000=Song Start;
#BGCHANGES:;
#KEYSOUNDS:;
#ATTACKS:
;

//---------------dance-single - ----------------
#NOTEDATA:;
#CHARTNAME:;
#STEPSTYPE:dance-single;
#DESCRIPTION:;
#CHARTSTYLE:;
#DIFFICULTY:Beginner;
#METER:3;
#RADARVALUES:0.125071,0.160354,0.000000,0.000000,0.000000,95.000000,95.000000,0.000000,0.000000,0.000000,0.000000,0.000000,0.000000,0.000000,0.125071,0.160354,0.000000,0.000000,0.000000,95.000000,95.000000,0.000000,0.000000,0.000000,0.000000,0.000000,0.000000,0.000000;
#CREDIT:;
#DISPLAYBPM:134.000000;
#NOTES:
0000
0000
0000
0000
,
0000
0000
0000
0000
,
0000
0000
0000
0000
,
0000
0000
0000
0000
,
0000
0000
0000
0000
,
0000
0000
0000
0000
,
1000
0000
0000
0000
,
1000
0000
1000
0000
,
0001
0000
0000
0000
,
0001
0000
0001
0000
,
1000
0000
0100
0000
,
0010
0000
0000
0000
,
0001
0000
0010
0000
,
0100
0000
0000
0000
,
1000
0000
0001
0000
,
0100
0000
0000
0000
,
0001
0000
1000
0000
,
0010
0000
0000
0000
,
0100
0000
0000
0000
,
0000
0100
0100
0000
,
0010
0000
0100
0000
,
0100
0000
0000
0000
,
0001
0000
0000
0000
,
0000
0000
1000
1000
,
1000
0000
0001
0000
,
1000
0000
0000
0000
,
0001
0000
0001
0000
,
0001
0000
0001
0000
,
0100
0000
0100
0000
,
0100
0000
0100
0000
,
0010
0000
0010
0000
,
0010
0000
0010
0000
,
1000
0000
1000
0000
,
1000
0000
1000
0000
,
0001
0000
0001
0000
,
0010
0000
0010
0000
,
0100
0000
0100
0000
,
1000
0000
1000
0000
,
0010
0000
0010
0000
,
0100
0000
0100
0000
,
0010
0000
0010
0000
,
0010
0000
0000
0000
,
1000
0000
0001
0000
,
1000
0000
0001
0000
,
0100
0000
0010
0000
,
0100
0000
0010
0000
,
1000
0000
0001
0000
,
0010
0000
0100
0000
,
1000
1000
1000
1000
,
0000
0000
0000
0000
,
0001
0000
1000
0000
,
0100
0000
1000
0000
,
0001
0000
0010
0000
,
0001
0000
1000
0000
,
0010
0000
0100
0000
,
0001
0000
1000
0000
,
0100
0000
0010
0000
,
0001
0000
0100
0100
,
0100
0000
0000
0000
;

//---------------dance-single - ----------------
#NOTEDATA:;
#CHARTNAME:;
#STEPSTYPE:dance-single;
#DESCRIPTION:;
#CHARTSTYLE:;
#DIFFICULTY:Easy;
#METER:6;
#RADARVALUES:0.196164,0.326237,0.082942,0.027647,0.000000,149.000000,140.000000,9.000000,3.000000,0.000000,0.000000,0.000000,0.000000,0.000000,0.196164,0.326237,0.082942,0.027647,0.000000,149.000000,140.000000,9.000000,3.000000,0.000000,0.000000,0.000000,0.000000,0.000000;
#CREDIT:;
#DISPLAYBPM:134.000000;
#NOTES:
0000
0000
0000
0000
,
0000
0000
0000
0000
,
0000
0000
0000
0000
,
0000
0000
0000
0000
,
0000
0000
0000
0000
,
0000
0000
0000
0000
,
0000
0000
0000
0000
,
0000
0000
0000
0000
,
0000
0000
0000
0000
,
0000
0000
0000
0000
,
1000
0000
0001
0000
,
1000
1000
1000
0000
,
0001
0000
1000
0000
,
0001
0001
0001
0000
,
0100
0000
0010
0000
,
0100
0100
0100
0000
,
0010
0000
0100
0000
,
0010
0010
0010
0000
,
1000
0000
1000
0000
,
1000
0000
0000
0000
,
0001
0000
0001
0000
,
0001
0000
0000
0000
,
0100
0000
0100
0000
,
0100
0000
0000
0000
,
0010
0000
0010
0000
,
0020
0000
0000
0030
,
1000
0100
1000
0100
,
1000
1000
0000
0000
,
0001
0010
0001
0010
,
0001
0001
0000
0000
,
1000
0010
1000
0010
,
1000
1000
0000
0000
,
0001
0100
0001
0100
,
0001
0001
0000
0000
,
1000
0100
1000
0100
,
0010
0010
0000
0000
,
0001
0100
0001
0100
,
0010
0010
0000
0000
,
0010
1000
0010
1000
,
0001
0001
0000
0000
,
0010
0001
0010
0001
,
1000
1000
0000
0000
,
0001
1000
0001
1000
,
0010
0100
0010
0100
,
0001
1000
0010
0100
,
0001
1000
0001
0001
,
0100
0010
0100
0010
,
1000
0001
1000
0001
,
0100
0100
0100
0100
,
0000
0000
0010
0100
,
0110
0010
0100
0001
,
1000
0100
0010
0100
,
0110
0010
0100
1000
,
0001
0010
0100
0010
,
0110
0100
0010
0001
,
1000
0100
0010
0001
,
1001
0000
0110
0000
,
1001
0000
0110
0110
,
2002
0000
0000
0000
,
3003
0000
0000
0000
;

//---------------dance-single - ----------------
#NOTEDATA:;
#CHARTNAME:;
#STEPSTYPE:dance-single;
#DESCRIPTION:;
#CHARTSTYLE:;
#DIFFICULTY:Medium;
#METER:10;
#RADARVALUES:0.398910,0.489356,0.691181,0.073726,0.027647,303.000000,228.000000,75.000000,8.000000,0.000000,0.000000,0.000000,0.000000,0.000000,0.398910,0.489356,0.691181,0.073726,0.027647,303.000000,228.000000,75.000000,8.000000,0.000000,0.000000,0.000000,0.000000,0.000000;
#CREDIT:;
#DISPLAYBPM:134.000000;
#NOTES:
0000
0000
0000
0000
,
0000
0000
0000
0000
,
0000
0000
0000
0000
,
0000
0000
0000
0000
,
0000
0000
0000
0000
,
0000
0000
0000
0000
,
1000
1000
0000
0010
0000
0100
0000
0001
,
0001
0010
0110
0000
,
0001
0001
0000
0100
0000
0010
0000
1000
,
1000
0100
0110
0000
,
1000
0010
0000
0100
0000
0001
0000
0010
,
0100
1000
1010
0000
,
0001
0100
0000
0010
0000
1000
0000
0100
,
0010
0001
0101
0000
,
1000
0100
0000
0010
0000
0001
0000
0100
,
0010
1000
1100
0000
,
0001
0010
0000
0100
0000
1000
0000
0010
,
0100
0001
0011
0000
,
0110
0000
0000
1100
0000
0000
0011
0000
,
0000
0000
0001
1000
0001
0000
0100
0000
,
0110
0000
0000
1010
0000
0000
0101
0000
,
0000
0001
1000
0000
0000
0010
0100
0000
,
0101
0000
0000
0011
0000
0000
1100
0000
,
0000
0000
0000
0000
1000
0001
1000
0000
,
1100
0000
0000
1010
0000
0000
0202
0000
,
0000
0000
0000
0303
0000
0100
0010
0000
,
0110
1000
0110
0001
,
0110
1000
0110
0001
,
1001
0100
1001
0010
,
1001
0100
1001
0010
,
1100
0010
0101
1000
,
0011
0100
1010
0001
,
1100
0010
0101
1000
,
0011
0100
1010
0001
,
0101
0101
0011
0011
,
1100
1100
1010
1010
,
0101
0101
0011
0011
,
1100
1100
1010
1010
,
0101
0101
1100
1100
,
0011
0011
1010
1010
,
0101
1100
1010
0011
,
2002
0000
0000
3003
,
0001
0100
0000
1000
0010
0000
0001
0100
,
0000
0000
1000
0000
0000
1000
0000
0000
0010
0000
0100
0000
0110
0000
0000
0000
,
1000
0100
0000
0001
0010
0000
1000
0100
,
0000
0000
0001
0000
0000
0001
0000
0000
0010
0000
0100
0000
0110
0000
0000
0000
,
0001
0010
0000
1000
0100
0000
0001
0010
,
0000
0000
1000
0000
0000
1000
0000
0000
0100
0000
0010
0000
0110
0000
0000
0000
,
1000
0001
0010
0100
1000
0001
2002
0000
,
0000
0000
0000
3003
,
1000
0010
0100
0010
0001
0010
0100
0010
,
1000
0000
0001
0000
0000
0010
0000
0000
0100
0000
1000
0000
1001
0000
0000
0000
,
0001
0100
0010
0100
1000
0100
0010
0100
,
0001
0000
1000
0000
0000
0100
0000
0000
0010
0000
0001
0000
1001
0000
0000
0000
,
1000
0010
0100
0001
0010
0100
1000
0010
,
0100
0000
0001
0000
0000
1000
0000
0000
0100
0000
0010
0000
0110
0000
0000
0000
,
0001
0101
0000
1000
1010
0000
0001
0011
,
0000
1100
0000
1000
0010
0001
0100
0000
,
2002
0000
0000
0000
,
3003
0000
0000
0000
;

//---------------dance-single - ----------------
#NOTEDATA:;
#CHARTNAME:;
#STEPSTYPE:dance-single;
#DESCRIPTION:;
#CHARTSTYLE:;
#DIFFICULTY:Hard;
#METER:13;
#RADARVALUES:0.510815,0.706847,0.940005,0.119805,0.046079,388.000000,286.000000,102.000000,13.000000,0.000000,0.000000,0.000000,0.000000,0.000000,0.510815,0.706847,0.940005,0.119805,0.046079,388.000000,286.000000,102.000000,13.000000,0.000000,0.000000,0.000000,0.000000,0.000000;
#CREDIT:;
#DISPLAYBPM:134.000000;
#NOTES:
0000
0000
0000
0000
,
0000
0000
0000
0000
,
0000
0000
0000
0000
,
0000
0000
0000
0000
,
0000
0000
0000
0000
,
0000
0000
0000
0000
,
1000
0010
0000
0001
0000
0100
0000
1000
,
0010
0100
0110
0000
0202
0000
0303
0000
,
0001
0010
0000
1000
0000
0100
0000
0010
,
0110
0101
2020
3030
,
1000
0100
0000
0001
0000
0100
0000
1000
,
0010
0100
0010
1000
1001
0000
0000
0000
,
0001
0100
0000
1000
0000
0100
0000
0001
,
0010
0100
0010
0001
1001
0000
0000
0000
,
1000
0010
0000
0001
0000
0100
0000
1000
,
0010
0100
0001
0010
0110
0000
0000
0000
,
0001
0010
0000
1000
0000
0100
0000
0001
,
0010
0100
1000
0010
0110
0000
0000
0000
,
1010
0000
0000
0101
0000
0000
0022
0000
,
0033
0000
0010
0100
1000
0001
0010
0000
,
1100
0000
1000
0010
0000
0001
0100
0000
,
0000
1000
0001
0000
0000
0100
0010
0100
,
0101
0000
0000
1010
0000
0000
2200
0000
,
0000
0000
3300
0000
0100
0010
0001
0000
,
0101
0000
1000
0100
0000
0001
0020
0000
,
0000
0000
0000
0000
0000
1030
0001
1000
,
1001
0000
0001
0100
0110
0000
0010
1010
,
0000
1100
0000
0000
0000
0100
0010
0001
,
0101
0100
0010
1000
1010
0000
0010
0110
,
0000
0100
0101
0000
0000
0001
0010
0100
,
1100
1000
0001
0010
0011
0000
0001
1001
,
0000
1000
1100
0000
0000
0000
0000
0000
,
1010
0010
0100
0001
0011
0000
0010
1010
,
0000
1000
1001
0000
0000
0000
0001
0100
,
1010
0010
1000
0100
0011
0000
0100
1100
,
0000
0010
0110
0000
0000
0000
0000
0000
,
0101
0100
0001
0010
1100
0000
0010
0011
,
0000
0100
0110
0000
0000
0010
1000
0100
,
1001
0010
0001
0100
1001
0000
0001
0110
,
0000
1000
0110
0000
0000
0010
0100
0001
,
1010
0100
0010
1000
0101
0010
1000
0110
,
0000
0000
0001
0000
0220
0000
0000
0000
0000
0000
0330
0000
0000
0000
1000
0001
,
1000
1100
0000
0001
0101
0000
1000
1010
,
0000
0000
0011
0000
0000
1100
0000
0000
1000
0000
0100
0000
0010
0000
0001
0000
,
0100
0110
0000
1000
1100
0000
0001
0011
,
0000
0000
1010
0000
0000
0101
0000
0000
0001
0000
0010
0000
0100
0000
1000
0000
,
0001
0011
0000
1000
1100
0000
0001
1001
,
0000
0000
1100
0000
0000
0101
0000
0000
0001
0000
0010
0000
0100
0000
1000
0000
,
1010
0001
0011
1000
1100
0001
0101
0000
,
0000
0000
0110
0000
0010
1000
0001
0000
0010
0000
0100
0000
1000
0000
0010
0000
,
0110
0110
0001
0110
0110
1000
0110
0110
,
0001
0000
0011
0000
0000
1100
0000
0000
1000
0000
0010
0000
0100
0000
0001
0000
,
1001
1001
0010
1001
1001
0100
1001
1001
,
0010
0000
1010
0000
0000
0101
0000
0000
0001
0000
1000
0000
0100
0000
0010
0000
,
0011
0101
0010
1010
1100
0010
0011
0101
,
0010
0000
1010
0000
0000
0011
0000
0000
0001
0000
0100
0000
0010
0000
1000
0000
,
1100
0101
0000
0011
1010
0000
1100
0110
,
0000
0000
0011
0000
0000
0001
0100
0000
0110
0000
0010
1000
0100
0000
0000
0000
,
2002
0000
0000
0000
,
3003
0000
0000
0000
;

//---------------dance-double - ----------------
#NOTEDATA:;
#CHARTNAME:;
#STEPSTYPE:dance-double;
#DESCRIPTION:;
#CHARTSTYLE:;
#DIFFICULTY:Hard;
#METER:12;
#RADARVALUES:0.448938,0.598101,0.101373,0.082942,0.129020,341.000000,330.000000,11.000000,9.000000,0.000000,0.000000,0.000000,0.000000,0.000000,0.448938,0.598101,0.101373,0.082942,0.129020,341.000000,330.000000,11.000000,9.000000,0.000000,0.000000,0.000000,0.000000,0.000000;
#CREDIT:;
#DISPLAYBPM:134.000000;
#NOTES:
00000000
00000000
00000000
00000000
,
00000000
00000000
00000000
00000000
,
00000000
00000000
00000000
00000000
,
00000000
00000000
00000000
00000000
,
00000000
00000000
00000000
00000000
,
00000000
00000000
00000000
00000000
,
00001000
00100000
00000000
00100000
00000000
00010000
00000000
10000000
,
00100000
01000000
00001000
00000000
00011000
00000000
00000000
00000000
,
00010000
00000100
00000000
00001000
00000000
00000001
00000000
00000100
,
00000010
00010000
00011000
00000000
,
00001000
01000000
00000000
00010000
00000000
00100000
00000000
01000000
,
10000000
01000000
00100000
01000000
00010000
00000000
00000000
00000000
,
00010000
00000010
00000000
00001000
00000000
00000100
00000000
00000010
,
00000001
00000010
00000100
00000010
00001000
00000000
00000000
00000000
,
00001000
00100000
00000000
01000000
00000000
10000000
00000000
00100000
,
00010000
00100000
10000000
00100000
00010000
00000000
00000000
00000000
,
00010000
00000100
00000000
00000010
00000000
00000001
00000000
00000100
,
00001000
00000100
00000001
00000100
00001000
00000000
00000000
00000000
,
00011000
00000000
00010000
01000000
10000000
00000000
20020000
00000000
,
30030000
00000000
00010000
00100000
01000000
00010000
00001000
00000000
,
00011000
00000000
00010000
00000100
00000000
00001000
00000010
00000000
,
00000100
00000010
00000100
00000000
00000000
00000001
00000010
00001000
,
00011000
00000000
00001000
00000010
00000001
00000000
00002002
00000000
,
00000000
00000000
00003003
00000000
00000001
00000100
00001000
00000000
,
00011000
00000000
00010000
00100000
00000000
00100000
20000000
00000000
,
00000000
00000000
00000000
00000000
00000000
31000000
00010000
00001000
,
00011000
00000000
00010000
00000100
00001000
00000000
00000010
00001000
,
00000000
00000001
00001000
00000000
00000100
00000010
00000001
00001000
,
00000100
00000010
00000001
00000000
00000100
00000000
00001000
00010000
,
00000000
00001000
00100000
00000000
00010000
01000000
00100000
01000000
,
00100000
10000000
01000000
00100000
00010000
00000000
00100000
00001000
,
00000000
00010000
00000100
00000000
00001000
00000000
00000001
00000000
,
00000100
00000010
00001000
00000010
00000001
00000000
00000010
00000100
,
00000000
00000010
00001000
00000000
00000100
00000000
00010000
00001000
,
00100000
00000000
00010000
00100000
01000000
00000000
10000000
00100000
,
00000000
00010000
00100000
00000000
01000000
00000000
00100000
00000000
,
10000000
01000000
00010000
01000000
00100000
00000000
00010000
01000000
,
00000000
00001000
00010000
00000000
00000010
00001000
00000100
00001000
,
00000001
00000100
00000001
00000010
00000100
00000000
00000010
00001000
,
00000000
00010000
00100000
00000000
10000000
01000000
00100000
01000000
,
00010000
00001000
00000010
00000000
00000001
00000000
00000100
00001000
,
00000000
00000000
00020000
00000000
00002000
00000000
00000000
00000000
00000000
00000000
00033000
00000000
00000000
00000000
00010000
00001000
,
00010000
00000100
00001000
00000001
00000001
00000100
00000010
00000010
,
00001000
00000000
00000100
00010000
00000000
00000100
00010000
00000000
00001000
00000000
00100000
00000000
00010000
00000000
01000000
00000000
,
00100000
00100000
10000000
00010000
00010000
10000000
01000000
01000000
,
00100000
00000000
00010000
01000000
00000000
00010000
01000000
00000000
00001000
00000000
00010000
00000000
00000010
00000000
00001000
00000000
,
00000001
00000001
00000010
00000100
00000100
00001000
00000010
00000010
,
00000100
00000000
00000001
00001000
00000000
00000001
00001000
00000000
00000100
00000000
00000010
00000000
00001000
00000000
00010000
00000000
,
01000000
01000000
01000000
00100000
00100000
00100000
00001000
00000000
,
00000000
00000000
00011000
00000000
00010000
00001000
00010000
00000000
00001000
00000000
00100000
00000000
00010000
00000000
01000000
00000000
,
00100000
10000000
00100000
00000000
01000000
00000000
00010000
00100000
00010000
00000000
01000000
00000000
00100000
10000000
00100000
00000000
,
01000000
00000000
00010000
00100000
00000000
00010000
00100000
00000000
00001000
00000000
00010000
00000000
00000100
00000000
00001000
00000000
,
00000001
00000100
00000001
00000000
00000010
00000000
00000100
00001000
00000100
00000000
00000010
00000000
00000001
00000100
00000001
00000000
,
00000010
00000000
00000100
00001000
00000000
00000100
00001000
00000000
00000010
00000000
00010000
00000000
00001000
00000000
00100000
00000000
,
01000000
10000000
01000000
00000000
00010000
00000000
00001000
00010000
00001000
00000000
00010000
00000000
01000000
10000000
01000000
00000000
,
00010000
00000000
00001000
00000010
00000000
00001000
00000010
00000000
00000001
00000000
00000100
00000000
00000010
00000000
00001000
00000000
,
00000100
00000010
00000100
00000000
00000000
00000000
00001000
00010000
00001000
00000000
00000000
00000000
01000000
00100000
01000000
00000000
,
00000000
00000000
00010000
00000000
00000000
10000000
00100000
00000000
00010000
00000000
00001000
00010000
00001000
00000000
00000000
00000000
,
00022000
00000000
00000000
00000000
,
00033000
00000000
00000000
00000000
;

//---------------dance-double - ----------------
#NOTEDATA:;
#CHARTNAME:;
#STEPSTYPE:dance-double;
#DESCRIPTION:;
#CHARTSTYLE:;
#DIFFICULTY:Easy;
#METER:6;
#RADARVALUES:0.189581,0.299051,0.046079,0.036863,0.000000,144.000000,139.000000,5.000000,4.000000,0.000000,0.000000,0.000000,0.000000,0.000000,0.189581,0.299051,0.046079,0.036863,0.000000,144.000000,139.000000,5.000000,4.000000,0.000000,0.000000,0.000000,0.000000,0.000000;
#CREDIT:;
#DISPLAYBPM:134.000000;
#NOTES:
00000000
00000000
00000000
00000000
,
00000000
00000000
00000000
00000000
,
00000000
00000000
00000000
00000000
,
00000000
00000000
00000000
00000000
,
00000000
00000000
00000000
00000000
,
00000000
00000000
00000000
00000000
,
00000000
00000000
00000000
00000000
,
00000000
00000000
00000000
00000000
,
00000000
00000000
00000000
00000000
,
00000000
00000000
00000000
00000000
,
01000000
00000000
00010000
00000000
,
00100000
00000000
01000000
00000000
,
00010000
00000000
00001000
00000000
,
00000010
00000000
00000100
00000000
,
00001000
00000000
00000010
00000000
,
00010000
00000000
00001000
00000000
,
01000000
00000000
00001000
00000000
,
00010000
00000000
00000010
00000000
,
00000100
00000000
00000001
00000000
,
00000010
00000000
00001000
00000000
,
00010000
00000000
01000000
00000000
,
10000000
00000000
00100000
00000000
,
00010000
00000000
00001000
00000000
,
00000010
00000000
00000001
00000000
,
00000100
00000000
00001000
00000000
,
00022000
00000000
00000000
00033000
,
00001000
00100000
00010000
01000000
,
00001000
00001000
00000000
00000000
,
00010000
00000100
00001000
00000010
,
00010000
00010000
00000000
00000000
,
00001000
00010000
00100000
01000000
,
00001000
00001000
00000000
00000000
,
00010000
00001000
00000100
00000010
,
00010000
00010000
00000000
00000000
,
00001000
00010000
01000000
10000000
,
00100000
00100000
00000000
00000000
,
00010000
00001000
00000010
00000001
,
00000100
00000100
00000000
00000000
,
00001000
00010000
00100000
10000000
,
01000000
01000000
00000000
00000000
,
00010000
00001000
00000100
00000001
,
00000010
00000010
00000000
00000000
,
00001000
00010000
00001000
00010000
,
00100000
01000000
00100000
01000000
,
00001000
00010000
00100000
01000000
,
00010000
00100000
00001000
00001000
,
00010000
00001000
00010000
00001000
,
00000100
00000010
00000100
00000010
,
00001000
00001000
00000001
00000001
,
00000000
00000000
00000100
00001000
,
00011000
00010000
00100000
10000000
,
01000000
10000000
00100000
00010000
,
00011000
00001000
00000100
00000001
,
00000010
00000001
00000100
00001000
,
00011000
00010000
01000000
10000000
,
00100000
10000000
01000000
00010000
,
00001000
00000000
00000010
00000000
,
00000001
00000000
00001000
00000001
,
00002002
00000000
00000000
00000000
,
00003003
00000000
00000000
00000000
;

//---------------dance-double - ----------------
#NOTEDATA:;
#CHARTNAME:;
#STEPSTYPE:dance-double;
#DESCRIPTION:;
#CHARTSTYLE:;
#DIFFICULTY:Medium;
#METER:10;
#RADARVALUES:0.333083,0.380610,0.092157,0.230394,0.027647,253.000000,243.000000,10.000000,25.000000,0.000000,0.000000,0.000000,0.000000,0.000000,0.333083,0.380610,0.092157,0.230394,0.027647,253.000000,243.000000,10.000000,25.000000,0.000000,0.000000,0.000000,0.000000,0.000000;
#CREDIT:;
#DISPLAYBPM:134.000000;
#NOTES:
// measure 0
00000000
00000000
00000000
00000000
,  // measure 1
00000000
00000000
00000000
00000000
,  // measure 2
00000000
00000000
00000000
00000000
,  // measure 3
00000000
00000000
00000000
00000000
,  // measure 4
00000000
00000000
00000000
00000000
,  // measure 5
00000000
00000000
00000000
00000000
,  // measure 6
00001000
00100000
00000000
00010000
00000000
01000000
00000000
00001000
,  // measure 7
00010000
00001000
00010000
00000000
00011000
00000000
00000000
00000000
,  // measure 8
00010000
00000100
00000000
00001000
00000000
00000010
00000000
00010000
,  // measure 9
00001000
00010000
00011000
00000000
,  // measure 10
00001000
01000000
00000000
00010000
00000000
00100000
00000000
01000000
,  // measure 11
10000000
00100000
01100000
00000000
,  // measure 12
01000000
00001000
00000000
00010000
00000000
00000100
00000000
00001000
,  // measure 13
00000010
00010000
00011000
00000000
,  // measure 14
00010000
00000100
00000000
00001000
00000000
00000010
00000000
00000100
,  // measure 15
00000001
00000010
00000110
00000000
,  // measure 16
00000100
00010000
00000000
00001000
00000000
01000000
00000000
00010000
,  // measure 17
00100000
00001000
00011000
00000000
,  // measure 18
00002000
00000000
00000000
00023000
00000000
00000000
02030000
00000000
,  // measure 19
00000000
00000000
13000000
00100000
01000000
00100000
10000000
00000000
,  // measure 20
02000000
00000000
00000000
03020000
00000000
00000000
00032000
00000000
,  // measure 21
00000000
00003100
00000001
00000000
00000000
00000010
00000100
00000000
,  // measure 22
00020000
00000000
00000000
00032000
00000000
00000000
00003200
00000000
,  // measure 23
00000000
00000000
00000000
00000000
00000301
00000010
00000100
00000000
,  // measure 24
00000020
00000000
00000000
00002030
00000000
00000000
00020000
00000000
,  // measure 25
00000000
00000000
00000000
00033000
00000000
00010000
00001000
00010000
,  // measure 26
00100000
00000000
00010000
00100000
01000000
00000000
00100000
10000000
,  // measure 27
00000000
02000000
00000000
00000000
00000000
03100000
00010000
00100000
,  // measure 28
00001000
00010000
00001000
00000000
00000100
00000000
00000001
00000020
,  // measure 29
00000000
00000000
00000230
00000000
00000000
00000310
00001000
00010000
,  // measure 30
00001000
00010000
00100000
01000000
00100000
00000000
10000000
01000000
,  // measure 31
00000000
00020000
00000000
00000000
00000000
00000000
00000000
00000000
,  // measure 32
00031000
00100000
00010000
00100000
00001000
00000000
00010000
00000100
,  // measure 33
00000000
00000020
00000000
00000000
00000000
00000000
00000031
00000100
,  // measure 34
00000010
00000000
00001000
00000100
00000010
00000000
00001000
00010000
,  // measure 35
00000000
00200000
00000000
00000000
00000000
00000000
00000000
00000000
,  // measure 36
10300000
01000000
00100000
01000000
00010000
00000000
00001000
00000010
,  // measure 37
00000000
00000002
00000000
00000000
00000000
00000103
00000010
00001000
,  // measure 38
00000010
00010000
00001000
00010000
00200000
00000000
10300000
00010000
,  // measure 39
00000000
02000000
00000000
00000000
00000000
03100000
00010000
00001000
,  // measure 40
00010000
00000010
00000100
00000000
00000001
00000000
00000010
00001000
,  // measure 41
00000000
00022000
00000000
00033000
,  // measure 42
00001000
00010000
00000000
00010000
01000000
00000000
01000000
10000000
,  // measure 43
00000000
00000000
00100000
00000000
00000000
01000000
00000000
00000000
00100000
00000000
00010000
00000000
00001000
00000000
00000000
00000000
,  // measure 44
00010000
00001000
00000000
00001000
00000010
00000000
00000010
00000001
,  // measure 45
00000000
00000000
00000100
00000000
00000000
00000010
00000000
00000000
00000100
00000000
00001000
00000000
00010000
00000000
00000000
00000000
,  // measure 46
00001000
00010000
00000000
00010000
00100000
00000000
00100000
10000000
,  // measure 47
00000000
00000000
01000000
00000000
00000000
00100000
00000000
00000000
01000000
00000000
00001000
00000000
00010000
00000000
00000000
00000000
,  // measure 48
00010000
00001000
00000100
00000001
00000010
00000100
00000010
00000000
,  // measure 49
00000000
00001001
00000000
00000001
00000100
00001000
00010000
00000000
,  // measure 50
00100000
10000000
00000000
10000000
01000000
00000000
01000000
00010000
,  // measure 51
00000000
00000000
00001000
00000000
00000000
00010000
00000000
00000000
00001000
00000000
00010000
00000000
00000100
00000000
00000100
00000000
,  // measure 52
00000010
00000001
00000000
00000001
00000100
00000000
00000100
00001000
,  // measure 53
00000000
00000000
00010000
00000000
00000000
00001000
00000000
00000000
00010000
00000000
00001000
00000000
00100000
00000000
00100000
00000000
,  // measure 54
01000000
10000000
00000000
10000000
00100000
00000000
00100000
00010000
,  // measure 55
00000000
00000000
00001000
00000000
00000000
00010000
00000000
00000000
00001000
00000000
00010000
00000000
00000010
00000000
00000010
00000000
,  // measure 56
00000100
00000001
00000000
00000001
00000010
00000000
00000010
00001000
,  // measure 57
00000000
00011000
00000000
00010000
01000000
10000000
00010000
00000000
,  // measure 58
20020000
00000000
00000000
00000000
,  // measure 59
30030000
00000000
00000000
00000000
;
