#VERSION:0.83;
#TITLE:Whistle;
#SUBTITLE:;
#ARTIST:Warak;
#TITLETRANSLIT:;
#SUBTITLETRANSLIT:;
#ARTISTTRANSLIT:;
#GENRE:VARIETY;
#ORIGIN:;
#CREDIT:MUINELIM;
#BANNER:Whistle.png;
#BACKGROUND:Whistle-bg.png;
#PREVIEWVID:;
#JACKET:Whistle-jacket.png;
#CDIMAGE:;
#DISCIMAGE:;
#LYRICSPATH:;
#CDTITLE:;
#MUSIC:Whistle.ogg;
#OFFSET:-0.205000;
#SAMPLESTART:52.244247;
#SAMPLELENGTH:15.000008;
#SELECTABLE:YES;
#DISPLAYBPM:128.000000;
#BPMS:0.000=128.000;
#STOPS:;
#DELAYS:;
#WARPS:;
#TIMESIGNATURES:0.000=4=4;
#TICKCOUNTS:0.000=4;
#COMBOS:0.000=1;
#SPEEDS:0.000=1.000=0.000=0;
#SCROLLS:0.000=1.000;
#FAKES:;
#LABELS:0.000=Song Start;
#BGCHANGES:;
#KEYSOUNDS:;
#ATTACKS:
;

//---------------dance-single - ----------------
#NOTEDATA:;
#CHARTNAME:;
#STEPSTYPE:dance-single;
#DESCRIPTION:;
#CHARTSTYLE:;
#DIFFICULTY:Beginner;
#METER:3;
#RADARVALUES:0.102783,0.155730,0.031556,0.000000,0.000000,114.000000,109.000000,5.000000,0.000000,0.000000,0.000000,0.000000,0.000000,0.000000,0.102783,0.155730,0.031556,0.000000,0.000000,114.000000,109.000000,5.000000,0.000000,0.000000,0.000000,0.000000,0.000000,0.000000;
#CREDIT:;
#DISPLAYBPM:128.000000;
#NOTES:
0000
0000
0000
0000
,
0000
0000
0000
0000
,
0000
0000
0000
0000
,
0000
0000
0000
0000
,
1000
0000
0000
0000
,
0001
0000
0000
0000
,
1000
0000
0000
0000
,
0001
0000
0000
0000
,
1000
0000
0000
0000
,
0001
0000
0000
0000
,
1000
0000
0000
0000
,
0001
0000
0000
0000
,
0100
0000
0000
0000
,
0010
0000
0000
0000
,
0100
0000
0000
0000
,
0010
0000
0000
0000
,
0100
0000
0000
0000
,
0010
0000
0000
0000
,
0100
0000
0000
0000
,
0010
0000
0000
0000
,
1000
0000
0000
0000
,
1000
0000
0000
0000
,
0001
0000
0000
0000
,
0001
0000
0000
0000
,
1000
0000
0000
0000
,
0001
0000
0000
0000
,
0100
0000
0100
0100
,
0000
0000
0000
0000
,
0010
0000
0010
0000
,
0010
0000
0010
0000
,
1000
0000
1000
0000
,
1000
0000
1000
0000
,
0001
0000
0001
0000
,
0001
0000
0001
0000
,
0100
0000
0100
0000
,
0010
0000
0010
0000
,
0100
0000
0100
0000
,
0100
0000
0100
0000
,
0001
0000
0001
0000
,
0001
0000
0001
0000
,
1000
0000
1000
0000
,
1000
0000
1000
0000
,
0010
0000
0010
0000
,
0010
0010
0000
0000
,
0110
0000
0000
0000
,
0000
0000
0000
0000
,
1000
0000
0000
0000
,
0100
0000
0000
0000
,
0010
0000
0000
0000
,
0001
0000
0000
0000
,
0001
0000
0000
0000
,
0010
0000
0000
0000
,
0100
0000
0000
0000
,
1000
0000
0000
0000
,
1001
0000
0000
0000
,
0000
0000
0000
0000
,
0000
0000
0000
0000
,
0000
0000
0000
0000
,
0010
0000
0000
0000
,
0100
0000
0000
0000
,
0010
0000
0100
0000
,
0010
0010
0010
0000
,
1000
0000
1000
0000
,
1000
0000
1000
0000
,
0100
0000
0100
0000
,
0100
0000
0100
0000
,
0010
0000
0010
0000
,
0010
0000
0010
0000
,
0001
0000
0001
0000
,
0001
0000
0001
0000
,
0100
0000
0100
0000
,
0010
0000
0010
0000
,
1000
0000
1000
0000
,
0001
0000
0001
0000
,
0010
0000
0100
0000
,
1000
0000
0001
0000
,
0100
0000
0010
0000
,
0100
0100
0000
0000
,
0110
0000
0000
0000
,
0000
0000
0000
0000
,
0110
0000
0000
0000
,
0000
0000
0000
0000
,
0000
1001
0000
0000
;

//---------------dance-single - ----------------
#NOTEDATA:;
#CHARTNAME:;
#STEPSTYPE:dance-single;
#DESCRIPTION:;
#CHARTSTYLE:;
#DIFFICULTY:Easy;
#METER:6;
#RADARVALUES:0.217288,0.311461,0.119914,0.094669,0.000000,241.000000,222.000000,19.000000,15.000000,0.000000,0.000000,0.000000,0.000000,0.000000,0.217288,0.311461,0.119914,0.094669,0.000000,241.000000,222.000000,19.000000,15.000000,0.000000,0.000000,0.000000,0.000000,0.000000;
#CREDIT:;
#DISPLAYBPM:128.000000;
#NOTES:
0000
0000
0000
0000
,
0000
0000
0000
0000
,
0000
0000
0000
0000
,
0000
0000
0000
0000
,
1000
0000
0001
0000
,
1000
0000
0001
0000
,
0100
0000
0010
0000
,
0100
0000
0010
0000
,
1000
0000
0001
0000
,
0100
0000
0010
0000
,
1000
0000
0001
0000
,
1001
0000
0000
0010
,
0010
0000
0100
0000
,
0010
0000
0100
0000
,
0001
0000
1000
0000
,
0001
0000
1000
0000
,
0010
0000
0100
0000
,
0001
0000
1000
0000
,
0010
0000
0100
0000
,
0010
0010
0010
1000
,
0002
0000
0000
0003
,
0000
0010
0100
0010
,
0200
0300
2000
3000
,
0002
0000
0003
0000
,
1001
1000
0010
0000
,
1001
0001
0100
0000
,
1000
0001
1000
0010
,
0220
0000
0330
0000
,
0100
0001
0100
0001
,
1000
0010
1000
0010
,
0100
0001
1000
0010
,
0100
0010
0100
0000
,
0001
0010
0001
0010
,
0100
1000
0100
1000
,
0001
1000
0001
0010
,
0100
1000
0010
0000
,
0100
0001
0100
0010
,
1000
0010
0100
0100
,
0001
0010
0001
1000
,
0100
1000
0001
0001
,
0100
0000
1000
0000
,
0010
0000
0001
1000
,
1001
0010
0100
0010
,
0110
0110
0000
0000
,
2000
3000
0002
0003
,
2000
0000
0000
3000
,
0001
0000
0100
0000
,
1000
0000
0010
0000
,
0001
0000
0100
0000
,
1000
0000
0010
0000
,
0001
0100
1001
0000
,
1000
0010
1001
0000
,
0001
0100
0010
1000
,
0220
0000
0000
0330
,
0010
0000
1000
0100
,
0010
0100
0100
0100
,
0000
0010
0001
0010
,
0100
0010
0010
0001
,
1000
0000
0001
0000
,
1000
0010
0001
0010
,
0000
0010
1000
0100
,
0010
0001
1000
1001
,
0010
0001
0100
0001
,
0010
0001
0100
0001
,
0010
1000
0100
1000
,
0010
1000
0100
1000
,
0010
0001
1000
0001
,
0100
0001
1000
0001
,
0010
1000
0001
1000
,
0100
1000
0001
1000
,
0010
0001
0100
0010
,
1000
0100
0010
0100
,
1000
0010
0100
0001
,
0010
0100
0010
0001
,
1001
0000
0110
0000
,
1010
0010
0101
0000
,
0011
0100
1100
1000
,
0001
1001
0000
0000
,
0020
0000
0000
0030
,
0200
0000
0000
0300
,
0002
0000
0000
0003
,
2000
0000
0000
0000
,
3000
1001
0000
0000
;

//---------------dance-single - ----------------
#NOTEDATA:;
#CHARTNAME:;
#STEPSTYPE:dance-single;
#DESCRIPTION:;
#CHARTSTYLE:;
#DIFFICULTY:Medium;
#METER:9;
#RADARVALUES:0.339005,0.397609,0.126225,0.271384,0.000000,376.000000,356.000000,20.000000,43.000000,0.000000,0.000000,0.000000,0.000000,0.000000,0.339005,0.397609,0.126225,0.271384,0.000000,376.000000,356.000000,20.000000,43.000000,0.000000,0.000000,0.000000,0.000000,0.000000;
#CREDIT:;
#DISPLAYBPM:128.000000;
#NOTES:
0000
0000
0000
0000
,
0000
0000
0000
0000
,
0000
0000
0000
0000
,
0000
0000
0000
0000
,
1000
0001
1000
0010
,
0100
0010
1000
0001
,
1000
0100
0010
0100
,
1000
0001
1000
0010
,
0100
0010
1000
0001
,
1000
0100
0010
0100
,
1000
0000
0001
0000
1000
0000
0020
0200
,
0000
0000
0330
0000
0000
0010
0100
0010
,
0100
0001
0100
0010
,
1000
0010
0100
0001
,
1000
0100
1000
0001
,
0010
0001
1000
0100
,
0010
0001
0010
0100
,
1000
0100
0010
0001
,
0100
0001
1000
0010
,
1000
0001
0010
0100
,
1000
0010
0000
0010
0100
0000
0100
0001
,
0000
0001
0010
0100
0100
0000
1000
0000
,
0001
0100
0000
0100
0010
0000
0010
1000
,
0000
1000
0100
0010
0010
0000
0001
0000
,
1001
0000
1000
0010
0100
0000
0010
0000
,
1010
0000
0001
0100
0010
0000
0100
0000
,
0101
0000
1000
0010
0000
0100
0001
2002
,
0000
0000
0000
3003
,
1000
0010
0100
0000
0010
0000
1000
0000
,
0001
0100
0010
0000
0100
0000
0001
0000
,
1000
0100
0010
0000
0100
0000
1000
0000
,
0001
0010
0100
0000
0010
0000
0001
0000
,
1000
0001
0100
0000
0010
0000
0100
0000
,
0001
1000
0010
0000
0100
0000
0010
0000
,
2000
3100
0020
0031
,
0200
0010
0310
0110
,
0010
1000
0100
0000
1000
0000
0001
0000
,
0010
0001
0100
0000
0001
0000
1000
0000
,
0100
1000
0001
0000
0010
0001
0100
0000
,
0010
1000
0100
0000
0010
0001
1000
0000
,
1010
0000
0010
0100
0000
0100
0001
0000
,
0101
0000
0100
0010
0000
0010
1000
0000
,
1001
0000
0001
0000
1000
0100
0010
0100
,
0000
0220
0000
0000
0000
0000
0330
0000
,
0010
0001
0010
0100
0000
1000
0001
2000
,
0000
3010
0010
0010
,
0100
0001
0000
0010
0001
0000
0100
0001
,
0000
1000
0010
0100
0010
0000
0110
0000
,
0010
1000
0000
0100
1000
0000
0010
1000
,
0000
0001
0100
0010
0100
0000
0110
0000
,
1001
0000
0001
0100
0010
0000
1000
0000
,
1100
0000
1000
0010
0100
0000
0001
0000
,
0011
0000
0010
0100
0000
1000
0001
0220
,
0000
0000
0000
0330
,
2000
0000
3200
0320
,
0032
2003
3020
0230
,
0000
0302
0023
0230
,
2300
3002
0203
0320
,
2030
0000
3002
0000
,
0203
2300
3200
0302
,
0000
0023
2030
3020
,
0032
2000
0000
3003
,
0001
0100
0010
0000
1000
0000
0001
0000
,
1000
0010
0100
0000
0001
0000
1000
0000
,
0001
0010
0100
0000
1000
0000
0001
0000
,
1000
0100
0010
0000
0001
0000
1000
0000
,
0010
0100
0001
0000
0100
0010
1000
0000
,
0001
0010
0100
0000
1000
0100
0010
0010
,
0000
0001
0100
0010
0000
1000
0010
0100
,
0000
0110
0000
0101
0000
1010
0000
0000
,
1000
0001
0010
0000
0001
0000
0100
0000
,
0001
1000
0100
0000
1000
0000
0010
0000
,
0100
0001
0010
0000
0100
1000
0010
0000
,
0100
0010
0100
0001
1000
0001
1000
0000
,
0001
0010
0100
1000
0000
0010
0100
0000
,
0001
0100
0010
1000
0000
0100
0010
0000
,
0001
1000
0100
0010
0000
0001
1000
0010
,
0000
0220
0000
0000
0000
0000
0330
0000
,
0100
0001
0010
0001
0000
1000
0100
1000
,
0000
0010
0100
0020
0000
0000
0000
1030
,
0100
0010
0001
0010
0000
0100
1000
0200
,
0000
0000
0000
0000
,
0300
2002
0000
0000
,
0000
0000
0000
0000
,
3003
0000
0000
0000
;

//---------------dance-single - ----------------
#NOTEDATA:;
#CHARTNAME:;
#STEPSTYPE:dance-single;
#DESCRIPTION:;
#CHARTSTYLE:;
#DIFFICULTY:Hard;
#METER:13;
#RADARVALUES:0.494081,0.583160,0.157781,0.315563,0.104136,548.000000,523.000000,25.000000,50.000000,0.000000,0.000000,0.000000,0.000000,0.000000,0.494081,0.583160,0.157781,0.315563,0.104136,548.000000,523.000000,25.000000,50.000000,0.000000,0.000000,0.000000,0.000000,0.000000;
#CREDIT:;
#DISPLAYBPM:128.000000;
#NOTES:
0000
0000
0000
0000
,
0000
0000
0000
0000
,
0000
0000
0000
0000
,
0000
0000
0000
0000
,
1001
0001
0000
0100
0001
1000
0000
0010
,
1000
0001
0000
0010
0001
1000
0000
0100
,
1000
0001
0000
0010
0001
0100
0000
0010
,
1000
0100
0000
1000
0010
0100
0000
0001
,
0100
0010
0000
1000
0100
0010
0000
0001
,
0010
0100
0000
0010
0100
1000
0000
0100
,
0010
0001
0000
0100
0010
0100
0002
2000
,
0000
0000
0000
0000
0000
0000
3003
0000
0000
0000
1000
0001
1000
0000
0010
0000
,
0100
0001
0010
0100
1000
0010
0100
0000
,
0010
1000
0100
0010
0001
0100
0010
0000
,
0100
0001
1000
0010
0100
0001
1000
0000
,
0010
1000
0001
0100
0010
1000
0001
0000
,
0010
0100
1000
0001
0010
0100
1000
0000
,
0100
0010
0001
1000
0100
0010
0001
0000
,
1000
0010
0100
0001
0010
0100
1000
0020
,
0000
0130
0002
0000
2003
0000
3001
0001
,
0100
0100
0000
1000
1000
0000
0010
0010
,
0000
0001
0100
0010
1000
0001
0010
0100
,
0010
0010
0000
0001
0001
0000
0100
0100
,
0000
1000
0010
0100
0001
0010
0100
0010
,
0110
0000
0100
1000
0100
0000
0010
0000
0001
0000
1000
0000
1100
0000
0000
0000
,
0100
0000
0010
0001
0010
0000
0100
0000
1000
0000
0001
0000
0011
0000
0000
0000
,
0010
0000
0100
0010
0100
0000
2000
0000
0000
0000
3010
0000
0100
0000
0002
0000
,
0000
0000
0000
1003
,
1000
0010
0100
0010
0001
0010
0100
0010
,
2000
0000
3001
0200
0000
0000
0310
1000
,
0001
0100
0010
0100
1000
0100
0010
0100
,
0002
0000
1003
0020
0000
0000
0130
0002
,
0000
0013
0100
2000
0000
3100
0010
0002
,
0000
0000
0103
0000
0010
0000
2000
0000
0000
0000
3001
0100
0001
0000
0020
0000
,
0000
0130
1000
0002
0000
0013
0100
2000
,
0000
3010
0100
0001
1000
0100
0110
0000
,
0010
0001
0100
1000
0100
0010
1000
0100
,
0001
0100
0010
0001
1000
0010
0100
0000
,
0010
1000
0100
0001
0100
0010
0001
0100
,
1000
0100
0010
1000
0001
0010
0100
0000
,
1100
0010
0001
0101
0000
0010
1000
1100
,
0000
0000
0010
0000
0001
0000
0101
0000
0000
0000
0100
0010
0100
0000
0010
0000
,
1000
0001
0010
1100
0000
1000
0010
0101
,
0000
0000
2020
0000
0000
0000
0000
0000
0000
0000
3030
0000
0000
0000
0010
0100
,
0010
1000
0100
0020
0000
0031
0100
0020
,
0000
1030
1200
0000
0320
0000
0032
0000
,
1003
1000
0000
0010
0010
0000
0001
0001
,
0000
0100
0100
1000
0010
0100
0010
1000
,
0001
0001
0000
0100
0100
0000
1000
1000
,
0000
0010
0010
0001
0100
0010
0100
0001
,
1001
0000
1000
0010
1000
0000
0100
0000
0001
0000
0100
0000
1000
0000
0000
0000
,
1000
0000
0001
0100
0001
0000
0010
0000
1000
0000
0010
0000
0001
0000
0000
0000
,
1000
0000
0001
1000
0001
0000
0020
0000
0000
0000
0031
0000
1000
0000
0200
0000
,
0000
0000
0000
0000
0000
0310
0010
0010
,
0020
0000
0000
0031
0001
0100
0100
0010
,
0010
1000
1000
0002
0000
0203
0000
2300
,
0000
3100
0100
0001
0001
0010
0010
0100
,
0100
1000
0000
1000
0010
0000
0010
0100
0000
0100
0001
0000
0010
0000
0010
0000
,
0020
0000
0000
0000
0000
0130
1000
0100
1000
0000
0000
0000
0000
0000
0001
0010
,
0001
0000
0100
0000
0010
1000
0010
0000
0100
0000
0001
0010
0001
0000
0200
0000
,
0000
0000
0310
1000
0010
1000
0001
0000
0010
0000
0100
0000
1000
0000
0010
0000
,
0000
0000
0010
0000
2002
0000
0000
0000
0000
0000
3003
0000
0000
0000
0001
0100
,
0001
0010
1000
0010
0100
1000
0001
0010
,
1000
0000
0010
0000
0100
0000
1000
0000
0010
0000
0100
0000
0001
0000
1000
0100
,
1000
0010
0001
0010
0100
0001
1000
0010
,
0001
0000
0010
0000
0100
0000
0001
0000
0010
0000
0100
0000
1000
0000
0010
0100
,
0010
1000
0100
0002
0000
1003
0010
0002
,
0000
0000
1003
0000
0100
0000
0020
0000
0000
0000
0031
0100
0001
0000
2000
0000
,
0000
3001
0010
2000
0000
3001
0100
2000
,
0000
3001
0010
0100
1000
0010
0110
0000
,
0100
0001
0100
0000
1000
0000
0100
0000
0001
0000
0010
0000
0100
0000
0001
0000
,
0100
1000
0100
0000
0001
0000
0100
0000
1000
0000
0010
0000
0100
0000
1000
0000
,
0100
0010
0100
0000
0001
0000
0010
0000
1000
0000
0001
0000
0100
0000
1000
0000
,
0010
0100
0010
0000
0001
0000
1000
0000
0100
0000
0001
0000
0010
0000
1100
0000
,
0000
1000
0010
0101
0000
0001
0100
1010
,
0000
0000
1000
0000
0100
0000
0011
0000
0000
0000
0001
1000
0001
0000
0100
0000
,
0110
0010
1000
1100
0010
0001
0101
1001
,
0000
0000
2020
0000
0000
0000
0000
0000
0000
0000
3030
0000
0000
0000
0010
0100
,
0010
0100
0001
0020
0000
0130
1000
0020
,
0000
0000
0130
0000
0001
0000
2000
0000
0000
0000
0000
0000
0000
0000
3100
0010
,
0100
1000
0010
0002
0000
1003
0100
0020
,
0000
0000
0000
0000
,
0000
0000
0130
0002
2000
0000
0000
0000
0000
0000
0000
0000
0000
0000
0000
0000
,
0000
0000
0000
0000
,
3003
0000
0000
0000
;

//---------------dance-double - ----------------
#NOTEDATA:;
#CHARTNAME:;
#STEPSTYPE:dance-double;
#DESCRIPTION:;
#CHARTSTYLE:;
#DIFFICULTY:Hard;
#METER:13;
#RADARVALUES:0.467033,0.530146,0.145159,0.593258,0.072579,518.000000,495.000000,23.000000,94.000000,0.000000,0.000000,0.000000,0.000000,0.000000,0.467033,0.530146,0.145159,0.593258,0.072579,518.000000,495.000000,23.000000,94.000000,0.000000,0.000000,0.000000,0.000000,0.000000;
#CREDIT:;
#DISPLAYBPM:128.000000;
#NOTES:
00000000
00000000
00000000
00000000
,
00000000
00000000
00000000
00000000
,
00000000
00000000
00000000
00000000
,
00000000
00000000
00000000
00000000
,
00011000
00010000
00000000
00001000
00010000
00100000
00000000
00010000
,
00001000
00000100
00000000
00001000
00010000
01000000
00000000
00010000
,
00001000
00000010
00000000
00000100
00000010
00000001
00000000
00000100
,
00001000
00010000
00000000
00001000
00010000
01000000
00000000
00100000
,
01000000
10000000
00000000
00100000
00010000
00001000
00000000
00010000
,
00001000
00000010
00000000
00000001
00000100
00001000
00000000
00010000
,
00100000
10000000
00000000
01000000
00010000
00001000
00010000
00022000
,
00000000
00000000
00000000
00000000
00000000
00000000
00033000
00000000
00000000
00000000
00001000
00010000
00001000
00000000
00100000
00000000
,
00010000
00000000
10000000
00000000
00100000
01000000
00010000
00100000
,
00000000
01000000
00010000
00001000
00000000
00000010
00000100
00001000
,
00001001
00000000
00000001
00000000
00000100
00000010
00001000
00010000
,
00000000
00001000
00010000
01000000
00000000
10000000
00100000
01000000
,
01100000
00000000
00100000
00000000
10000000
01000000
00010000
00001000
,
00000000
00010000
00001000
00000100
00000000
00000001
00000010
00000100
,
00010000
00001000
00100000
01000000
10000000
00100000
00010000
00002000
,
00000000
00000100
00003200
00000000
00000302
00000000
00000013
00000010
,
00000100
00001000
00000000
00000100
00000001
00000000
00000100
00001000
,
00000000
00000100
00010000
00001000
00100000
01000000
10000000
00100000
,
01000000
00010000
00000000
01000000
10000000
00000000
01000000
00010000
,
00000000
01000000
10000000
01000000
00100000
00010000
00001000
00010000
,
00011000
00000000
00001000
00010000
00001000
00000000
00010000
00000000
00000100
00000000
00000010
00000000
00000001
00000000
00000000
00000000
,
00000100
00000000
00001000
00010000
00001000
00000000
00010000
00000000
00100000
00000000
01000000
00000000
10000000
00000000
00000000
00000000
,
01000000
00000000
00100000
01000000
00100000
00000000
00020000
00000000
00000000
00000000
00031000
00000000
00000010
00000000
00000002
00000000
,
00000000
00000000
00000000
00001003
,
00001000
00000010
00010000
00100000
00001000
00000010
00010000
00100000
,
20000000
00000000
01000000
32000000
00000000
00000000
03100000
00100000
,
00010000
01000000
00001000
00000100
00010000
01000000
00001000
00000100
,
00000002
00000000
00000010
00000023
00000000
00000000
00001030
00020000
,
00000000
00130000
00010000
00002000
00000000
00003100
00001000
00020000
,
00000000
00000000
01030000
00000000
00010000
00000000
00002000
00000000
00000000
00000000
00003100
00000001
00000100
00000000
00000002
00000000
,
00000000
00000013
00001000
00020000
00000000
00031000
00010000
02000000
,
00000000
13000000
00100000
01000000
00001000
00010000
00011000
00000000
,
00001000
00010000
00100000
00001000
00000010
00010000
00001000
00000100
,
00000002
00000000
00000010
00000023
00000000
00001030
00010000
01000000
,
00010000
00001000
00000100
00010000
01000000
00001000
00010000
00100000
,
20000000
00000000
01000000
32000000
00000000
03010000
00001000
00000010
,
00000011
00001000
00000100
00010100
00000000
00010000
00001000
01001000
,
00000000
00000000
01000000
00000000
00010000
00000000
00110000
00000000
00000000
00000000
00100000
01000000
00100000
00000000
01000000
00000000
,
10000000
00100000
00010000
00011000
00000000
00001000
00000100
00000101
,
00000000
00000000
00002020
00000000
00000000
00000000
00000000
00000000
00000000
00000000
00003030
00000000
00000000
00000000
00001000
00000100
,
00001000
00000100
00010000
00002000
00000000
00103000
01000000
20000000
,
00000000
30100000
00120000
00000000
00032000
00000000
00003020
00000000
,
00000031
00000001
00000000
00001000
00001000
00000000
00010000
00010000
,
00000000
10000000
10000000
00100000
01000000
00100000
01000000
00010000
,
10000000
10000000
00000000
00010000
00010000
00000000
00001000
00001000
,
00000000
00000001
00000001
00000100
00000010
00000100
00000010
00001000
,
00001001
00000000
00000001
00000010
00000001
00000000
00000100
00000000
00001000
00000000
00010000
00000000
00100000
00000000
00000000
00000000
,
00100000
00000000
10000000
01000000
10000000
00000000
00100000
00000000
00010000
00000000
00001000
00000000
00000100
00000000
00000000
00000000
,
00000100
00000000
00000001
00001000
00000001
00000000
00000020
00000000
00000000
00000000
00001030
00000000
00010000
00000000
02000000
00000000
,
00000000
00000000
00000000
00000000
00000000
23000000
30200000
02300000
,
03020000
00000000
00000000
00230000
02300000
03020000
00032000
00003020
,
00000032
00000203
00002300
00023000
00000000
02030000
00000000
23000000
,
00000000
30200000
02300000
03020000
00230000
02300000
03020000
00032000
,
00003020
00000000
00000000
00000032
00000000
00000000
00000203
00000000
00000000
00002300
00000000
00000000
00023000
00000000
00230000
00000000
,
20300000
00000000
00000000
32000000
03200000
00000000
00000000
00320000
,
02030000
00000000
03002000
00003200
00000000
00020300
02030000
00000000
,
00000000
03200000
00320000
00032000
00003200
00000302
00000023
00002030
,
00000000
00000000
00010000
00000000
00020000
00000000
00000000
00000000
00000000
00000000
00033000
00000000
00000000
00000000
00010000
00001000
,
00010000
00100000
10000000
01000000
00100000
00001000
00010000
00100000
,
00002000
00000000
00000000
00000000
00003010
00000000
00020000
00000000
00000000
00000000
00031000
00000000
00000100
00000000
00001000
00010000
,
00001000
00000010
00000001
00000100
00000010
00010000
00001000
00000010
,
00020000
00000000
00000000
00000000
00130000
00000000
00002000
00000000
00000000
00000000
00013000
00000000
01000000
00000000
00010000
00001000
,
00010000
00001000
00000010
00000002
00000000
00001003
00000100
00000002
,
00000000
00000000
00001003
00000000
00000010
00000000
00000200
00000000
00000000
00000000
00010300
00001000
00010000
00000000
02000000
00000000
,
00000000
13000000
00100000
00020000
00000000
10030000
01000000
00020000
,
00000000
00130000
01000000
00010000
00001000
00010000
00011000
00000000
,
00001000
00010000
00001000
00000000
00100000
00000000
01000000
00000000
00010000
00000000
01000000
00000000
10000000
00000000
00100000
00000000
,
00010000
00001000
00010000
00000000
00000100
00000000
00000010
00000000
00001000
00000000
00000010
00000000
00000001
00000000
00000100
00000000
,
00001000
01000000
00001000
00000000
00010000
00000000
00100000
00000000
10000000
00000000
01000000
00000000
00100000
00000000
00001000
00000000
,
00010000
00000010
00010000
00000000
00001000
00000000
00000100
00000000
00000001
00000000
00000010
00000000
00000100
00000000
00010100
00000000
,
00000000
00010000
00001000
01001000
00000000
01000000
00100000
10100000
,
00000000
00000000
10000000
00000000
01000000
00000000
01010000
00000000
00000000
00000000
00010000
00001000
00010000
00000000
00000100
00000000
,
00000110
00000001
00000100
00001000
00010000
00100000
10000000
01100000
,
00000000
00000000
20020000
00000000
00000000
00000000
00000000
00000000
00000000
00000000
30030000
00000000
00000000
00000000
00100000
01000000
,
00100000
00010000
00001000
00000200
00000000
00000301
00000010
00002000
,
00000000
00000000
00013000
00000000
01000000
00000000
20000000
00000000
00000000
00000000
00000000
00000000
00000000
00000000
30010000
00100000
,
00010000
00001000
00000100
00000020
00000000
00000031
00000100
00002000
,
00000000
00000000
00000000
00000000
,
00000000
00020000
00000000
00000000
,
00000000
00000000
00000000
00000000
,
00033000
00000000
00000000
00000000
;

//---------------dance-double - ----------------
#NOTEDATA:;
#CHARTNAME:;
#STEPSTYPE:dance-double;
#DESCRIPTION:;
#CHARTSTYLE:;
#DIFFICULTY:Easy;
#METER:7;
#RADARVALUES:0.203763,0.259551,0.082046,0.094669,0.000000,226.000000,213.000000,13.000000,15.000000,0.000000,0.000000,0.000000,0.000000,0.000000,0.203763,0.259551,0.082046,0.094669,0.000000,226.000000,213.000000,13.000000,15.000000,0.000000,0.000000,0.000000,0.000000,0.000000;
#CREDIT:;
#DISPLAYBPM:128.000000;
#NOTES:
00000000
00000000
00000000
00000000
,
00000000
00000000
00000000
00000000
,
00000000
00000000
00000000
00000000
,
00000000
00000000
00000000
00000000
,
01000000
00000000
00001000
00000000
,
01000000
00000000
00001000
00000000
,
00100000
00000000
00010000
00000000
,
00100000
00000000
00010000
00000000
,
01000000
00000000
00001000
00000000
,
00100000
00000000
00010000
00000000
,
01000000
00000000
00001000
00000000
,
00011000
00000000
00000000
00010000
,
00000010
00000000
00001000
00000000
,
00000010
00000000
00001000
00000000
,
00000100
00000000
00010000
00000000
,
00000100
00000000
00010000
00000000
,
00000010
00000000
00001000
00000000
,
00000100
00000000
00010000
00000000
,
00000010
00000000
00001000
00000000
,
00000100
00000100
00000100
00010000
,
00002000
00000000
00000000
00003000
,
00000000
00100000
00100000
00100000
,
00020000
00030000
02000000
03000000
,
00200000
00000000
00300000
00000000
,
10000000
01000000
00010000
00000000
,
00001000
00000010
00000001
00000000
,
00000100
00000010
00000100
00001000
,
00022000
00000000
00033000
00000000
,
00010000
00000100
00001000
00000100
,
00000010
00000100
00001000
00000100
,
00010000
00000100
00001000
00000100
,
00000010
00000001
00000100
00000000
,
00001000
01000000
00010000
01000000
,
00100000
01000000
00010000
01000000
,
00001000
01000000
00010000
01000000
,
00100000
10000000
01000000
00000000
,
00010000
00001000
00000100
00001000
,
00010000
00100000
00010000
00001000
,
00000010
00001000
00010000
01000000
,
00010000
00001000
00000010
00000001
,
00001001
00000000
00000110
00000000
,
00000100
00001000
00010000
00100000
,
01000000
00100000
10000000
01000000
,
00010000
00011000
00000000
00000000
,
00002000
00003000
00020000
00030000
,
00002000
00000000
00000000
00003000
,
00000100
00000000
00000001
00000000
,
00000010
00000000
00001000
00000000
,
00010000
00000000
01000000
00000000
,
10000000
00000000
00100000
00000000
,
00010000
00001000
00010000
00000000
,
00001000
00010000
00001000
00000000
,
00010000
00001000
00000100
00000010
,
00000220
00000000
00000000
00000330
,
00001001
00000000
00000001
00000000
,
00000100
00000000
00001000
00000000
,
00010000
00000000
00100000
00000000
,
10000000
00000000
01000000
00000000
,
00100000
00000000
00010000
00000000
,
00001000
00000000
00000100
00000000
,
00000010
00000000
00000001
00000100
,
00001000
00010000
00001000
00011000
,
01000000
00010000
00100000
01000000
,
00010000
01000000
10000000
01000000
,
00100000
00010000
01000000
00001000
,
00010000
00100000
00001000
00000000
,
00000010
00001000
00000100
00000010
,
00001000
00000010
00000001
00000010
,
00000100
00001000
00000010
00010000
,
00001000
00000100
00010000
00000000
,
10000000
01000000
00010000
00001000
,
00100000
01000000
00010000
00001000
,
00000010
00000100
00010000
00001000
,
00000100
00000001
00000010
00001000
,
00011000
00000000
01010000
00000000
,
11000000
10000000
00100000
00000000
,
00010000
00001000
00000100
00000001
,
00001000
00001001
00000000
00000000
,
00000020
00000000
00000000
00000030
,
00000200
00000000
00000000
00000300
,
00002000
00000000
00000000
00003000
,
00020000
00000000
00000000
00000000
,
00030000
00011000
00000000
00000000
;

//---------------dance-double - ----------------
#NOTEDATA:;
#CHARTNAME:;
#STEPSTYPE:dance-double;
#DESCRIPTION:;
#CHARTSTYLE:;
#DIFFICULTY:Medium;
#METER:9;
#RADARVALUES:0.326382,0.371102,0.132536,0.132536,0.000000,362.000000,341.000000,21.000000,21.000000,0.000000,0.000000,0.000000,0.000000,0.000000,0.326382,0.371102,0.132536,0.132536,0.000000,362.000000,341.000000,21.000000,21.000000,0.000000,0.000000,0.000000,0.000000,0.000000;
#CREDIT:;
#DISPLAYBPM:128.000000;
#NOTES:
// measure 0
00000000
00000000
00000000
00000000
,  // measure 1
00000000
00000000
00000000
00000000
,  // measure 2
00000000
00000000
00000000
00000000
,  // measure 3
00000000
00000000
00000000
00000000
,  // measure 4
00001000
00100000
00001000
01000000
,  // measure 5
00010000
01000000
00001000
00010000
,  // measure 6
00001000
00100000
00010000
00100000
,  // measure 7
00001000
01000000
00001000
00100000
,  // measure 8
00010000
00100000
00001000
00010000
,  // measure 9
00001000
01000000
00010000
01000000
,  // measure 10
00001000
00000000
00010000
00000000
00001000
00000000
00010000
00022000
,  // measure 11
00000000
00000000
00033000
00000000
00000000
00001000
00010000
00001000
,  // measure 12
00010000
00000010
00010000
00000100
,  // measure 13
00001000
00000100
00010000
00001000
,  // measure 14
00010000
00000010
00001000
00000010
,  // measure 15
00010000
00000100
00010000
00000010
,  // measure 16
00001000
00000010
00010000
00001000
,  // measure 17
00010000
01000000
00010000
00001000
,  // measure 18
00000100
00001000
00010000
00100000
,  // measure 19
00010000
00001000
00000010
00001000
,  // measure 20
00010000
00010000
00000000
00000100
00000100
00000000
00000010
00000010
,  // measure 21
00000000
00000001
00000100
00001000
00010000
00000000
00011000
00000000
,  // measure 22
00001000
00001000
00000000
01000000
01000000
00000000
00100000
00100000
,  // measure 23
00000000
10000000
01000000
00010000
00001000
00000000
00010000
00000000
,  // measure 24
00011000
00000000
00001000
00100000
00001000
00000000
00010000
00000000
,  // measure 25
00001000
00000000
00010000
00000100
00010000
00000000
00001000
00000000
,  // measure 26
00010000
00000000
00001000
00001000
00000000
00010000
00010000
00022000
,  // measure 27
00000000
00000000
00000000
00033000
,  // measure 28
00010000
00100000
10000000
01000000
,  // measure 29
00100000
01000000
00010000
00010000
,  // measure 30
00001000
00000100
00000001
00000010
,  // measure 31
00000100
00000010
00001000
00001000
,  // measure 32
00010000
01000000
10000000
00100000
,  // measure 33
00010000
00001000
00000100
00000001
,  // measure 34
00000010
00001000
00010000
00001000
,  // measure 35
00011000
00010000
00011000
00001000
,  // measure 36
00100000
00010000
01000000
00000000
00001000
00000000
00010000
00000000
,  // measure 37
00000100
00001000
00000010
00000000
00010000
00000000
00001000
00000000
,  // measure 38
01000000
00010000
00100000
00000000
00001000
00000000
00010000
00000000
,  // measure 39
00000010
00001000
00000100
00000000
00010000
00000000
00001000
00000000
,  // measure 40
00011000
00000000
00010000
00000010
00000000
00010000
00001000
00000000
,  // measure 41
00011000
00000000
00001000
01000000
00000000
00001000
00010000
00000000
,  // measure 42
00011000
00000000
00001000
00000000
00010000
00001000
00010000
00010000
,  // measure 43
00000000
00022000
00000000
00000000
00000000
00000000
00033000
00000000
,  // measure 44
00001000
00010000
00001000
00001000
00000000
00010000
00001000
02000000
,  // measure 45
00000000
03100000
00100000
00100000
,  // measure 46
10000000
01000000
00000000
01000000
00010000
00000000
00010000
00001000
,  // measure 47
00000000
00001000
00000010
00000100
00000010
00000000
00000011
00000000
,  // measure 48
00000001
00000100
00000000
00000100
00001000
00000000
00001000
00010000
,  // measure 49
00000000
00010000
01000000
00100000
01000000
00000000
11000000
00000000
,  // measure 50
10100000
00000000
00100000
00010000
00001000
00000000
00000100
00000000
,  // measure 51
00000101
00000000
00000100
00001000
00010000
00000000
00100000
00000000
,  // measure 52
01100000
00000000
00100000
10000000
00000000
01000000
00010000
00022000
,  // measure 53
00000000
00000000
00000000
00033000
,  // measure 54
02000000
00000000
03001000
00010000
,  // measure 55
00000100
00000010
00000001
00000200
,  // measure 56
00000000
00001300
00010000
00100000
,  // measure 57
10000000
01000000
00100000
00010000
,  // measure 58
02000000
00000000
03002000
00000000
,  // measure 59
00013000
00100000
00001000
00000020
,  // measure 60
00000000
00000130
00010000
01000000
,  // measure 61
00001000
00022000
00000000
00033000
,  // measure 62
00010000
00000100
00000010
00001000
,  // measure 63
00000010
00000001
00000100
00000100
,  // measure 64
00001000
01000000
00100000
00010000
,  // measure 65
00100000
10000000
01000000
01000000
,  // measure 66
00010000
00001000
00000100
00000000
00000010
00000000
00010000
00000000
,  // measure 67
00001000
00010000
00100000
00000000
01000000
00000000
00001000
00010000
,  // measure 68
00000000
00100000
00010000
00001000
00000000
00000010
00001000
00010000
,  // measure 69
00000000
00010100
00000000
00011000
00000000
01001000
00000000
00000000
,  // measure 70
01000000
00010000
00100000
00000000
01000000
00000000
00010000
00000000
,  // measure 71
00001000
00010000
00100000
00000000
00010000
00000000
00001000
00000000
,  // measure 72
00010000
00001000
00000010
00000000
00000100
00000000
00001000
00000000
,  // measure 73
00000010
00000100
00000001
00000100
00000001
00001000
00000100
00000000
,  // measure 74
00000010
00000001
00001000
00000100
00000000
00010000
00001000
00000000
,  // measure 75
00100000
00010000
10000000
01000000
00000000
00100000
00001000
00000000
,  // measure 76
00010000
00000100
00000010
00000001
00000000
00000100
00001000
00010000
,  // measure 77
00000000
00022000
00000000
00000000
00000000
00000000
00033000
00000000
,  // measure 78
00001000
00010000
00100000
01000000
00000000
00100000
10000000
01000000
,  // measure 79
00000000
00100000
00010000
02000000
00000000
00000000
00000000
03001000
,  // measure 80
00010000
00000100
00001000
00000001
00000000
00000010
00001000
00020000
,  // measure 81
00000000
00000000
00000000
00000000
,  // measure 82
00000000
00002000
00000000
00000000
,  // measure 83
00000000
00000000
00000000
00000000
,  // measure 84
00033000
00000000
00000000
00000000
;
