#TITLE:Way Back Home (feat. Conor Maynard);
#SUBTITLE:;
#ARTIST:SHAUN;
#TITLETRANSLIT:;
#SUBTITLETRANSLIT:;
#ARTISTTRANSLIT:;
#GENRE:K-POP;
#CREDIT:MUINELIM;
#BANNER:Way Back Home (feat. Conor Maynard).png;
#BACKGROUND:Way Back Home (feat. Conor Maynard)-bg.png;
#LYRICSPATH:;
#CDTITLE:;
#MUSIC:Way Back Home (feat. Conor Maynard).ogg;
#OFFSET:0.212000;
#SAMPLESTART:81.933464;
#SAMPLELENGTH:13.524906;
#SELECTABLE:YES;
#DISPLAYBPM:106.000000;
#BPMS:0.000000=106.000000
;
#STOPS:
;
#BGCHANGES:;
#KEYSOUNDS:;
#ATTACKS:;

//---------------dance-single - ----------------
#NOTES:
     dance-single:
     :
     Beginner:
     2:
     0.058310,0.085799,0.008330,0.000000,0.000000,49.000000,48.000000,1.000000,0.000000,0.000000,0.000000,0.058310,0.085799,0.008330,0.000000,0.000000,49.000000,48.000000,1.000000,0.000000,0.000000,0.000000:
0000
0000
0000
0000
,
0000
0000
0000
0000
,
0000
0000
0000
0000
,
0000
0000
0000
0000
,
0000
0000
1000
0000
,
0000
0000
1000
0000
,
0000
0000
0001
0000
,
0000
0000
0001
0000
,
0000
0000
1000
0000
,
0000
0000
0100
0000
,
0000
0000
0010
0000
,
0000
0000
0001
0000
,
0000
0000
0100
0000
,
0000
0000
0100
0000
,
0000
0000
0010
0000
,
0000
0000
0010
0000
,
0000
0000
0100
0000
,
0000
0000
0010
0000
,
0000
0000
0100
0000
,
0000
0000
0010
0000
,
0000
0000
1000
0000
,
0000
0000
1000
0000
,
0000
0000
0001
0000
,
0000
0000
0001
0000
,
0000
0000
1000
0000
,
0000
0000
0001
0000
,
0000
0000
1000
0000
,
0000
0000
0001
0000
,
0000
0000
1000
0000
,
0000
0000
1000
0000
,
0000
0000
0010
0000
,
0000
0000
0010
0000
,
0000
0000
0100
0000
,
0000
0000
0100
0000
,
0000
0000
0001
0000
,
0000
0000
0001
0000
,
0000
0000
1000
0000
,
0000
0000
0100
0000
,
0000
0000
0010
0000
,
0000
0000
0001
0000
,
0000
0000
0001
0000
,
0000
0000
0010
0000
,
0000
0000
0100
0000
,
0000
0000
1000
0000
,
0000
0000
0010
0000
,
0000
0000
0010
0000
,
0000
0000
0100
0000
,
0000
0000
0100
0000
,
0000
0000
0001
0000
,
0000
0000
1000
0000
,
0000
0000
0001
0000
,
0000
0000
1001
0000
;

//---------------dance-single - ----------------
#NOTES:
     dance-single:
     :
     Easy:
     4:
     0.154700,0.173264,0.033320,0.016660,0.000000,130.000000,126.000000,4.000000,2.000000,0.000000,0.000000,0.154700,0.173264,0.033320,0.016660,0.000000,130.000000,126.000000,4.000000,2.000000,0.000000,0.000000:
0000
0000
0000
0000
,
0000
0000
0000
0000
,
0000
0000
0000
0000
,
0000
0000
0000
0000
,
0000
0000
1000
0000
,
0001
0000
1000
1000
,
1000
0000
0001
0000
,
1000
0000
0001
0001
,
0001
0000
0100
0100
,
0100
0000
0010
0010
,
0010
0000
1000
1000
,
1000
0000
0001
0001
,
0001
0000
1001
0000
,
1000
0010
1000
0000
,
0010
1000
0010
0000
,
0100
0001
0100
0000
,
0001
0100
0001
0000
,
0010
0001
0010
0000
,
0100
1000
0100
0000
,
0010
0100
0010
0000
,
0110
0000
0100
1000
,
0100
0000
1000
0100
,
1000
0000
0001
0010
,
0001
0000
0010
0001
,
0010
0000
0001
0100
,
0001
0000
1000
0010
,
1000
0000
0001
0000
,
0001
0000
1000
0000
,
1000
0000
0010
0000
,
0100
0000
0010
0010
,
0010
0000
0100
0000
,
0010
0000
0100
0100
,
0100
0000
0001
0000
,
1000
0000
0001
1000
,
0001
0000
1000
0000
,
0001
0000
2002
0000
,
3003
0000
1000
0010
,
0100
0000
0001
0010
,
0100
0000
1000
0100
,
0010
0000
0001
0100
,
0010
0000
1000
0001
,
0100
0000
0001
1000
,
0010
0000
0100
0010
,
1000
0000
0010
0100
,
0001
0000
1000
0000
,
1000
0000
0100
0000
,
0100
0000
0001
0000
,
0001
0000
0010
0000
,
0010
0000
1000
0000
,
0010
0000
0001
0000
,
0100
0000
1000
0000
,
0001
0000
0100
0010
,
0110
0000
0000
0000
;

//---------------dance-double - ----------------
#NOTES:
     dance-double:
     :
     Easy:
     4:
     0.149940,0.173264,0.033320,0.016660,0.000000,126.000000,122.000000,4.000000,2.000000,0.000000,0.000000,0.149940,0.173264,0.033320,0.016660,0.000000,126.000000,122.000000,4.000000,2.000000,0.000000,0.000000:
00000000
00000000
00000000
00000000
,
00000000
00000000
00000000
00000000
,
00000000
00000000
00000000
00000000
,
00000000
00000000
00000000
00000000
,
00000000
00000000
00001000
00000000
,
00010000
00000000
00001000
00001000
,
00001000
00000000
00010000
00000000
,
00001000
00000000
00010000
00010000
,
00010000
00000000
00000010
00000000
,
00001000
00000000
00000100
00000000
,
00010000
00000000
00001000
00000000
,
01000000
00000000
00010000
00000000
,
00100000
00000000
00011000
00000000
,
00001000
00010000
00000010
00000000
,
00010000
00001000
00100000
00000000
,
00001000
00010000
00000100
00000000
,
00010000
00001000
01000000
00000000
,
00001000
00010000
00100000
00000000
,
00010000
00001000
00000010
00000000
,
00001000
00010000
00001000
00000000
,
00011000
00000000
00010000
00001000
,
01000000
00000000
00001000
00010000
,
00000100
00000000
00010000
00001000
,
00100000
00000000
00001000
00010000
,
00000010
00000000
00010000
00001000
,
00000100
00000000
00001000
00010000
,
00100000
00000000
10000000
00000000
,
01000000
00000000
00010000
00000000
,
00001000
00000000
00000010
00000000
,
00000001
00000000
00000100
00001000
,
00010000
00000000
00100000
00000000
,
10000000
00000000
01000000
00010000
,
00001000
00000000
00010000
00000000
,
00001000
00000000
00010000
00001000
,
00010000
00000000
00001000
00000000
,
00010000
00000000
00022000
00000000
,
00033000
00000000
00001000
00100000
,
00010000
00000000
01000000
00001000
,
00010000
00000000
00000010
00010000
,
00001000
00000000
00000100
00000010
,
00001000
00000000
00000100
00000010
,
00000001
00000000
00001000
00000100
,
00010000
00000000
00001000
01000000
,
00010000
00000000
10000000
00100000
,
01000000
00000000
00100000
00000000
,
00100000
00000000
00010000
00000000
,
00010000
00000000
00001000
00000000
,
00001000
00000000
00000100
00000000
,
00000100
00000000
00000010
00000000
,
00001000
00000000
00000001
00000000
,
00000010
00000000
00001000
00000000
,
00010000
00000000
00100000
10000000
,
10010000
00000000
00000000
00000000
;

//---------------dance-single - ----------------
#NOTES:
     dance-single:
     :
     Medium:
     7:
     0.247520,0.303212,0.099960,0.283220,0.000000,208.000000,196.000000,12.000000,34.000000,0.000000,0.000000,0.247520,0.303212,0.099960,0.283220,0.000000,208.000000,196.000000,12.000000,34.000000,0.000000,0.000000:
0000
0000
0000
0000
,
0000
0000
0000
0000
,
0000
0000
0000
0000
,
0000
0000
0000
0000
,
0000
0000
1000
0010
,
0100
0001
1000
0010
,
2002
3003
0001
0100
,
0010
1000
0001
0100
,
1001
0000
1000
0001
1000
0000
0100
0000
,
0010
0001
1000
0100
,
0010
0000
0001
1000
0001
0000
0010
0000
,
0100
1000
0001
0010
,
0100
1001
0220
0330
,
0010
0100
0010
0000
2000
0000
3000
0000
,
0100
0010
0100
0000
0020
0000
0030
0000
,
0001
0010
0001
0000
2000
0000
3000
0000
,
0001
0010
0001
0000
0200
0000
0300
0000
,
0010
1000
0010
0000
0200
0000
0300
0000
,
0010
1000
0010
0000
2000
0000
3200
0000
,
0320
0000
0032
0000
1003
0000
0010
0100
,
0110
0000
0000
0010
1000
0000
0100
0000
,
0020
0000
0030
0001
0100
0000
0010
0000
,
2000
0000
3000
0001
0010
0000
0100
0000
,
2000
0000
3000
0010
0100
0000
0001
0000
,
0020
0000
0030
0100
0010
0000
0001
0000
,
0200
0000
0300
0010
1000
0000
0100
0000
,
0020
0000
0030
0001
1000
0000
0100
0000
,
0010
0000
0001
1000
0001
0000
0010
0000
,
0100
1000
0010
0100
,
0001
1000
0010
0100
,
2002
3003
0100
0010
,
1000
0001
0100
0010
,
1001
0000
1000
0001
0100
0000
0001
0000
,
0010
0001
1000
0100
,
1000
0000
0001
1000
0010
0000
1000
0000
,
0001
0100
0220
0000
,
0330
0000
0001
1000
0100
0000
1000
0000
,
0010
0000
1000
0001
0010
0000
0001
0000
,
0010
0000
0001
1000
0100
0000
1000
0000
,
0100
0000
1000
0001
0100
0000
0001
0000
,
0100
0000
0001
0010
0100
0000
1000
0010
,
0100
0000
0001
0100
0010
0000
1000
0100
,
0010
0000
0001
0100
1000
0000
0001
0010
,
1000
0000
0100
0010
0100
0010
0001
1000
,
0200
0300
0120
0000
,
0032
0000
1003
0010
,
0200
0300
0120
0000
,
2030
0000
3001
0010
,
0200
0300
1000
0010
,
0100
0001
0010
0100
,
2002
0003
3020
0000
,
0230
0000
0301
1000
,
1001
0000
0000
0000
;

//---------------dance-double - ----------------
#NOTES:
     dance-double:
     :
     Medium:
     7:
     0.249900,0.259896,0.149940,0.233240,0.000000,210.000000,192.000000,18.000000,28.000000,0.000000,0.000000,0.249900,0.259896,0.149940,0.233240,0.000000,210.000000,192.000000,18.000000,28.000000,0.000000,0.000000:
00000000
00000000
00000000
00000000
,
00000000
00000000
00000000
00000000
,
00000000
00000000
00000000
00000000
,
00000000
00000000
00000000
00000000
,
00000000
00000000
01000000
00100000
,
00010000
00001000
00000100
00000010
,
00002002
00003003
00000010
00000100
,
00001000
00010000
00100000
01000000
,
10010000
00000000
10000000
00010000
10000000
00000000
00100000
00000000
,
00010000
00001000
00010000
00001000
,
00000100
00000000
00000001
00001000
00000001
00000000
00000010
00000000
,
00001000
00010000
00001000
00010000
,
01000000
10010000
02200000
03300000
,
00100000
10000000
00100000
00000000
02000000
00000000
03000000
00000000
,
00100000
01000000
00100000
00000000
00020000
00000000
00030000
00000000
,
00001000
00010000
00001000
00000000
00000200
00000000
00000300
00000000
,
00000010
00000100
00000010
00000000
00002000
00000000
00003000
00000000
,
00000001
00000100
00000001
00000000
00000020
00000000
00000030
00000000
,
00001000
00010000
00001000
00000000
00200000
00000000
00320000
00000000
,
02030000
00000000
03200000
00000000
10300000
00000000
01000000
00100000
,
01100000
00000000
00000000
01000000
00010000
00000000
00001000
00000000
,
00011000
00000000
00000000
00010000
00000100
00000000
00001000
00000000
,
00001001
00000000
00000000
00000001
00000100
00000000
00000010
00000000
,
00000110
00000000
00000000
00000100
00001000
00000000
00010000
00000000
,
00011000
00000000
00000000
00001000
00100000
00000000
00010000
00000000
,
01010000
00000000
00000000
01000000
00100000
00000000
10000000
00000000
,
11000000
00000000
00000000
01000000
00010000
00000000
00001000
00000000
,
00000010
00000000
00000001
00000100
00000001
00000000
00000010
00000000
,
00001000
00010000
01000000
10000000
,
00100000
00010000
00001000
00010000
,
00022000
00033000
00000100
00000001
,
00000010
00001000
00010000
00001000
,
00011000
00000000
00100000
00010000
01000000
00000000
00010000
00000000
,
00100000
00001000
00010000
00000100
,
00001000
00000000
00000010
00010000
00001000
00000000
00100000
00000000
,
00010000
01000000
02200000
00000000
,
03300000
00000000
00100000
10000000
00100000
00000000
01000000
00000000
,
00010000
00000000
00100000
00001000
00100000
00000000
00010000
00000000
,
01000000
00000000
00001000
00010000
00001000
00000000
00010000
00000000
,
00000100
00000000
00001000
00000010
00001000
00000000
00000100
00000000
,
00000010
00000000
00000001
00000100
00000010
00000000
00001000
00000000
,
00000100
00000000
00010000
00001000
01000000
00000000
00010000
00000000
,
10000000
00000000
00100000
01000000
00010000
00000000
00100000
00000000
,
00001000
00000000
00010000
00000100
00001000
00000000
00000100
00000010
,
00000002
00000003
00000201
00000000
,
00002300
00000000
00013000
00100000
,
20000000
30000000
12000000
00000000
,
03020000
00000000
00031000
00000010
,
00000002
00000003
00001000
00000100
,
00010000
00001000
00100000
00010000
,
20020000
00030000
32000000
00000000
,
03020000
00000000
00031000
00010000
,
00011000
00000000
00000000
00000000
;

//---------------dance-single - ----------------
#NOTES:
     dance-single:
     :
     Hard:
     10:
     0.357000,0.368186,0.124950,0.233240,0.187425,300.000000,285.000000,15.000000,28.000000,0.000000,0.000000,0.357000,0.368186,0.124950,0.233240,0.187425,300.000000,285.000000,15.000000,28.000000,0.000000,0.000000:
0000
0000
0000
0000
,
0000
0000
0000
0000
,
0000
0000
0000
0000
,
0000
0000
0000
0000
,
0000
0000
0000
0000
0000
0000
0000
0000
1000
0000
0000
0010
0000
0000
0100
0000
,
0102
0000
0000
0000
2003
0000
0000
0000
3010
0000
0000
0100
0000
0000
0001
0000
,
1001
0000
0000
0000
0000
0000
1000
0000
1000
0000
0000
0001
0000
0000
0100
0000
,
0020
0000
0000
0000
1030
0000
0001
0000
0010
0000
0000
0100
0000
0000
1000
0000
,
1001
0000
0000
0010
0100
0000
0010
0000
1000
0000
0000
0100
0000
0000
0010
0000
,
0001
0000
0000
0000
0010
0000
0001
0000
0100
0000
0000
0010
0000
0000
1000
0000
,
0001
0000
0000
0000
0010
0000
0100
0000
1000
0000
0000
0010
0000
0000
0100
0000
,
0001
0000
0000
0000
1000
0000
0100
0000
0010
0000
0000
0001
0000
0000
0100
0000
,
0010
0000
1000
0001
2002
0000
3003
0000
,
1000
0010
0100
0001
1000
0000
1000
0000
,
0001
0100
0010
1000
0001
0000
0001
0000
,
1000
0100
0010
0001
0100
0000
0100
0000
,
0001
0010
0100
1000
0010
0000
0010
0000
,
0100
0001
1000
0100
0010
0000
0010
0000
,
0100
1000
0001
0100
0020
0000
2030
0000
,
3002
0000
0203
0000
0310
0100
0001
1000
,
2002
0000
3003
0000
0001
0100
1000
0100
,
0001
0000
0010
0000
0100
1000
0010
1000
,
0100
0000
0010
0000
0001
0100
0010
0100
,
0001
0000
1000
0000
0001
0010
0100
0010
,
0001
0000
0100
0000
1000
0100
0001
0100
,
1000
0000
0100
0000
0010
1000
0001
1000
,
0010
0000
0100
0002
0013
0000
0100
0000
,
0010
0000
0100
2000
3010
0000
0100
0000
,
0010
0000
0000
0000
0100
0000
0100
0000
0001
0000
0000
0010
0000
0000
0100
0000
,
2000
0000
0000
0000
3010
0000
0100
0000
0001
0000
0000
1000
0000
0000
0100
0000
,
0110
0000
0000
0000
0000
0000
0010
0000
0010
0000
0000
0001
0000
0000
0100
0000
,
0020
0000
0000
0000
1030
0000
0001
0000
0010
0000
0000
0100
0000
0000
1000
0000
,
1001
0000
0000
0000
0001
0000
0100
0000
0010
0000
0000
1000
0000
0000
0001
0000
,
0201
0000
0000
0000
0320
0000
0000
0000
1030
0000
0000
0100
0000
0000
0010
0000
,
0110
0000
0000
0000
0000
0000
0100
0000
0100
0000
0000
1000
0000
0000
0001
0000
,
0200
0000
0310
1000
2002
0000
0000
0000
,
3003
0000
0000
0010
0100
0000
0010
0000
1000
0000
0000
1000
0100
0000
0000
0100
,
0010
0000
0000
0010
0001
0000
0100
0000
0010
0000
0000
0010
1000
0000
0000
1000
,
0001
0000
0000
0001
0100
0000
0010
0000
1000
0000
0000
1000
0100
0000
0000
0100
,
0001
0000
0000
0001
0100
0000
1000
0000
0010
0000
0000
0010
0100
0000
0000
0100
,
0001
0000
0000
0001
1000
0000
0001
0000
0010
0000
0000
0010
0100
0000
0000
0100
,
1000
0000
0000
1000
0010
0000
0100
0000
0001
0000
0000
0001
0010
0000
0000
0010
,
1000
0000
0000
1000
0010
0000
0001
0000
0100
0000
0000
0100
0010
0000
0000
0010
,
1000
0000
0000
1000
0100
0000
0010
0000
0001
0000
0000
0001
0100
0000
0000
0100
,
1000
0000
0000
1000
0010
0000
0001
0000
0200
0000
0000
0000
0000
0000
0000
0000
,
0320
0000
1030
0100
0010
0001
1000
0100
,
0110
0000
0000
0001
0002
0000
0000
0000
,
2003
0000
3010
0100
0001
1000
0010
0100
,
0101
0000
0000
0000
0001
0000
1000
0000
0100
0000
0000
0001
0000
0000
0010
0000
,
2010
0000
0000
0000
3002
0000
0000
0000
0103
0000
0000
1000
0000
0000
0010
0000
,
0011
0000
0000
0000
0000
0000
0100
0000
0100
0000
0000
1000
0000
0000
0010
0000
,
0002
0000
0000
0000
2003
0000
0000
0000
3100
0000
0000
0001
0000
0000
0010
0000
,
0110
0000
0000
0000
;

//---------------dance-double - ----------------
#NOTES:
     dance-double:
     :
     Hard:
     10:
     0.365330,0.389844,0.224910,0.216580,0.087465,307.000000,280.000000,27.000000,26.000000,0.000000,0.000000,0.365330,0.389844,0.224910,0.216580,0.087465,307.000000,280.000000,27.000000,26.000000,0.000000,0.000000:
// measure 0
00000000
00000000
00000000
00000000
,  // measure 1
00000000
00000000
00000000
00000000
,  // measure 2
00000000
00000000
00000000
00000000
,  // measure 3
00000000
00000000
00000000
00000000
,  // measure 4
00000000
00000000
00000000
00000000
00000000
00000000
00000000
00000000
00000010
00000000
00000000
00000100
00000000
00000000
00001000
00000000
,  // measure 5
00021000
00000000
00000000
00000000
00032000
00000000
00000000
00000000
00013000
00000000
00000000
00100000
00000000
00000000
01000000
00000000
,  // measure 6
01100000
00000000
00000000
00000000
00000000
00000000
10000000
00000000
10000000
00000000
00000000
01000000
00000000
00000000
00100000
00000000
,  // measure 7
00020000
00000000
00000000
00000000
00031000
00000000
00000100
00000000
00000010
00000000
00000000
00000001
00000000
00000000
00001000
00000000
,  // measure 8
00001001
00000000
00000000
00000010
00000100
00000000
00000010
00000000
00001000
00000000
00000000
00000100
00000000
00000000
00010000
00000000
,  // measure 9
00011000
00000000
00000000
00000000
00001000
00000000
00100000
00000000
00010000
00000000
00000000
01000000
00000000
00000000
00100000
00000000
,  // measure 10
10100000
00000000
00000000
00000000
10000000
00000000
00010000
00000000
01000000
00000000
00000000
00001000
00000000
00000000
00010000
00000000
,  // measure 11
00011000
00000000
00000000
00000000
00001000
00000000
00010000
00000000
00000010
00000000
00000000
00001000
00000000
00000000
00000100
00000000
,  // measure 12
00001100
00000000
00001000
00000001
00000022
00000000
00000033
00000000
,  // measure 13
00000010
00000001
00000100
00000010
00010000
00000000
00001000
00000000
,  // measure 14
00100000
00010000
01000000
00100000
10000000
00000000
00010000
00000000
,  // measure 15
01000000
00001000
00010000
00000100
00001000
00000000
00000010
00000000
,  // measure 16
00000100
00000001
00001000
00000100
00000010
00000000
00001000
00000000
,  // measure 17
00010000
00100000
10000000
01000000
00100000
00000000
01000000
00000000
,  // measure 18
00010000
00001000
00000010
00000001
00000200
00000000
00002300
00000000
,  // measure 19
00023000
00000000
02030000
00000000
13000000
00100000
01000000
00010000
,  // measure 20
20020000
00000000
30030000
00000000
10000000
01000000
00100000
01000000
,  // measure 21
00010000
00000000
00001000
00000000
00010000
00001000
00000010
00001000
,  // measure 22
00010000
00000000
00000100
00000000
00001000
00000010
00000100
00000001
,  // measure 23
00001000
00000000
00000100
00000000
00000010
00000001
00000100
00000001
,  // measure 24
00000010
00000000
00001000
00000000
00010000
01000000
10000000
00100000
,  // measure 25
01000000
00000000
00010000
00000000
00001000
00010000
00100000
00010000
,  // measure 26
00001000
00000000
00000010
00000001
00000101
00000000
00001000
00000000
,  // measure 27
00010000
00000000
00100000
10000000
11000000
00000000
00010000
00000000
,  // measure 28
00001000
00000000
00000000
00000000
00000010
00000000
00000010
00000000
00000001
00000000
00000000
00001000
00000000
00000000
00000100
00000000
,  // measure 29
00020000
00000000
00000000
00000000
00031000
00000000
00100000
00000000
00010000
00000000
00000000
10000000
00000000
00000000
00100000
00000000
,  // measure 30
01100000
00000000
00000000
00000000
00000000
00000000
01000000
00000000
01000000
00000000
00000000
00001000
00000000
00000000
00010000
00000000
,  // measure 31
00000200
00000000
00000000
00000000
00001300
00000000
00000001
00000000
00000010
00000000
00000000
00000100
00000000
00000000
00001000
00000000
,  // measure 32
00001001
00000000
00000000
00000000
00000001
00000000
00000100
00000000
00000010
00000000
00000000
00001000
00000000
00000000
00000100
00000000
,  // measure 33
00020100
00000000
00000000
00000000
00032000
00000000
00000000
00000000
00103000
00000000
00000000
00010000
00000000
00000000
01000000
00000000
,  // measure 34
01100000
00000000
00000000
00000000
00000000
00000000
10000000
00000000
10000000
00000000
00000000
00100000
00000000
00000000
01000000
00000000
,  // measure 35
00020000
00000000
00031000
00000010
00000202
00000000
00000000
00000000
,  // measure 36
00000303
00000000
00000000
00001000
00000100
00000000
00001000
00000000
00000001
00000000
00000100
00000000
00001000
00000000
00000100
00000000
,  // measure 37
00000001
00000010
00000100
00001000
00000100
00010000
00001000
00100000
,  // measure 38
00110000
00000000
00010000
00010000
01000000
00100000
10000000
01000000
,  // measure 39
00010000
01000000
10000000
00100000
01000000
00010000
00100000
00001000
,  // measure 40
00011000
00000000
00000010
00000010
00001000
00000100
00000010
00001000
,  // measure 41
00010000
00100000
00010000
00001000
00100000
01000000
10000000
00010000
,  // measure 42
10010000
00000000
01000000
01000000
00100000
00010000
00001000
00100000
,  // measure 43
01000000
00100000
00001000
00010000
00100000
00001000
00000010
00000100
,  // measure 44
00000101
00000011
00000020
00000000
,  // measure 45
00002030
00000000
00013000
01000000
10000000
00010000
00100000
10000000
,  // measure 46
11000000
00000000
00000000
01000000
02000000
00000000
00000000
00000000
,  // measure 47
03020000
00000000
00031000
00000010
00000001
00001000
00000100
00000001
,  // measure 48
00000011
00000000
00000000
00000000
00000010
00000000
00000100
00000000
00001000
00000000
00000000
00000010
00000000
00000000
00010000
00000000
,  // measure 49
00012000
00000000
00000000
00000000
00203000
00000000
00000000
00000000
01300000
00000000
00000000
10000000
00000000
00000000
00100000
00000000
,  // measure 50
00110000
00000000
00000000
00000000
00000000
00000000
00010000
00000000
00010000
00000000
00000000
00001000
00000000
00000000
00000100
00000000
,  // measure 51
00000102
00000000
00000000
00000000
00002003
00000000
00000000
00000000
00003010
00000000
00000000
00010000
00000000
00000000
00001000
00000000
,  // measure 52
00011000
00000000
00000000
00000000
;
