#TITLE:WHISPER;
#SUBTITLE:;
#ARTIST:THE BOYZ;
#TITLETRANSLIT:;
#SUBTITLETRANSLIT:;
#ARTISTTRANSLIT:;
#GENRE:K-POP;
#CREDIT:MUINELIM;
#BANNER:WHISPER.png;
#BACKGROUND:WHISPER-bg.png;
#LYRICSPATH:;
#CDTITLE:;
#MUSIC:WHISPER.mp3;
#OFFSET:-0.070000;
#SAMPLESTART:52.577999;
#SAMPLELENGTH:15.000004;
#SELECTABLE:YES;
#DISPLAYBPM:96.000000;
#BPMS:0.000000=96.000000
;
#STOPS:80.000000=1.250000
;
#BGCHANGES:-10000.000=black.mpg=1.000=1=0=1===CrossFade==,
-0.200=WHISPER.mpg=1.000=0=0=0=StretchNoLoop====,
99999=-nosongbg-=1.000=0=0=0 // don't automatically add -songbackground-
;
#KEYSOUNDS:;
#ATTACKS:;

//---------------dance-single - ----------------
#NOTES:
     dance-single:
     :
     Beginner:
     3:
     0.100966,0.136332,0.016063,0.024094,0.000000,88.000000,86.000000,2.000000,3.000000,0.000000,0.000000,0.100966,0.136332,0.016063,0.024094,0.000000,88.000000,86.000000,2.000000,3.000000,0.000000,0.000000:
0000
0000
0000
0000
,
0000
0000
0000
0000
,
0000
0000
0000
0000
,
0000
0000
0000
0000
,
0000
0000
0000
0000
,
1000
0000
1000
0000
,
1000
0000
0000
0000
,
0001
0000
0001
0000
,
0001
0000
0000
0000
,
1000
1000
0000
0000
,
0001
0001
0000
0000
,
1000
1000
1000
0000
,
0001
0001
0001
0000
,
0100
0000
0000
0000
,
0010
0000
0000
0000
,
0100
0000
0100
0000
,
0010
0000
0010
0000
,
0100
0000
0010
0000
,
0100
0000
0010
0000
,
0200
0000
0000
0000
,
0300
0000
0001
0000
,
0010
0000
0100
0000
,
1000
0000
1000
0000
,
0100
0000
0010
0000
,
0001
0000
1000
1000
,
1000
0000
0001
0001
,
0001
0000
1000
1000
,
1000
0000
0001
0000
,
1000
0000
1001
0000
,
0000
0000
0001
0000
,
0000
0000
1000
0000
,
0000
0000
0001
0000
,
0000
0000
0100
0100
,
0000
0000
0010
0010
,
0000
0000
0100
0000
,
0010
0000
0200
0000
,
0300
0100
0010
0000
,
0000
0010
0100
0000
,
0000
0200
0300
0000
,
0000
0100
0010
0000
,
0010
0010
1000
0000
,
0100
0000
0001
0000
,
0010
0000
0010
0000
,
0001
0000
0100
0000
,
1000
0000
0001
0001
,
0001
0000
1000
1000
,
1000
0000
0001
0001
,
0001
0000
0100
0000
,
0010
0000
1001
0000
;

//---------------dance-single - ----------------
#NOTES:
     dance-single:
     :
     Easy:
     5:
     0.169806,0.233110,0.144564,0.112439,0.000000,148.000000,130.000000,18.000000,14.000000,0.000000,0.000000,0.169806,0.233110,0.144564,0.112439,0.000000,148.000000,130.000000,18.000000,14.000000,0.000000,0.000000:
0000
0000
0000
0000
,
0000
0000
0000
0000
,
0000
0000
0000
0000
,
0000
0000
0000
0000
,
0000
0000
0000
0000
,
1000
0001
1000
0001
,
1000
0000
0000
0000
,
0001
1000
0001
1000
,
0001
0000
0000
0000
,
0100
0100
0010
0100
,
0010
0010
0100
0010
,
1000
1000
0001
1000
,
0001
0001
1000
0001
,
1001
0000
1000
0000
,
0110
0000
0010
0000
,
1001
0000
0001
0000
,
0110
0000
0100
0000
,
1000
0001
1000
1000
,
0010
0100
0010
0010
,
1000
0100
0010
0001
,
1001
0000
2000
3000
,
0020
0030
0002
0003
,
0100
0100
0002
0003
,
0020
0030
2000
3000
,
0100
0100
0110
0000
,
0110
0001
0110
0000
,
0110
1000
0110
0000
,
0110
0001
1000
0010
,
0100
0100
0100
0000
0001
0000
0000
0000
,
0010
0000
1000
0000
,
0100
0000
0001
0001
,
1000
1000
0010
0100
,
0010
0010
1000
0100
,
0010
0000
0001
0010
,
0100
0000
1000
0010
,
0100
0001
2002
0000
,
3003
1001
0100
0000
,
0000
0010
0010
0000
,
0000
0100
0100
0000
,
0000
0010
0010
0100
,
0010
1000
0002
0003
,
0200
0300
2000
3000
,
0010
0010
2000
3000
,
0200
0300
0002
0003
,
0010
0010
1001
0000
,
0100
0100
1001
0000
,
0010
0010
1001
0000
,
0100
0100
1001
0110
,
1000
0001
1000
0001
0000
0000
0000
0000
;

//---------------dance-single - ----------------
#NOTES:
     dance-single:
     :
     Medium:
     9:
     0.259298,0.310813,0.176690,0.144564,0.020078,226.000000,204.000000,22.000000,18.000000,0.000000,0.000000,0.259298,0.310813,0.176690,0.144564,0.020078,226.000000,204.000000,22.000000,18.000000,0.000000,0.000000:
0000
0000
0000
0000
,
0000
0000
0000
0000
,
0000
0000
0000
0000
,
0000
0000
0000
0000
,
0000
0000
0000
0000
,
1000
0001
0100
0010
,
1010
1000
0000
1000
0001
0000
0100
0000
,
0001
1000
0010
0100
,
0101
0001
1000
0001
0010
0010
0010
0000
,
0001
0100
0010
0000
1000
0000
0001
0000
,
1000
0010
0100
0000
0001
0000
1000
0000
,
0001
0010
0100
0000
1000
0100
0010
0000
,
0001
0100
0010
0100
0010
1000
0100
0000
,
2200
3300
0100
0010
,
0022
0033
0001
0100
,
0220
0330
0010
1000
,
0001
0100
0010
0100
,
0101
0001
0010
0100
,
1100
1000
0010
0100
,
0002
2003
3020
0000
,
0130
0000
1001
0000
0001
0100
1000
0000
,
1000
0100
0001
0000
0011
0000
0100
0000
,
1000
0000
0001
0000
1000
0010
0001
0000
,
0001
0010
1000
0000
1100
0000
0010
0000
,
0001
0000
2000
0000
3001
0100
0000
0100
,
1000
0000
0100
0001
0010
0100
0000
0100
,
1000
0000
1001
0000
0001
0010
0000
0010
,
1000
0000
0010
0100
1000
0000
0001
0000
,
0100
0010
1000
0001
0200
0000
1000
0000
,
0000
0001
0000
1000
,
0000
0001
0310
1010
,
0101
0000
1001
0000
1000
0010
0100
0001
,
0010
0000
0110
0000
0100
1000
0001
0000
,
0010
0000
0100
0000
0010
0001
1000
0000
,
0100
0000
0010
0000
0100
1000
0001
0100
,
0001
1000
0010
1000
0002
0000
0000
0000
,
0000
1003
0200
0000
,
0300
0000
0000
0001
0000
0001
0000
0000
0020
0000
0000
0000
0000
0000
0000
0000
,
0030
0000
0000
2002
3003
0000
0000
0000
0200
0000
0000
0000
0000
0000
0000
0000
,
0300
0000
0000
0001
0000
0001
0000
0000
0000
0000
0010
0000
0100
0000
1000
0000
,
1010
0000
0101
0000
0001
0010
1000
0000
,
0001
0100
1000
0000
1010
0000
0001
0000
,
0100
0000
0010
0000
1000
0100
0001
0000
,
1000
0010
0001
0000
0101
0000
1000
0000
,
0001
0010
0200
0000
1300
0010
0000
0010
,
0001
0000
0010
1000
0100
0010
0000
0100
,
1000
0000
1001
0000
0001
0100
0000
0100
,
1000
0000
0100
0001
0010
0000
0110
0000
,
1000
0010
0001
1000
0000
0000
0000
0000
;

//---------------dance-single - ----------------
#NOTES:
     dance-single:
     :
     Hard:
     12:
     0.435988,0.447949,0.257003,0.497944,0.285113,380.000000,348.000000,32.000000,62.000000,0.000000,0.000000,0.435988,0.447949,0.257003,0.497944,0.285113,380.000000,348.000000,32.000000,62.000000,0.000000,0.000000:
0000
0000
0000
0000
,
0000
0000
0000
0000
,
0000
0000
0000
0000
,
0000
0000
0000
0000
,
0000
0000
0000
0000
,
1000
0010
0100
0001
0100
0010
1000
0000
,
1100
0000
0101
0000
0000
0000
0001
0000
0020
0000
0000
0031
0100
0000
0010
0000
,
1000
0100
0010
0001
0010
0100
1000
0000
,
1010
0000
0011
0000
0001
0000
0100
0000
0010
0000
1000
0000
0001
0100
0001
0000
,
1000
0100
0010
0001
0000
0200
0010
0310
,
0001
0010
0100
1000
0000
0020
0100
0130
,
1000
0010
0100
0001
0010
1000
0001
0100
,
1000
0010
1000
0000
0100
0000
0010
0000
0001
0100
0001
0000
0010
0000
0100
0000
,
1100
0000
0000
0000
1000
0010
1000
0010
0100
0000
0000
0001
0010
0000
0001
0000
,
0101
0000
0000
0000
0001
0100
0001
0100
0010
0000
0000
1000
0100
0000
1000
0000
,
1010
0000
1000
0000
0001
0000
0010
0000
0100
0000
1000
0010
0000
0100
0000
0020
,
0000
0000
1030
0000
0100
0000
0010
0000
0011
0000
0000
0000
0001
0000
0100
0010
,
0100
0000
0001
1000
0001
0000
0100
0010
0100
0000
0010
0000
1010
0000
0000
0000
,
1000
0000
0001
0010
0001
0000
1000
0100
1000
0000
0001
0100
0001
0000
1000
0000
,
0010
0001
1000
0100
0220
0000
0000
0000
,
0330
0000
0000
0000
0010
1000
0100
0010
0002
0000
0203
0000
2300
0000
3200
0000
,
0302
0000
0203
0000
2300
0000
3200
0000
0301
0000
0001
0010
0001
0000
0100
0000
,
1010
0000
0010
0000
0100
0001
0010
0100
2000
0000
3020
0000
0032
0000
0023
0000
,
2030
0000
3020
0000
0032
0000
0023
0000
1030
0000
1000
0100
1000
0000
0010
0000
,
0101
0000
1000
0000
2200
0000
3300
0000
0100
0010
0001
0000
0000
0000
0010
0100
,
1000
0000
0010
0000
0100
0000
0110
0000
0010
1000
0100
0000
0000
0000
0010
0001
,
0100
0000
0010
0000
0220
0000
0330
0000
1000
0001
0100
0000
0000
0000
0001
1000
,
0010
0000
1000
0000
0001
0000
0101
0000
1010
0000
1000
0001
0000
0010
0000
0100
,
0000
1000
0010
0100
0010
0000
0100
0000
0002
0000
0000
0000
0010
0000
0000
0000
,
1000
0103
2000
0010
,
0001
0000
0000
3100
0000
0000
1001
0000
0001
0100
0010
0100
,
0010
0000
1000
0000
0100
0000
0010
0000
0100
0000
0000
0000
1100
0000
0000
0010
0000
0000
0011
0000
0000
0100
0000
0000
,
0020
0000
0000
0031
0100
0000
0000
0010
1000
0000
0100
0000
1000
0000
0001
0100
,
0010
0000
0100
0000
0001
0000
1000
0010
0100
0000
0010
0000
1000
0000
0100
0010
,
0001
0010
0001
0100
1000
0001
0010
1000
,
2002
0000
0000
0000
0000
0000
3003
0000
0101
0000
0000
1100
0000
0000
0011
0000
,
0000
1010
0000
0000
2002
0000
3003
0000
0010
0000
0200
0000
0000
0000
0310
0000
,
0200
0000
0000
1000
0000
0301
0000
0000
0100
0000
0020
0000
0000
0000
0130
0000
,
0010
0000
0000
2002
3003
0000
0000
0000
0001
0000
0200
0000
0000
0000
1300
0000
,
0200
0000
0000
0010
0000
0301
0000
0000
0000
0000
0001
0000
0010
0000
1000
0000
,
0100
0000
0001
0000
1000
0010
0100
0001
2000
0000
3200
0000
0302
0000
2003
0000
,
3020
0000
0032
0000
2003
0000
3200
0000
0301
0000
0100
1000
0100
0000
1000
0000
,
0010
0000
0100
0000
0001
0010
0100
1000
0002
0000
0203
0000
2300
0000
3002
0000
,
0023
0000
2030
0000
3002
0000
0203
0000
1300
0000
0100
0001
0100
0000
0001
0000
,
0010
0000
0100
0000
2200
0000
3300
0000
1000
0010
0100
0000
0000
0000
0001
0010
,
0100
0000
1000
0000
0010
0000
0110
0000
0001
0010
0100
0000
0000
0000
1000
0010
,
0100
0000
0001
0000
2002
0000
3003
0000
1000
0100
0001
0000
0000
0000
1000
0010
,
0001
0000
0100
0000
0010
0000
0110
0000
1000
0000
0010
0001
0000
0010
0000
0100
,
0000
1000
0100
0010
0100
0000
2002
0000
3003
0000
0000
0000
0000
0000
0000
0000
;

//---------------dance-single - ----------------
#NOTES:
     dance-single:
     :
     Challenge:
     15:
     0.639066,0.665599,0.602352,0.546132,0.754947,557.000000,482.000000,75.000000,68.000000,0.000000,0.000000,0.639066,0.665599,0.602352,0.546132,0.754947,557.000000,482.000000,75.000000,68.000000,0.000000,0.000000:
0000
0000
0000
0000
,
0000
0000
0000
0000
,
0000
0000
0000
0000
,
0010
0100
0010
0000
0000
0000
0100
0010
0200
0000
0000
0000
0300
0000
0000
0000
,
0001
1000
0001
0000
0000
0000
1000
0001
2000
0000
0000
0000
3000
0000
0000
0000
,
0010
1000
0010
1000
0100
0000
0010
0001
0010
0001
0100
0000
0020
0000
0030
0000
,
1010
0000
2000
0000
0000
0000
3001
0000
0011
0000
0000
0010
0100
0000
1000
0010
,
0100
0001
0100
0001
0010
0000
0100
1000
0100
1000
0010
0100
0020
0000
0030
0000
,
1010
0000
1000
0100
1000
0100
0010
0002
0100
0000
0100
0000
0103
0010
0100
0001
,
0010
0100
1000
0001
0010
0000
0220
0000
0330
0000
1100
0000
1001
0000
1000
0010
,
0100
0001
1000
0010
0100
0001
0020
0000
0030
0000
0011
0000
1001
0000
0000
0001
,
0100
0010
1000
0100
0000
0100
0010
0001
0100
0000
0100
1000
0100
0010
0100
0001
,
0010
0100
0010
1000
0010
0100
0010
0001
0100
0000
1010
0000
0011
0000
1100
0000
,
0202
0000
0303
0000
0001
0010
0100
1000
0010
0000
0001
0010
0100
0010
0000
0000
,
2020
0000
3030
0000
1000
0100
0010
0001
0100
0000
1000
0100
0010
0100
0000
0000
,
0120
0000
1030
0000
1000
0001
0100
0010
0100
0000
1000
0100
0000
0001
0000
0020
,
0000
0000
0130
0000
1000
0000
0020
0000
0000
0000
0030
0000
0110
0000
0100
0001
,
0010
0000
0010
0100
1000
0000
1000
0001
0100
0000
0010
0000
1010
0000
0000
0000
,
0101
0000
0001
0010
0100
0000
0100
1000
0001
0000
0001
0100
0010
0000
1000
0000
,
1100
0000
0000
0101
0000
0000
1010
0000
0000
0011
0000
0000
1001
0000
0100
0000
0010
0000
1001
0000
0010
0000
0100
0000
,
1001
0000
0000
0000
0000
0000
0110
0000
0000
0000
0000
0000
0010
0000
0000
0000
1000
0000
0100
0000
0000
0000
1000
0000
0001
0000
0000
0020
0000
0000
1000
0000
0000
0000
0000
0000
0031
0000
0000
0200
0000
0000
1000
0000
0000
0000
0000
0000
,
0301
0020
1000
0000
0031
0200
1300
0000
0101
0000
0001
0010
0100
0000
1100
0000
,
0011
0000
0000
0000
0000
0000
0001
0000
0000
0000
0000
0000
0100
0000
0000
0000
0010
0000
0100
0000
0000
0000
0010
0000
1000
0000
0000
0200
0000
0000
0001
0000
0000
0000
0000
0000
1300
0000
0000
0020
0000
0000
0001
0000
0000
0000
0000
0000
,
1030
0200
0001
0000
1300
0020
0031
0000
1010
0000
1000
0100
0001
0100
1000
0010
,
0001
0000
0000
0000
0000
0000
0010
0000
0000
0000
0000
0000
0100
0000
0000
0000
0100
0000
0000
0000
0100
0000
0000
0000
0010
0000
0000
1000
0000
0000
0100
0000
0000
0000
0000
0000
0101
0000
0000
0000
0000
0000
0010
0000
0000
1000
0000
0000
,
0100
0000
0101
0000
0011
0000
1100
0000
0010
0001
0100
0000
1100
0000
0010
0001
,
0100
0000
1100
0000
2002
0000
3003
0000
0001
0010
0100
0000
1100
0000
0001
0010
,
0100
0000
1100
0000
1010
0000
0011
0000
0101
0000
1000
0100
0000
0001
0000
1000
,
0000
0000
0000
0010
0000
0000
0001
0000
0000
0100
0000
0000
0010
0000
0000
0000
0010
0000
0000
0000
0010
0000
0000
0000
1000
0000
0000
0000
0000
0000
0001
0000
0000
0010
0000
0000
0200
0000
0000
0000
0000
0000
1300
0000
0000
0000
0000
0000
,
0010
0100
0001
1000
0020
0000
0000
0000
0030
0000
0100
0001
1000
0000
0100
0000
,
0010
0000
0000
0001
0000
0000
0100
0000
0000
0010
0000
0000
2000
0000
0000
0000
0000
0000
0000
0000
0000
0000
0000
0000
3001
0000
0000
0000
0000
0000
0000
0000
0001
0000
0000
0000
0010
0000
0001
0000
0010
0000
0000
0000
0100
0000
0000
0000
,
1000
0010
1000
0000
0001
0000
0010
0100
0010
0000
1000
0000
0020
0000
0000
0032
0000
0000
0203
0000
0000
2300
0000
0000
,
3200
0000
0000
0301
0010
0000
0100
1001
0000
1000
0010
0100
0001
0000
0010
1000
,
0000
0010
0001
0100
0010
0000
1000
0100
0000
0001
0100
1000
0001
0000
0100
0010
,
0000
0001
0010
1000
0010
0000
0100
0001
0010
0100
1000
0010
0100
0001
1000
0100
,
0110
0000
0000
0000
0011
0000
0000
0000
0101
0000
0000
0000
1010
0000
0000
0000
1100
0000
0000
0000
0110
0000
0000
0000
2002
0000
0000
0000
3003
0000
0000
0000
0000
0202
0000
0000
0303
0000
0000
0000
0000
0000
2200
0000
0000
3300
0000
0000
,
0000
2020
3030
0000
0022
0000
0033
0000
0010
0100
2000
0000
0000
0000
3100
0010
,
0002
0000
0000
0100
0000
1003
0000
0000
1000
0010
0200
0000
0000
0000
0301
0100
,
0020
0000
0000
2000
0000
0000
3030
0000
0001
0100
2000
0000
0000
0000
3001
0010
,
2000
0000
0000
0100
0000
3010
0000
0000
0000
0000
0210
0000
0302
0000
2003
0000
,
3020
0000
0000
0000
0000
0000
0230
0000
0000
0000
0000
0000
0301
0000
0000
0000
0010
0000
0100
0000
0000
0000
0010
0000
0001
0000
0000
0001
0000
0000
0200
0000
0000
1000
0000
0000
0301
0000
0000
0001
0000
0000
0020
0000
0000
1000
0000
0000
,
0031
0001
0200
1000
0301
0001
0020
0130
1100
0000
0010
0100
1000
0000
0011
0000
,
1010
0000
0000
0000
0000
0000
0101
0000
0000
0000
0000
0000
1000
0000
0000
0000
0010
0000
0100
0000
0000
0000
0010
0000
1000
0000
0000
1000
0000
0000
0200
0000
0000
0001
0000
0000
1300
0000
0000
1000
0000
0000
0020
0000
0000
0001
0000
0000
,
1030
1000
0200
0001
1300
1000
0020
0130
0101
0000
1000
0010
0001
0010
0100
0001
,
0010
0000
0000
0000
0000
0000
1000
0000
0000
0000
0000
0000
0100
0000
0000
0000
0100
0000
0000
0000
0100
0000
0000
0000
0001
0000
0000
0010
0000
0000
0100
0000
0000
1000
0000
0000
1010
0000
0000
0000
0000
0000
0001
0000
0000
0100
0000
0000
,
0010
1000
1100
0000
0101
0000
1010
0000
1000
0100
0010
0001
0101
0000
1000
0010
,
0100
0001
0011
0000
2200
0000
3300
0000
1000
0010
0001
0010
1010
0000
0001
0100
,
1000
0100
0101
0000
0011
0000
1010
0000
1100
0000
0010
0101
0000
1000
0100
0001
,
1000
0000
0000
0010
0000
0000
0100
0000
0000
1000
0000
0000
1010
0000
0000
0000
0011
0000
0000
0000
0202
0000
0000
0000
0000
0000
0000
0000
0000
0000
0000
0000
0000
0000
0000
0000
0303
0000
0000
0000
0000
0000
0000
0000
0000
0000
0000
0000
;

//---------------dance-double - ----------------
#NOTES:
     dance-double:
     :
     Challenge:
     15:
     0.600057,0.606869,0.385505,0.369442,0.722822,523.000000,475.000000,48.000000,46.000000,0.000000,0.000000,0.600057,0.606869,0.385505,0.369442,0.722822,523.000000,475.000000,48.000000,46.000000,0.000000,0.000000:
// measure 0
00000000
00000000
00000000
00000000
,  // measure 1
00000000
00000000
00000000
00000000
,  // measure 2
00000000
00000000
00000000
00000000
,  // measure 3
01000000
00001000
00010000
00000000
00000000
00000000
00000010
00010000
00002000
00000000
00000000
00000000
00003000
00000000
00000000
00000000
,  // measure 4
00100000
00001000
00010000
00000000
00000000
00000000
00000100
00010000
00002000
00000000
00000000
00000000
00003000
00000000
00000000
00000000
,  // measure 5
00100000
00010000
00100000
00010000
01000000
00000000
00100000
10000000
00100000
10000000
01000000
00000000
00200000
00000000
00300000
00000000
,  // measure 6
00110000
00000000
00002000
00000000
00000000
00000000
00013000
00000000
00010100
00000000
00000000
00000100
00001000
00000000
00000001
00000100
,  // measure 7
00000010
00001000
00000010
00001000
00000100
00000000
00000010
00000001
00000010
00000001
00000100
00000010
00000200
00000000
00000300
00000000
,  // measure 8
00000110
00000000
00000010
00010000
00001000
00100000
00010000
02000000
00100000
00000000
00100000
00000000
03100000
10000000
00100000
01000000
,  // measure 9
00010000
00100000
01000000
00010000
00001000
00000000
00022000
00000000
00003000
00000000
00031000
00000000
00011000
00000000
00010000
00000100
,  // measure 10
00010000
00001000
00000100
00000010
00001000
00000100
00000020
00000000
00000000
00000000
00000031
00000000
00000101
00000000
00000000
00001000
,  // measure 11
00000100
00000010
00000001
00001000
00000000
00001000
00000010
00010000
00001000
00000000
00001000
00100000
00010000
00100000
01000000
00100000
,  // measure 12
10000000
00100000
01000000
00100000
00010000
10000000
01000000
00100000
00010000
00000000
01010000
00000000
00001000
00000000
00011000
00000000
,  // measure 13
00000020
00000000
00000000
00000000
00001030
00000100
00000010
00000001
00000100
00000000
00001000
00010000
00001000
01000000
00000000
00000000
,  // measure 14
01200000
00000000
00000000
00000000
10300000
01000000
00100000
00010000
01000000
00000000
00001000
00010000
00001000
00000100
00000000
00000000
,  // measure 15
00000120
00000000
00001030
00000000
00001000
00000001
00000010
00000100
00000010
00000000
00001000
00010000
00000000
00001000
00000000
00200000
,  // measure 16
00000000
00000000
00310000
00000000
01000000
00000000
00200000
00000000
00000000
00300000
00000000
00000000
10100000
00000000
10000000
01000000
,  // measure 17
00100000
00000000
01000000
00100000
00010000
00000000
00100000
00001000
00010000
00000000
00000100
00000000
00001100
00000000
00000000
00000000
,  // measure 18
00000011
00000000
00000001
00000100
00000010
00000000
00001000
00000010
00010000
00000000
00001000
00100000
00010000
00000000
01000000
00000000
,  // measure 19
01100000
00000000
00000000
10000000
00000000
00000000
11000000
00000000
00000000
01000000
00000000
00000000
00110000
00000000
00100000
00000000
00001000
00000000
00010000
00000000
00000100
00000000
00001000
00000000
,  // measure 20
00001001
00000000
00000000
00000000
00000000
00000000
00000020
00000000
00000000
00000000
00000000
00000000
00000130
00000000
00000000
00000000
00001000
00000000
00000100
00000000
00000000
00000000
00000010
00000000
00000001
00000000
00000000
00000100
00000000
00000000
00001000
00000000
00000000
00000000
00000000
00000000
00010000
00000000
00000000
00001000
00000000
00000000
00000100
00000000
00000000
00000000
00000000
00000000
,  // measure 21
00000001
00000100
00010000
00000000
01000000
00010000
00000100
00000000
00000101
00000000
00000001
00000010
00001000
00000000
00010000
00000000
,  // measure 22
00011000
00000000
00000000
00000000
00000000
00000000
00001000
00000000
00000000
00000000
00000000
00000000
00100000
00000000
00000000
00000000
00010000
00000000
01000000
00000000
00000000
00000000
00100000
00000000
10000000
00000000
00000000
01000000
00000000
00000000
00010000
00000000
00000000
00000000
00000000
00000000
00001000
00000000
00000000
00010000
00000000
00000000
01000000
00000000
00000000
00000000
00000000
00000000
,  // measure 23
10000000
01000000
00001000
00000000
00000100
00001000
01000000
00000000
11000000
00000000
10000000
00100000
00010000
00001000
00100000
01000000
,  // measure 24
00010000
00000000
00000000
00000000
00000000
00000000
00001000
00000000
00000000
00000000
00000000
00000000
00010000
00000000
00000000
00000000
00010000
00000000
00000000
00000000
00010000
00000000
00000000
00000000
00000100
00000000
00000000
00001000
00000000
00000000
00000010
00000000
00000000
00000000
00000000
00000000
00000011
00000000
00000000
00000000
00000000
00000000
00000100
00000000
00000000
00001000
00000000
00000000
,  // measure 25
00000010
00000000
00000011
00000000
00001000
00000000
00001100
00000000
00000100
00010000
00001000
00000000
01001000
00000000
00000100
00010000
,  // measure 26
00001000
00000000
01001000
00000000
02020000
00000000
03030000
00000000
10000000
01000000
00100000
00000000
00110000
00000000
10000000
01000000
,  // measure 27
00100000
00000000
00110000
00000000
01000000
00000000
01010000
00000000
00001000
00000000
00010000
00000100
00000000
00001000
00000000
00000001
,  // measure 28
00000100
00000000
00000000
00000010
00000000
00000000
00000100
00000000
00000000
00001000
00000000
00000000
00010000
00000000
00000000
00000000
00010000
00000000
00000000
00000000
00010000
00000000
00000000
00000000
00100000
00000000
00000000
00000000
00000000
00000000
10000000
00000000
00000000
01000000
00000000
00000000
00200000
00000000
00000000
00000000
00000000
00000000
01300000
00000000
00000000
00000000
00000000
00000000
,  // measure 29
01000000
00010000
00001000
00010000
00000020
00000000
00000000
00000000
00000030
00000000
00001000
00000100
00000010
00000000
00000001
00000000
,  // measure 30
00000010
00000000
00000000
00000100
00000000
00000000
00000010
00000000
00000000
00001000
00000000
00000000
00020000
00000000
00000000
00000000
00000000
00000000
00000000
00000000
00000000
00000000
00000000
00000000
00130000
00000000
00000000
00000000
00000000
00000000
00000000
00000000
00100000
00000000
00000000
00000000
10000000
00000000
01000000
00000000
10000000
00000000
00000000
00000000
01000000
00000000
00000000
00000000
,  // measure 31
00010000
00001000
00010000
00000000
00001000
00000000
00000100
00000001
00000100
00000000
00000001
00000000
00000020
00000000
00000000
00002030
00000000
00000000
00023000
00000000
00000000
00230000
00000000
00000000
,  // measure 32
20300000
00000000
00000000
31000000
00100000
00000000
01000000
00010000
00000000
00001000
00010000
00100000
01000000
00000000
00100000
00010000
,  // measure 33
00000000
00001000
00010000
00100000
00010000
00000000
00001000
00000100
00000000
00001000
00010000
00001000
00000100
00000000
00000010
00000100
,  // measure 34
00000000
00001000
00000100
00000010
00000001
00000000
00000010
00000100
00000010
00001000
00000100
00000010
00000001
00000100
00001000
00010000
,  // measure 35
00011000
00000000
00000000
00000000
00001000
00000000
00000000
00000000
01001000
00000000
00000000
00000000
00010000
00000000
00000000
00000000
00010100
00000000
00000000
00000000
00001000
00000000
00000000
00000000
00022000
00000000
00000000
00000000
00033000
00000000
00000000
00000000
00000000
00020020
00000000
00000000
00030030
00000000
00000000
00000000
00000000
00000000
00202000
00000000
00000000
00303000
00000000
00000000
,  // measure 36
00000000
00020200
00030300
00000000
02002000
00000000
03003000
00000000
01000000
00010000
00200000
00000000
00000000
00000000
01300000
00010000
,  // measure 37
00002000
00000000
00000000
00100000
00000000
01003000
00000000
00000000
01000000
00100000
00020000
00000000
00000000
00000000
00031000
00000100
,  // measure 38
00000020
00000000
00000000
00002000
00000000
00000000
00003030
00000000
00001000
00000100
00000020
00000000
00000000
00000000
00000031
00000100
,  // measure 39
00002000
00000000
00000000
00010000
00000000
01003000
00000000
00000000
00000000
00000000
01100000
00000000
00100000
00000000
10000000
00000000
,  // measure 40
01000000
00000000
00000000
00000000
00000000
00000000
00010000
00000000
00000000
00000000
00000000
00000000
00001000
00000000
00000000
00000000
00000010
00000000
00000100
00000000
00000000
00000000
00000010
00000000
00000001
00000000
00000000
00000100
00000000
00000000
00010000
00000000
00000000
00000000
00000000
00000000
01000000
00000000
00000000
00010000
00000000
00000000
00000100
00000000
00000000
00000000
00000000
00000000
,  // measure 41
00000001
00000100
00010000
00000000
00001000
00010000
10000000
00000000
11000000
00000000
00100000
01000000
00010000
00000000
00110000
00000000
,  // measure 42
10000000
00000000
00000000
00000000
00000000
00000000
10100000
00000000
00000000
00000000
00000000
00000000
01000000
00000000
00000000
00000000
00100000
00000000
01000000
00000000
00000000
00000000
00100000
00000000
10000000
00000000
00000000
01000000
00000000
00000000
00001000
00000000
00000000
00000000
00000000
00000000
00000100
00000000
00000000
00001000
00000000
00000000
01000000
00000000
00000000
00000000
00000000
00000000
,  // measure 43
10000000
01000000
00001000
00000000
00010000
00001000
00000001
00000000
00000011
00000000
00001000
00000010
00000100
00001000
00010000
00100000
,  // measure 44
01000000
00000000
00000000
00000000
00000000
00000000
00010000
00000000
00000000
00000000
00000000
00000000
00100000
00000000
00000000
00000000
00100000
00000000
00000000
00000000
00100000
00000000
00000000
00000000
10000000
00000000
00000000
01000000
00000000
00000000
00010000
00000000
00000000
00001000
00000000
00000000
00000010
00000000
00000000
00000000
00000000
00000000
00000001
00000000
00000000
00000100
00000000
00000000
,  // measure 45
00001000
00010000
00100000
00000000
00001000
00000000
00000110
00000000
00000001
00000100
00001000
00010000
00100000
00000000
10000000
01000000
,  // measure 46
00010000
00001000
00000010
00000000
00000022
00000000
00000033
00000000
00000001
00000100
00001000
00010000
10100000
00000000
10000000
01000000
,  // measure 47
00010000
00001000
00000011
00000000
00000100
00000000
00001100
00000000
00010000
00000000
00100000
01000000
00000000
10000000
01000000
00100000
,  // measure 48
00010000
00000000
00000000
00001000
00000000
00000000
00000100
00000000
00000000
00000010
00000000
00000000
00000001
00000000
00000000
00000000
00000100
00000000
00000000
00000000
00022000
00000000
00000000
00000000
00000000
00000000
00000000
00000000
00000000
00000000
00000000
00000000
00000000
00000000
00000000
00000000
00033000
00000000
00000000
00000000
00000000
00000000
00000000
00000000
00000000
00000000
00000000
00000000
;

//---------------dance-double - ----------------
#NOTES:
     dance-double:
     :
     Easy:
     5:
     0.158332,0.194258,0.064251,0.104408,0.000000,138.000000,130.000000,8.000000,13.000000,0.000000,0.000000,0.158332,0.194258,0.064251,0.104408,0.000000,138.000000,130.000000,8.000000,13.000000,0.000000,0.000000:
// measure 0
00000000
00000000
00000000
00000000
,  // measure 1
00000000
00000000
00000000
00000000
,  // measure 2
00000000
00000000
00000000
00000000
,  // measure 3
00000000
00000000
00000000
00000000
,  // measure 4
00000000
00000000
00000000
00000000
,  // measure 5
00001000
00010000
00001000
00010000
,  // measure 6
00001000
00000000
00000000
00000000
,  // measure 7
00010000
00001000
00010000
00001000
,  // measure 8
00010000
00000000
00000000
00000000
,  // measure 9
00000100
00000100
00001000
00000010
,  // measure 10
00010000
00010000
00001000
01000000
,  // measure 11
00010000
00010000
00100000
01000000
,  // measure 12
00010000
00010000
00001000
00000010
,  // measure 13
00000001
00000000
00000100
00000000
,  // measure 14
00001000
00000000
00010000
00000000
,  // measure 15
01000000
00000000
10000000
00000000
,  // measure 16
00100000
00000000
00010000
00000000
,  // measure 17
00001000
00010000
00000010
00000010
,  // measure 18
00010000
00001000
01000000
01000000
,  // measure 19
00001000
00010000
00001000
00010000
,  // measure 20
00011000
00000000
00002000
00003000
,  // measure 21
00200000
00300000
02000000
03000000
,  // measure 22
00010000
00010000
00020000
00030000
,  // measure 23
00000200
00000300
00000020
00000030
,  // measure 24
00001000
00001000
00011000
00000000
,  // measure 25
01000000
00010000
00011000
00000000
,  // measure 26
00000010
00001000
00011000
00000000
,  // measure 27
01000000
00010000
00001000
00000010
,  // measure 28
00000001
00000001
00000001
00000000
00000100
00000000
00000000
00000000
,  // measure 29
00001000
00000000
00010000
00000000
,  // measure 30
00100000
00000000
10000000
10000000
,  // measure 31
00010000
00010000
01000000
00001000
,  // measure 32
00100000
00100000
01000000
00010000
,  // measure 33
00001000
00000000
00000010
00001000
,  // measure 34
00010000
00000000
01000000
00010000
,  // measure 35
00001000
00000010
00000002
00000000
,  // measure 36
00000003
00001001
00000100
00000000
,  // measure 37
00000000
00010000
00010000
00000000
,  // measure 38
00000000
00001000
00001000
00000000
,  // measure 39
00000000
01000000
01000000
00100000
,  // measure 40
01000000
00010000
20000000
30000000
,  // measure 41
02000000
03000000
00020000
00030000
,  // measure 42
00001000
00001000
00020000
00030000
,  // measure 43
00002000
00003000
00000200
00000300
,  // measure 44
00000001
00000001
00001001
00000000
,  // measure 45
00000100
00001000
00011000
00000000
,  // measure 46
00100000
00010000
00011000
00000000
,  // measure 47
00000100
00001000
00010000
00100000
,  // measure 48
10000000
00010000
10000000
00010000
00000000
00000000
00000000
00000000
;

//---------------dance-double - ----------------
#NOTES:
     dance-double:
     :
     Medium:
     9:
     0.240941,0.310813,0.120470,0.112439,0.020078,210.000000,195.000000,15.000000,14.000000,0.000000,0.000000,0.240941,0.310813,0.120470,0.112439,0.020078,210.000000,195.000000,15.000000,14.000000,0.000000,0.000000:
// measure 0
00000000
00000000
00000000
00000000
,  // measure 1
00000000
00000000
00000000
00000000
,  // measure 2
00000000
00000000
00000000
00000000
,  // measure 3
00000000
00000000
00000000
00000000
,  // measure 4
00000000
00000000
00000000
00000000
,  // measure 5
00001000
00010000
00000100
00001000
,  // measure 6
00000001
00000100
00000000
00000100
00000001
00000000
00001000
00000000
,  // measure 7
00000010
00010000
00001000
00100000
,  // measure 8
00010000
01000000
00010000
01000000
00100000
00100000
00100000
00000000
,  // measure 9
10000000
01000000
00100000
00000000
00001000
00000000
00010000
00000000
,  // measure 10
00000100
00000010
00000001
00000000
00000100
00000000
00001000
00000000
,  // measure 11
00010000
00100000
10000000
00000000
01000000
00100000
00010000
00000000
,  // measure 12
00100000
00001000
00010000
00001000
00010000
00000100
00000010
00000000
,  // measure 13
00000002
00000003
00000100
00001000
,  // measure 14
00020000
00030000
00001000
00010000
,  // measure 15
02000000
03000000
10000000
00100000
,  // measure 16
01000000
00010000
00100000
01000000
,  // measure 17
00010000
00001000
00000010
00000100
,  // measure 18
00001000
00000001
00000010
00001000
,  // measure 19
00020000
00032000
00023000
00000000
,  // measure 20
00031000
00011000
00001000
00100000
,  // measure 21
00010000
00000010
00000110
00000001
,  // measure 22
00000100
00001000
00010000
00000100
,  // measure 23
00001000
01000000
01100000
10000000
,  // measure 24
00100000
00000000
00020000
00000000
00031000
00100000
00000000
01000000
,  // measure 25
10000000
00000000
00100000
00010000
00001000
00000100
00000000
00001000
,  // measure 26
00010000
00000000
00011000
00000000
00010000
00000010
00000000
00000100
,  // measure 27
00000001
00000000
00000010
00001000
00010000
00000000
01000000
00000000
,  // measure 28
10000000
00100000
00010000
00001000
00021000
00000000
00000010
00000000
,  // measure 29
00000000
00100000
00000000
00000100
,  // measure 30
00000000
01000000
00031000
00101000
,  // measure 31
00011000
00000000
00010010
00000000
00000010
00001000
00000100
00000010
,  // measure 32
00000001
00000000
00000101
00000000
00000100
00001000
00010000
00000000
,  // measure 33
00100000
00000000
10000000
00000000
01000000
00010000
00001000
00000000
,  // measure 34
00000010
00000000
00000001
00000000
00000100
00001000
00010000
00000000
,  // measure 35
01000000
00010000
00001000
00010000
00002000
00000000
00000000
00000000
,  // measure 36
00000000
00013000
00020000
00000000
,  // measure 37
00030000
00000000
00000000
00000010
00000000
00010000
00000000
00000000
00002000
00000000
00000000
00000000
00000000
00000000
00000000
00000000
,  // measure 38
00000000
00000000
00000000
00020000
00033000
00000000
00000000
00000000
00002000
00000000
00000000
00000000
00000000
00000000
00000000
00000000
,  // measure 39
00003000
00000000
00000000
00100000
00000000
00001000
00000000
00000000
00000000
00000000
00010000
00000000
01000000
00000000
10000000
00000000
,  // measure 40
10100000
01010000
00010000
00100000
,  // measure 41
00001000
00000010
00000011
00000100
,  // measure 42
00001000
00000001
00001000
00000010
,  // measure 43
00010000
00100000
10100000
01000000
,  // measure 44
00100000
00010000
02000000
00000000
03001000
00010000
00000000
00100000
,  // measure 45
10000000
00000000
01000000
00100000
00010000
01000000
00000000
00001000
,  // measure 46
00010000
00000000
00011000
00000000
00010000
00001000
00000000
00000010
,  // measure 47
00000001
00000000
00000100
00000010
00001000
00000000
00001100
00000000
,  // measure 48
00000100
00010000
01000000
10000000
00000000
00000000
00000000
00000000
;

//---------------dance-double - ----------------
#NOTES:
     dance-double:
     :
     Hard:
     12:
     0.427956,0.447949,0.265035,0.497944,0.252988,373.000000,340.000000,33.000000,62.000000,0.000000,0.000000,0.427956,0.447949,0.265035,0.497944,0.252988,373.000000,340.000000,33.000000,62.000000,0.000000,0.000000:
// measure 0
00000000
00000000
00000000
00000000
,  // measure 1
00000000
00000000
00000000
00000000
,  // measure 2
00000000
00000000
00000000
00000000
,  // measure 3
00000000
00000000
00000000
00000000
,  // measure 4
00000000
00000000
00000000
00000000
,  // measure 5
00001000
00010000
00100000
00010000
00001000
00000010
00001000
00000000
,  // measure 6
00011000
00000000
00011000
00000000
00000000
00000000
00010000
00000000
00002000
00000000
00000000
00103000
00010000
00000000
00100000
00000000
,  // measure 7
01000000
10000000
00100000
00010000
00001000
00000100
00000001
00000000
,  // measure 8
00000011
00000000
00001010
00000000
00001000
00000000
00000100
00000000
00000010
00000000
00001000
00000000
00010000
00001000
00010000
00000000
,  // measure 9
01000000
10000000
00100000
01000000
00000000
00020000
00100000
00130000
,  // measure 10
01000000
00010000
00001000
00000010
00000000
00000200
00001000
00001300
,  // measure 11
00000001
00000010
00001000
00010000
01000000
10000000
00100000
00010000
,  // measure 12
00001000
00010000
00001000
00000000
00100000
00000000
00001000
00000000
00010000
00001000
00010000
00000000
00000010
00000000
00010000
00000000
,  // measure 13
00011000
00000000
00000000
00000000
00001000
01000000
00001000
01000000
00010000
00000000
00000000
00100000
00001000
00000000
00010000
00000000
,  // measure 14
00011000
00000000
00000000
00000000
00001000
00010000
00001000
00010000
00000100
00000000
00000000
00001000
00000010
00000000
00001000
00000000
,  // measure 15
00001001
00000000
00000001
00000000
00000100
00000000
00001000
00000000
00010000
00000000
00100000
10000000
00000000
01000000
00000000
00200000
,  // measure 16
00000000
00000000
01300000
00000000
00010000
00000000
00001000
00000000
00011000
00000000
00000000
00000000
00010000
00000000
00000100
00001000
,  // measure 17
00000100
00000000
00000010
00000001
00000010
00000000
00000100
00001000
00000100
00000000
00010000
00000000
00011000
00000000
00000000
00000000
,  // measure 18
00001000
00000000
00010000
00000010
00010000
00000000
00001000
01000000
00001000
00000000
00010000
00001000
00010000
00000000
00100000
00000000
,  // measure 19
10000000
01000000
00010000
00001000
00022000
00000000
00000000
00000000
,  // measure 20
00033000
00000000
00000000
00000000
00010000
00000100
00001000
00000000
00001002
00000000
00000023
00000000
00002030
00000000
00023000
00000000
,  // measure 21
02030000
23000000
30200000
00320000
00031000
00100000
01000000
10000000
,  // measure 22
00100000
00000000
00010000
00000000
00001000
01000000
00010000
00000000
20010000
00000000
30200000
00000000
00320000
00000000
00032000
00000000
,  // measure 23
00003200
00000302
00000023
00002030
00013000
00000010
00000100
00000001
,  // measure 24
00000010
00000000
00001000
00000000
00022000
00000000
00033000
00000000
00010000
00000100
00010000
00000000
00000000
00000000
00001000
01000000
,  // measure 25
00001000
00000000
00010000
00000000
00001000
00000000
00011000
00000000
00010000
00000010
00010000
00000000
00000000
00000000
00001000
00100000
,  // measure 26
00001000
00000000
00010000
00000000
00022000
00000000
00033000
00000000
00001000
00010000
00100000
00000000
00000000
00000000
00010000
00001000
,  // measure 27
00000100
00000000
00000001
00000000
00000010
00000000
00000100
00000000
00000110
00000000
00000001
00000100
00000000
00001000
00000000
00010000
,  // measure 28
00000000
00100000
01000000
00100000
10000000
00000000
01000000
00000000
01200000
00000000
00000000
00000000
10000000
00000000
00000000
00000000
,  // measure 29
00010000
00301000
00000210
00000001
,  // measure 30
00001000
00000000
00000000
00010300
00000000
00000000
00011000
00000000
00001000
01000000
00010000
01000000
,  // measure 31
00100000
00000000
10000000
00000000
00100000
00000000
01000000
00000000
00010000
00000000
00000000
00000000
00110000
00000000
00000000
01000000
00000000
00000000
10000000
00000000
00000000
00100000
00000000
00000000
,  // measure 32
00020000
00000000
00000000
00031000
01000000
00000000
00000000
00001000
00010000
00000000
00000100
00000000
00001000
00000000
00000010
00000100
,  // measure 33
00000010
00000000
00001000
00000000
00000100
00000000
00010000
00001000
00010000
00000000
00100000
00000000
01000000
00000000
00100000
10000000
,  // measure 34
00100000
10000000
01000000
00010000
00001000
00000010
00000001
00001000
,  // measure 35
00002002
00000000
00000000
00000000
00000000
00000000
00003003
00000000
00000101
00000000
00000000
00001100
00000000
00000000
00011000
00000000
,  // measure 36
00000000
00010010
00000000
00000000
02002000
00000000
03003000
00000000
00001000
00000000
00020000
00000000
00000000
00000000
00130000
00000000
,  // measure 37
00020000
00000000
00000000
00001000
00000000
00030010
00000000
00000000
00010000
00000000
00002000
00000000
00000000
00000000
00003100
00000000
,  // measure 38
00002000
00000000
00000000
00020000
00033000
00000000
00000000
00000000
00001000
00000000
00000200
00000000
00000000
00000000
00000310
00000000
,  // measure 39
00002000
00000000
00000000
00000010
00000000
00103000
00000000
00000000
00000000
00000000
00100000
00000000
10000000
00000000
01000000
00000000
,  // measure 40
00010000
00000000
00001000
00000000
00000010
00000100
00000010
00000000
00000012
00000000
00000203
00000000
00000320
00000000
00002030
00000000
,  // measure 41
00023000
02030000
03200000
20300000
31000000
00010000
00001000
00100000
,  // measure 42
01000000
00000000
10000000
00000000
00100000
01000000
00100000
00000000
20100000
00000000
32000000
00000000
03200000
00000000
00320000
00000000
,  // measure 43
00032000
00003200
00000320
00000032
00000103
00001000
00010000
00000100
,  // measure 44
00000010
00000000
00001000
00000000
00022000
00000000
00033000
00000000
00010000
00001000
00000100
00000000
00000000
00000000
00001000
00010000
,  // measure 45
00100000
00000000
00010000
00000000
00001000
00000000
00011000
00000000
00010000
00001000
00000010
00000000
00000000
00000000
00001000
00010000
,  // measure 46
01000000
00000000
10000000
00000000
20020000
00000000
30030000
00000000
10000000
00100000
00010000
00000000
00000000
00000000
00001000
00000100
,  // measure 47
00000001
00000000
00000010
00000000
00000100
00000000
00000110
00000000
00000001
00000000
00001000
00000010
00000000
00010000
00000000
00100000
,  // measure 48
00000000
10000000
01000000
00010000
00001000
00000000
00022000
00000000
00033000
00000000
00000000
00000000
00000000
00000000
00000000
00000000
;
