#TITLE:Very Very Very;
#SUBTITLE:;
#ARTIST:I.O.I;
#TITLETRANSLIT:;
#SUBTITLETRANSLIT:;
#ARTISTTRANSLIT:;
#GENRE:K-POP;
#CREDIT:MUINELIM;
#BANNER:Very Very Very.png;
#BACKGROUND:Very Very Very-bg.png;
#LYRICSPATH:;
#CDTITLE:;
#MUSIC:Very Very Very.ogg;
#OFFSET:0.037000;
#SAMPLESTART:18.678003;
#SAMPLELENGTH:11.000000;
#SELECTABLE:YES;
#DISPLAYBPM:206.000000;
#BPMS:0.000000=206.000000
;
#STOPS:
;
#BGCHANGES:0.000=Very Very Very.mp4=1.000=0=0=1=Centered====,
99999=-nosongbg-=1.000=0=0=0 // don't automatically add -songbackground-
;
#KEYSOUNDS:;
#ATTACKS:;

//---------------dance-single - ----------------
#NOTES:
     dance-single:
     :
     Beginner:
     5:
     0.139018,0.202591,0.006853,0.000000,0.000000,142.000000,141.000000,1.000000,0.000000,0.000000,0.000000,0.139018,0.202591,0.006853,0.000000,0.000000,142.000000,141.000000,1.000000,0.000000,0.000000,0.000000:
0000
0000
0000
0000
,
0000
0000
0000
0000
,
0000
0000
0000
0000
,
0000
0000
0000
0000
,
0000
0000
0000
0000
,
0000
0000
0000
0000
,
0000
0000
0000
0000
,
0000
0000
0000
0000
,
0000
1000
0000
1000
,
0000
0000
0000
0000
,
0000
0001
0000
0001
,
0000
0000
0000
0000
,
0000
1000
0000
1000
,
0000
0000
0000
0000
,
0000
0001
0000
0001
,
0000
0000
0000
0000
,
0000
0100
0000
0100
,
0000
0000
0000
0000
,
0000
0010
0000
0010
,
0000
0000
0000
0000
,
0000
1000
0000
1000
,
0000
0001
0000
0001
,
0000
1000
0000
1000
,
0000
0001
0000
0000
,
0000
0010
0000
0010
,
0000
0000
0000
0000
,
0000
0100
0000
0100
,
0000
0000
0000
0000
,
0000
1000
0000
1000
,
0000
0001
0000
0001
,
0000
1000
0000
1000
,
0000
0001
0000
0000
,
0000
1000
0000
0000
,
0000
0100
0000
0000
,
0000
0010
0000
0000
,
0000
0001
0000
0001
,
0000
0001
0000
0000
,
0000
0010
0000
0000
,
0000
0100
0000
0000
,
0000
1000
0000
0000
,
0000
0010
0000
0010
,
0000
0010
0000
0000
,
0000
1000
0000
0000
,
0000
0001
0000
0000
,
0000
0100
0000
0100
,
0000
0100
0000
0000
,
0000
0001
0000
0000
,
0000
1000
0000
0000
,
0000
0010
0000
0000
,
0000
0000
0000
0000
,
0000
0100
0000
0000
,
0000
0000
0000
0000
,
0000
0001
0000
0000
,
0000
1000
0000
0000
,
0000
0001
0000
0000
,
0000
1000
0000
0000
,
0000
0100
0000
0000
,
0000
0000
0000
0000
,
0000
0010
0000
0000
,
0000
0000
0000
0000
,
0000
0001
0000
0000
,
0000
1000
0000
0000
,
0000
0001
0000
0000
,
0000
1000
0000
0000
,
0000
0001
0000
0001
,
0000
0000
0000
0100
,
0000
1000
0000
1000
,
0000
0000
0000
0100
,
0000
0001
0000
0001
,
0000
1000
0000
1000
,
0000
0001
0000
1000
,
0000
0001
0000
0000
,
0000
1000
0000
1000
,
0000
0000
0000
0010
,
0000
0001
0000
0001
,
0000
0000
0000
0010
,
0000
1000
0000
1000
,
0000
0001
0000
0001
,
0000
1000
0000
0001
,
0000
1000
0000
0000
,
0000
0010
0000
0000
,
0000
0000
0000
0000
,
0000
0100
0000
0000
,
0000
0000
0000
0000
,
0000
0001
0000
0000
,
0000
1000
0000
0000
,
0000
0001
0000
0000
,
0000
1000
0000
0000
,
0000
0010
0000
0010
,
0000
0010
0000
0010
,
0000
0010
0000
0000
,
0000
0000
0000
0000
,
0000
0100
0000
0100
,
0000
0100
0000
0100
,
0000
0100
0000
0000
,
0000
0000
0000
0000
,
0000
0001
0000
0100
,
0000
0010
0000
0100
,
0000
0001
0000
0100
,
0000
0010
0000
0100
,
0000
0001
0000
0001
,
0000
0001
0000
0000
,
0000
1000
0000
0001
,
0000
1000
0000
1000
,
0000
1000
0000
0100
,
0000
0010
0000
0100
,
0000
1000
0000
0100
,
0000
0010
0000
0100
,
0000
1000
0000
1000
,
0000
1000
0000
0000
,
0000
0001
0000
1000
,
0000
0001
0000
0100
,
0000
0010
0000
0010
,
0000
0000
0000
0000
,
0000
1000
0000
1000
,
0000
0000
0000
0000
,
0000
0100
0000
0100
,
0000
0001
0000
0000
,
0000
1001
0000
0000
;

//---------------dance-single - ----------------
#NOTES:
     dance-single:
     :
     Easy:
     8:
     0.289783,0.412035,0.034265,0.123354,0.000000,296.000000,291.000000,5.000000,18.000000,0.000000,0.000000,0.289783,0.412035,0.034265,0.123354,0.000000,296.000000,291.000000,5.000000,18.000000,0.000000,0.000000:
0000
0000
0000
0000
,
0000
0000
0000
0000
,
0000
0000
0000
0000
,
0000
0000
0000
0000
,
0000
0000
0000
0000
,
0000
0000
0000
0000
,
0000
0000
0000
0000
,
0000
0000
0000
0000
,
0000
1000
0000
0001
,
0000
1000
0000
0001
,
0000
0010
0000
0100
,
0000
0010
0000
0100
,
0000
1000
0000
0001
,
0000
0010
0000
0100
,
0000
1000
0001
1000
,
0001
1001
0000
0000
,
0000
0010
0010
0010
,
0000
0000
0001
1000
,
0001
0100
0100
0100
,
0000
0000
0002
0003
,
1000
0010
0010
0010
,
0010
0010
0000
1000
,
0000
0001
0000
0100
,
0000
0010
0100
0010
,
0100
0001
0001
0001
,
0000
0000
0100
0100
,
0010
1000
1000
1000
,
0000
0000
0020
0030
,
0100
0001
0001
0001
,
0001
0001
0000
0100
,
0000
0010
0000
1000
,
0000
0001
1000
0001
,
1000
0001
0000
0100
,
0000
0001
0000
0010
,
0000
0001
0000
0100
,
0000
0001
0001
0010
,
0000
1000
0000
0100
,
0000
1000
0000
0010
,
0000
1000
0000
0100
,
0000
1000
1000
0010
,
0000
0001
0000
1000
,
0000
0001
0000
0100
,
0000
0001
0000
1000
,
0000
0001
0001
0010
,
0000
1000
0000
0001
,
0000
1000
0000
0100
,
0000
1000
0000
0001
,
0000
1000
1000
0010
,
0000
0002
0000
0000
,
0003
1000
0001
1000
,
0001
1000
0000
0000
,
0001
0001
0000
0000
,
1000
0020
0030
0000
,
1000
0200
0300
0000
,
1000
0002
0003
2000
,
3000
0010
0100
0010
,
0100
0000
0010
0000
,
0010
1000
0001
0100
,
0010
1000
0000
1001
,
0000
0000
0000
0000
,
0001
0020
0030
0000
,
0001
0200
0300
0000
,
0001
0010
0100
1000
,
0001
1000
0000
0000
,
0000
0100
0100
0100
,
0000
0000
1000
0001
,
1000
0010
0010
0010
,
0000
0000
2000
3000
,
0001
0100
0100
0100
,
0100
0100
0000
0001
,
0000
1000
0000
0100
,
0000
0010
0100
0010
,
0100
1000
1000
1000
,
0000
0000
0100
0100
,
0010
0001
0001
0001
,
0000
0000
0020
0030
,
0100
1000
1000
1000
,
1000
1000
0000
0100
,
0000
0010
0000
0001
,
0000
1000
0001
1000
,
0001
2000
0000
3000
,
0000
0000
0010
0010
,
1000
0002
0000
0000
,
0003
0000
0000
0000
,
0010
0010
0000
0000
,
0001
0001
0000
0000
,
0100
0100
0000
1000
,
0000
0010
0000
0001
,
0000
1000
0100
1000
,
0000
0001
0010
0001
,
0000
1000
0010
1000
,
0000
0001
0100
0001
,
0000
1000
0001
1000
,
0001
0100
0010
0100
,
0010
1000
1000
0001
,
0001
0200
0000
0000
,
0300
0010
0010
0010
,
0000
0000
1000
0001
,
1000
0100
0100
0100
,
0000
0000
2000
3000
,
0001
0010
0010
0010
,
0010
0010
0001
1000
,
0010
0100
0010
0100
,
0010
1000
0001
1000
,
1001
0100
0100
0100
,
0000
0000
0001
1000
,
0001
0010
0010
0010
,
0010
0000
0002
0003
,
1000
0100
0100
0100
,
0100
0100
0000
1000
,
0000
0001
0000
0010
,
0000
0100
0010
0100
,
0110
0001
0100
1000
,
0000
0000
0100
0100
,
0100
1000
0010
0001
,
0000
0000
0010
0010
,
0010
0001
0100
1000
,
0001
0100
0000
1000
,
0000
2002
0000
0000
,
0000
0000
0000
0000
,
0000
3003
0000
0000
;

//---------------dance-single - ----------------
#NOTES:
     dance-single:
     :
     Medium:
     11:
     0.478729,0.659256,0.390620,0.157618,0.000000,489.000000,432.000000,57.000000,23.000000,0.000000,0.000000,0.478729,0.659256,0.390620,0.157618,0.000000,489.000000,432.000000,57.000000,23.000000,0.000000,0.000000:
0000
0000
0000
0000
,
0000
0000
0000
0000
,
0000
0000
0000
0000
,
0000
0000
0000
0000
,
0000
0000
0000
0000
,
0000
0000
0000
0000
,
0000
0000
0000
0000
,
0000
0000
0000
0000
,
0000
1000
0001
1000
,
0001
1000
0001
1000
,
0001
0100
0010
0100
,
0010
0100
0010
0100
,
0010
1000
0001
1000
,
0001
0100
0010
0100
,
0010
0000
1000
0001
1000
0001
1000
0001
,
1000
0002
2000
0000
0000
0000
0000
0000
,
3003
1001
0110
1001
,
0000
0000
0100
0010
,
0100
0110
1001
0110
,
0000
0000
0000
0000
1001
0000
0000
0010
,
0100
0010
0100
0000
0101
0000
1010
0000
,
0101
0000
1010
0000
0010
0100
0010
0000
,
1001
1000
0100
0010
,
0001
0010
0100
1000
,
0010
0000
0100
0001
0100
0001
0100
0001
,
0000
0000
0100
0001
,
0100
0000
0010
1000
0010
1000
0010
1000
,
0000
0000
0020
0000
,
0130
0000
0100
0001
0100
0000
0010
1000
,
0010
0110
1000
0010
,
0100
0001
0100
0010
,
1000
0000
0001
0100
0001
0100
0001
0100
,
0001
1000
0100
0010
,
0001
0100
0110
0000
,
1000
0010
0110
0000
,
0001
0100
0010
0110
,
1001
0000
1000
0100
,
0010
0110
1001
0000
,
0001
0010
0100
1000
,
0010
0100
0010
0100
,
0110
0001
0100
0010
,
1000
0100
0110
0000
,
0001
0010
0110
0000
,
1000
0100
0010
0110
,
1001
0000
0001
0100
,
0010
0110
1001
0000
,
1000
0010
0100
0001
,
0010
0100
1000
0001
,
0100
0010
2000
0000
,
3001
0100
0010
1000
,
0100
0000
0010
0000
0000
0001
0000
0000
,
0010
0000
0100
0000
0000
1000
0000
0000
,
0100
0000
1000
0000
0000
0010
0000
0000
,
1000
0000
0001
0000
0000
0100
0000
0000
,
0001
1000
0010
0001
,
0010
1000
0100
0010
,
0001
0000
2002
3003
,
1000
0010
0100
0001
,
0010
0000
0100
0000
0000
0220
0000
0000
,
0000
0000
0000
0330
,
0010
0100
1000
0010
,
0001
0010
1000
0100
,
0010
0000
0001
1000
0001
1000
0001
1000
,
0001
2000
0002
0000
0000
0000
0000
0000
,
3003
1010
0101
1010
,
0000
0000
1000
0100
,
0010
0011
1100
0011
,
0000
0000
0000
0000
1001
0000
0000
1000
,
0001
1000
0001
0000
0101
0000
1010
0000
,
1100
0000
0011
0000
0010
0100
0010
0000
,
1001
1000
0010
0100
,
0001
0100
0010
1000
,
0001
0000
0010
0100
0010
0100
0010
0100
,
0000
0000
0010
0001
,
1000
0000
0100
0010
0100
0010
0100
0010
,
0000
0000
0200
0000
,
0310
0000
0100
1000
0100
0000
0010
0001
,
0010
0110
1000
0100
,
0010
0001
0010
0100
,
1000
0000
0010
0100
0001
0100
0010
0100
,
0001
1000
0200
0000
,
0310
0001
0100
0010
,
2000
0002
0000
0000
,
0000
0000
0000
3003
,
0001
0000
0010
0000
0000
0011
0000
0000
,
0010
0000
0100
0000
0000
1100
0000
0000
,
1000
0010
0100
0001
,
0100
0010
1000
0001
,
0010
0100
2002
3003
,
1000
0010
0001
0010
,
1000
0100
0001
0100
,
1000
0010
0001
0010
,
1000
0100
0100
0010
,
0010
0001
0001
1000
,
1000
0000
0010
0100
0010
0100
0010
0100
,
0010
0200
0020
0000
0000
0000
0000
0000
,
0330
1010
0011
1010
,
0000
0000
1000
0001
,
0100
0101
1100
0101
,
0000
0000
0000
0000
1001
0000
0000
1000
,
0010
0100
0001
0000
0011
0000
1010
0000
,
0101
0000
1100
0000
1000
0010
0100
0000
,
0001
0010
1000
0010
,
0001
0100
1000
0100
,
0001
0000
0010
0100
0010
0100
0010
0100
,
0000
0000
0001
0100
,
1000
0000
0010
0100
0010
0100
0010
0100
,
0000
0000
0002
0000
,
1003
0000
1000
0010
0100
0000
0001
0100
,
0010
0110
1000
0010
,
0001
0100
1000
0010
,
0100
0000
0001
1000
0001
1000
0001
1000
,
0001
0000
1000
0100
0010
0100
1000
0200
,
0000
0000
0310
0001
,
1000
0000
0001
0010
0100
0010
0001
0020
,
0000
0000
0130
1000
,
0001
0000
0100
0010
1000
0001
0100
0010
,
1000
0001
0100
0000
0010
0000
1000
0000
,
0001
2002
0000
0000
,
0000
0000
0000
0000
,
0000
3003
0000
0000
;

//---------------dance-single - ----------------
#NOTES:
     dance-single:
     :
     Hard:
     15:
     0.732289,0.865274,0.733268,0.520826,0.065103,748.000000,641.000000,107.000000,76.000000,0.000000,0.000000,0.732289,0.865274,0.733268,0.520826,0.065103,748.000000,641.000000,107.000000,76.000000,0.000000,0.000000:
0000
0000
0000
0000
,
0000
0000
0000
0000
,
0000
0000
0000
0000
,
0000
0000
0000
0000
,
0000
0000
0000
0000
,
0000
0000
0000
0000
,
0000
0000
0000
0000
,
0000
0000
0000
0000
,
0000
1000
1000
0010
,
0010
1000
1000
0010
,
0010
0000
0100
0001
0100
0000
0000
0000
0100
0000
0000
0000
0001
0000
0000
0000
,
0001
0100
0100
0001
,
0001
0000
1000
0001
1000
0000
0010
0000
1000
0000
0010
0000
0100
0000
0001
0000
,
0100
0001
0010
0001
0010
0100
1000
0100
,
1000
0000
0010
0000
0100
0001
0100
0000
0010
0000
0100
0000
0010
1000
0010
0000
,
0100
0000
0001
0000
1000
0000
1000
0000
1000
0000
1000
0000
1000
0000
0010
0100
,
0010
0100
0101
0000
1100
0000
0101
0000
,
0001
0010
0100
0000
0100
1000
0100
0001
,
0100
1000
1010
0000
0011
0000
1010
0000
,
1000
0100
0010
0000
0022
0033
0000
0001
,
0100
0010
1000
1000
0001
0001
0100
0100
,
0010
0010
0110
0000
1000
0100
0010
0000
,
0011
0101
1100
1010
,
0110
0000
0000
0000
0100
0000
0001
0000
0010
0000
0100
0000
1000
0000
0010
0100
,
0010
0100
0001
0010
1000
0010
0001
0200
,
0300
0000
0110
0000
1001
0001
0100
0010
,
1000
0100
0001
0100
1000
0010
0100
0020
,
0030
0000
1010
0000
0202
0303
0000
0001
,
0010
0100
1000
0100
0001
0100
1000
0100
,
0001
0100
1000
0000
0010
0100
0001
0000
,
0011
1010
1100
0101
,
1001
0000
0000
0000
0110
0000
0010
0000
0100
0000
0010
0000
0100
0000
0010
1000
,
0001
0100
0020
0000
1030
0100
0010
0001
,
0100
0110
2020
3030
,
1000
0100
0010
0000
0022
0000
0033
0000
,
0001
0100
0010
0000
1010
0000
0101
0000
,
0011
0000
1100
0000
1000
0010
0001
1000
,
0100
0101
2020
3030
,
1000
0100
0010
0000
0011
0000
1010
0000
,
0101
1100
0011
1010
,
0101
0000
1100
0000
1000
0010
0100
1000
,
0100
0010
1000
0000
2200
0000
3300
0000
,
0100
0010
0001
0000
0202
0000
0303
0000
,
0100
0010
1000
0000
1100
0000
0101
0000
,
0022
0000
0033
0000
0010
0100
1000
0010
,
0001
1000
0100
0000
0220
0000
0330
0000
,
0010
1000
0001
0000
0101
0000
1100
0000
,
1010
0000
0000
0000
0010
0000
0100
0000
0001
0000
0010
0000
0100
0000
1000
0010
,
0100
0001
2000
0000
0200
0000
3000
0000
,
0010
0000
1300
0010
0001
0010
1000
0100
,
0020
0000
0032
0000
0000
0203
0000
0000
,
0320
0000
1000
2030
0000
0002
3000
0000
,
0013
0100
2000
0000
0000
0020
0030
0000
,
3100
0010
0002
0000
0000
0200
0300
0000
,
1003
0100
0020
0000
0001
0000
1000
0000
,
0001
0230
1000
0001
,
1300
1010
0010
0110
,
0100
0000
0001
0010
1000
0001
0100
1000
,
0001
0101
0100
0110
,
0010
1010
1000
1001
,
0001
0000
0100
0010
1000
0010
0100
0010
,
1000
0010
0100
0001
0100
0010
0100
0001
,
0100
0000
0010
0000
1000
0100
1000
0000
0001
0000
1000
0000
0001
0010
0001
0000
,
1000
0000
0001
0000
0100
0000
0100
0000
0100
0000
0100
0000
0100
0000
0010
1000
,
0010
0100
0101
0000
0011
0000
1010
0000
,
1000
0100
0010
0000
0010
0001
0010
1000
,
0010
0001
0101
0000
1100
0000
1010
0000
,
0010
0001
0100
0000
2200
3300
0000
1000
,
0100
0010
0001
0001
1000
1000
0100
0100
,
0010
0010
0110
0000
0001
0010
0100
0000
,
1100
1010
0011
0101
,
0110
0000
0000
0000
0010
0000
1000
0000
0001
0000
0010
0000
0100
0000
1000
0010
,
1000
0001
0010
1000
0010
0001
0100
0020
,
0030
0000
0110
0000
1001
1000
0100
0010
,
0001
0100
1000
0100
0001
0010
0100
0020
,
0030
0000
0011
0000
2200
3300
0000
1000
,
0010
0100
0001
0100
1000
0100
0001
0100
,
1000
0100
0001
0000
0010
0100
1000
0000
,
1100
0101
0011
1010
,
1001
0000
0000
0000
0110
0000
0010
0000
0010
0000
0100
0000
0100
0000
0010
1000
,
0001
0100
0102
0000
2000
0000
0003
0000
,
3020
1000
0100
0001
,
0100
0000
2030
0000
0000
3200
0000
0000
,
0302
0000
0010
0023
,
2030
0000
3200
0000
0000
0010
0000
0000
,
2300
0000
3002
0000
0023
0200
0300
0000
,
0032
0203
2300
3002
,
0023
2030
3200
0302
,
0013
0110
1000
0110
,
0001
0000
0110
0000
1000
0001
1000
0000
,
1001
0000
0001
1000
0010
0000
0000
0000
1001
0000
0000
0000
0100
0000
0000
0000
,
1001
0010
1001
0100
,
1001
0000
0001
0010
0100
0010
0001
0010
,
0100
0100
1000
0100
0010
0100
1000
0100
,
0010
0000
0010
0000
0001
0100
0010
0000
1000
0000
0100
0000
1000
0010
0100
0000
,
0001
0000
0100
0000
0010
0000
0010
0000
0010
0000
0010
0000
0010
0000
1000
0001
,
0100
0010
1000
0100
0001
0100
1000
0020
,
0030
0000
0011
0000
0001
0010
1000
0100
,
0001
0100
1000
0010
0001
0010
1000
0200
,
0300
0000
0101
0000
2200
3300
0000
1000
,
0010
0001
1000
0100
0001
0010
1000
0001
,
0100
1000
0020
0000
0130
0001
0010
0000
,
0011
0101
1100
1010
,
0110
0000
0000
0000
0010
0000
1000
0000
0001
0000
0100
0000
0010
0000
1000
0001
,
0100
1000
0100
0001
0010
1000
0010
0002
,
0003
0000
0101
0000
0100
1000
0100
0001
,
0010
1000
0001
0100
1000
0010
0001
0020
,
0030
0000
1010
0000
2200
3300
0000
1000
,
0100
0001
1000
0010
0001
0100
1000
0001
,
0010
1000
0200
0000
0310
0001
0100
0000
,
1100
1010
0011
0101
,
0110
0000
0000
0000
0100
0000
0001
0000
0010
0000
0100
0000
1000
0000
0010
0100
,
0001
1000
0100
0100
0001
0001
0010
0020
,
0030
0000
1010
0000
0001
0010
0100
1000
,
0001
0100
0010
0010
0001
0001
0100
0200
,
0300
0000
1100
0000
0001
0010
0100
1000
,
0001
0100
0010
0010
1000
1000
0100
0100
,
0001
0001
0011
0000
1000
0100
0001
1000
,
0010
0001
0220
0000
0000
0000
0000
0000
,
0000
0000
0000
0000
,
0000
0330
0000
0000
;

//---------------dance-double - ----------------
#NOTES:
     dance-double:
     :
     Hard:
     15:
     0.725437,0.865274,0.733268,0.548238,0.041118,741.000000,634.000000,107.000000,80.000000,0.000000,0.000000,0.725437,0.865274,0.733268,0.548238,0.041118,741.000000,634.000000,107.000000,80.000000,0.000000,0.000000:
00000000
00000000
00000000
00000000
,
00000000
00000000
00000000
00000000
,
00000000
00000000
00000000
00000000
,
00000000
00000000
00000000
00000000
,
00000000
00000000
00000000
00000000
,
00000000
00000000
00000000
00000000
,
00000000
00000000
00000000
00000000
,
00000000
00000000
00000000
00000000
,
00000000
00001000
00001000
01000000
,
01000000
00001000
00001000
01000000
,
01000000
00000000
00001000
00010000
00000010
00000000
00000000
00000000
00000010
00000000
00000000
00000000
00010000
00000000
00000000
00000000
,
00010000
00000010
00000010
00010000
,
00010000
00000000
00001000
00100000
00010000
00000000
01000000
00000000
00010000
00000000
01000000
00000000
00001000
00000000
00010000
00000000
,
00001000
00010000
00000010
00001000
00000010
00001000
00000100
00000010
,
00000001
00000100
00001000
00001000
00010000
01000000
10000000
10000000
,
00100000
00000000
00010000
00000000
00001000
00000000
00001000
00000000
00001000
00000000
00001000
00000000
00001000
00000000
00010000
00001000
,
00010000
00001000
01001000
00000000
00011000
00000000
00010100
00000000
,
00000100
00000010
00000001
00000000
00000001
00000100
00001000
00000100
,
00001000
00010000
00010010
00000000
00011000
00000000
00101000
00000000
,
00100000
01000000
10000000
00000000
20200000
30300000
00000000
00100000
,
00010000
00001000
00100000
00100000
01000000
01000000
00010000
00010000
,
00001000
00001000
00011000
00000000
00010000
00001000
00000010
00000000
,
00000011
00000101
00001100
00011000
,
01010000
00000000
01000000
10000000
00100000
00010000
00100000
10000000
,
01000000
00100000
00010000
01000000
00100000
00010000
00001000
00000200
,
00000300
00000000
00000110
00000000
00001001
00000001
00000010
00000100
,
00001000
00000010
00000100
00001000
00010000
00100000
01000000
00020000
,
00030000
00000000
10010000
00000000
02200000
03300000
00000000
00100000
,
10000000
01000000
00010000
00001000
00000100
00001000
00010000
00100000
,
00010000
00001000
00000010
00000000
00000010
00000001
00000100
00000000
,
00000110
00010010
00011000
00101000
,
01100000
00000000
11000000
10000000
00100000
00010000
00001000
00000100
,
00000100
00000001
00000020
00000000
00000031
00000100
00001000
00010000
,
01000000
10100000
02020000
03030000
,
00010000
00100000
00001000
00000000
00022000
00000000
00033000
00000000
,
00010000
00000100
00001000
00000000
00001010
00000000
00000101
00000000
,
00000011
00000000
00001100
00000000
00000100
00000010
00000001
00000100
,
00001000
01001000
00020200
00030300
,
00010000
01000000
10000000
00000000
10100000
00000000
00110000
00000000
,
00011000
00001100
00000101
00000011
,
00001100
00000000
00011000
00000000
00001000
00100000
01000000
00010000
,
00001000
00000010
00000100
00000000
00000220
00000000
00000330
00000000
,
00000001
00000100
00001000
00000000
00022000
00000000
00033000
00000000
,
00010000
00100000
10000000
00000000
11000000
00000000
01010000
00000000
,
00220000
00000000
00330000
00000000
00100000
00001000
00010000
00100000
,
00001000
00000010
00000100
00000000
00000202
00000000
00000303
00000000
,
00000001
00000010
00001000
00000000
00011000
00000000
00010010
00000000
,
00101000
00000000
00100000
01000000
10000000
00100000
00010000
00001000
,
00001000
00000100
00000002
00000000
00002000
00000000
00000003
00000000
,
00000010
00000000
00003100
00010000
00001000
00100000
01000000
10000000
,
00200000
00000000
00320000
00000000
00000000
00032000
00000000
00000000
,
00203000
00000000
01000000
02300000
00000000
00020000
03000000
00000000
,
00031000
00000010
00000002
00000000
00000000
00000200
00000300
00000000
,
00001003
00000010
00020000
00000000
00000000
00002000
00003000
00000000
,
00130000
10000000
02000000
00000000
03020000
00000000
00032000
00000000
,
00003020
00000230
00002300
00003002
,
00000103
00000110
00001000
00011000
,
01000000
00000000
00100000
10000000
01000000
00010000
01000000
10000000
,
00100000
01100000
00010000
00011000
,
00000100
00000110
00000001
00001001
,
00001000
00000000
00000010
00010000
00001000
00010000
00000100
00010000
,
00001000
00010000
00001000
01000000
00001000
00010000
00001000
00100000
,
00001000
00000000
00010000
00000000
01000000
00100000
01000000
00000000
00010000
00000000
00001000
00000000
00000010
00000100
00000010
00000000
,
00001000
00000000
00010000
00000000
00100000
00000000
00100000
00000000
00100000
00000000
00100000
00000000
00100000
00000000
00010000
00001000
,
00010000
00001000
00101000
00000000
00011000
00000000
00010010
00000000
,
00000010
00000100
00000001
00000000
00000001
00000010
00001000
00000010
,
00001000
00010000
00010100
00000000
00011000
00000000
01001000
00000000
,
01000000
00100000
10000000
00000000
22000000
33000000
00000000
01000000
,
00010000
00001000
01000000
01000000
00100000
00100000
00010000
00010000
,
00001000
00001000
00011000
00000000
00010000
00001000
00000100
00000000
,
00000101
00000011
00001010
00011000
,
00110000
00000000
00100000
10000000
01000000
00010000
01000000
10000000
,
00100000
01000000
00010000
00100000
01000000
00010000
00001000
00000020
,
00000030
00000000
00000110
00000000
00001001
00000001
00000100
00000010
,
00001000
00000100
00000010
00001000
00010000
01000000
00100000
00020000
,
00030000
00000000
10010000
00000000
02200000
03300000
00000000
01000000
,
10000000
00100000
00010000
00001000
00000010
00001000
00010000
01000000
,
00010000
00001000
00000100
00000000
00000100
00000001
00000010
00000000
,
00000110
00010100
00011000
01001000
,
01100000
00000000
10100000
10000000
01000000
00010000
00001000
00000010
,
00000010
00000001
00000201
00000000
00000020
00000000
00000300
00000000
,
00020030
00000010
00001000
00100000
,
00001000
00000000
00030200
00000000
00000000
00000320
00000000
00000000
,
00002030
00000000
00100000
00203000
,
02300000
00000000
23000000
00000000
00000000
00100000
00000000
00000000
,
30020000
00000000
00032000
00000000
00003002
00000100
00000000
00000000
,
00000023
00000230
00002300
00023000
,
02030000
03200000
20300000
30020000
,
01030000
01100000
00010000
00011000
,
00000100
00000000
00000110
00000000
00000001
00001000
00000001
00000000
,
00001001
00000000
00001000
00000001
00001000
00000000
00000000
00000000
00000110
00000000
00000000
00000000
00001000
00000000
00000000
00000000
,
00011000
00100000
01100000
10000000
,
10010000
00000000
00010000
00100000
10000000
00100000
00010000
00100000
,
00001000
00010000
00000100
00000001
00000100
00001000
00000100
00000001
,
00000100
00000000
00000010
00000000
00000001
00000100
00000001
00000000
00000100
00000000
00001000
00000000
00010000
00001000
00010000
00000000
,
00100000
00000000
10000000
00000000
01000000
00000000
01000000
00000000
01000000
00000000
01000000
00000000
01000000
00000000
00010000
00001000
,
00010000
00000100
00000010
00000001
00000100
00001000
00000010
00000002
,
00000003
00000000
00000101
00000000
00000100
00001000
00010000
00100000
,
10000000
01000000
00100000
00010000
01000000
10000000
00100000
00020000
,
00030000
00000000
01010000
00000000
20200000
30300000
00000000
10000000
,
01000000
00010000
00001000
00010000
00100000
00010000
00001000
00000100
,
00001000
00010000
00002000
00000000
00003100
00000001
00000010
00000000
,
00000110
00001100
00011000
01010000
,
01100000
00000000
00000000
00000000
00100000
00000000
10000000
00000000
01000000
00000000
00010000
00000000
00001000
00000000
00100000
00010000
,
00100000
00001000
00010000
00100000
10000000
01000000
00010000
00200000
,
00300000
00000000
10100000
00000000
10000000
01000000
00010000
00001000
,
00000010
00000100
00001000
00000010
00000001
00000100
00001000
00000020
,
00000030
00000000
00000011
00000000
00000202
00000303
00000000
00000100
,
00001000
00010000
00100000
00001000
00000010
00010000
00001000
00000100
,
00010000
01000000
00200000
00000000
10300000
01000000
00010000
00000000
,
00011000
00101000
00010010
01001000
,
00010100
00000000
00000000
00000000
00000100
00000000
00000010
00000000
00000001
00000000
00000100
00000000
00001000
00000000
00010000
00001000
,
00010000
00001000
00000100
00000001
00000010
00001000
00000100
00000020
,
00000030
00000000
00000011
00000000
00000001
00000100
00001000
00010000
,
00100000
10000000
01000000
00010000
00100000
10000000
01000000
00200000
,
00300000
00000000
00110000
00000000
10000000
00100000
00010000
00001000
,
00000100
00000001
00000010
00001000
00000100
00001000
00000010
00000001
,
00000100
00000010
00001010
00000000
00001000
00000100
00010000
01000000
,
00100000
00001000
00022000
00000000
00000000
00000000
00000000
00000000
,
00000000
00000000
00000000
00000000
,
00000000
00033000
00000000
00000000
;

//---------------dance-double - ----------------
#NOTES:
     dance-double:
     :
     Easy:
     9:
     0.282930,0.412035,0.041118,0.123354,0.000000,289.000000,283.000000,6.000000,18.000000,0.000000,0.000000,0.282930,0.412035,0.041118,0.123354,0.000000,289.000000,283.000000,6.000000,18.000000,0.000000,0.000000:
00000000
00000000
00000000
00000000
,
00000000
00000000
00000000
00000000
,
00000000
00000000
00000000
00000000
,
00000000
00000000
00000000
00000000
,
00000000
00000000
00000000
00000000
,
00000000
00000000
00000000
00000000
,
00000000
00000000
00000000
00000000
,
00000000
00000000
00000000
00000000
,
00000000
00001000
00000000
00010000
,
00000000
00001000
00000000
00010000
,
00000000
01000000
00000000
00100000
,
00000000
01000000
00000000
00100000
,
00000000
00001000
00000000
00010000
,
00000000
00000100
00000000
00000010
,
00000000
00001000
00010000
00001000
,
00010000
00011000
00000000
00000000
,
00000000
00001000
00001000
00001000
,
00000000
00000000
01000000
00001000
,
00010000
00001000
00001000
00001000
,
00000000
00000000
02000000
03000000
,
00001000
00010000
00010000
00010000
,
00010000
00010000
00000000
00000010
,
00000000
00010000
00000000
00001000
,
00000000
00100000
00010000
00100000
,
00010000
01000000
01000000
01000000
,
00000000
00000000
00001000
00001000
,
00010000
00000010
00000010
00000010
,
00000000
00000000
00020000
00030000
,
00001000
00100000
00100000
00100000
,
00100000
00100000
00000000
00001000
,
00000000
00010000
00000000
00000010
,
00000000
00001000
00000001
00001000
,
00000001
00001000
00000000
00000001
,
00000000
00000100
00000000
00001000
,
00000000
00010000
00000000
00100000
,
00000000
10000000
00000000
01000000
,
00000000
00010000
00000000
00001000
,
00000000
00000010
00000000
00000001
,
00000000
00000100
00000000
00001000
,
00000000
00010000
00000000
01000000
,
00000000
10000000
00000000
00100000
,
00000000
00010000
00000000
00001000
,
00000000
00000010
00000000
00000001
,
00000000
00000100
00000000
00001000
,
00000000
00010000
00000000
00100000
,
00000000
00010000
00000000
00001000
,
00000000
00000010
00000000
00001000
,
00000000
00010000
00000000
00100000
,
00000000
20000000
00000000
00000000
,
30000000
01000000
00100000
01000000
,
00100000
01000000
00000000
00000000
,
00010000
00001000
00000000
00000000
,
00000010
00000200
00000300
00000000
,
00000010
00000200
00000300
00000000
,
00000010
00000200
00000300
00000020
,
00000030
00000001
00000100
00001000
,
00010000
00000000
00011000
00000000
,
00001000
00010000
00100000
10000000
,
01000000
00100000
00000000
01100000
,
00000000
00000000
00000000
00000000
,
10000000
00020000
00030000
00000000
,
10000000
00020000
00030000
00000000
,
10000000
01000000
00100000
00010000
,
01000000
00010000
00000000
00000000
,
01000000
00001000
00001000
00001000
,
00000000
00000000
00100000
00001000
,
00010000
00001000
00001000
00001000
,
00000000
00000000
00200000
00300000
,
00001000
00010000
00010000
00010000
,
00010000
00010000
00000000
00000100
,
00000000
00010000
00000000
00001000
,
00000000
01000000
00010000
01000000
,
00010000
00100000
00100000
00100000
,
00000000
00000000
00001000
00001000
,
00010000
00000100
00000100
00000100
,
00000000
00000000
00020000
00030000
,
00001000
01000000
01000000
01000000
,
01000000
01000000
00000000
00001000
,
00000000
00010000
00000000
00000100
,
00000000
00001000
00000001
00001000
,
00000001
00002000
00000000
00003000
,
00000000
00000000
00000001
00000000
,
00000100
00002000
00000000
00000000
,
00003000
00000000
00000000
00000000
,
00010000
00010000
00000000
00000000
,
00100000
00100000
00000000
00000000
,
10000000
10000000
00000000
01000000
,
00000000
00010000
00000000
00001000
,
00000000
00100000
00000000
01000000
,
00000000
00010000
00000000
00001000
,
00000000
00000010
00000000
00000100
,
00000000
00010000
00000000
00001000
,
00000000
00000100
00000001
00000100
,
00000001
00000010
00001000
00000010
,
00001000
00010000
00010000
00001000
,
00001000
02000000
00000000
00000000
,
03000000
00100000
00100000
00100000
,
00000000
00000000
00010000
00001000
,
00010000
00000010
00000010
00000010
,
00000000
00000000
00020000
00030000
,
00001000
00100000
00100000
00100000
,
00100000
00100000
00010000
01000000
,
00100000
10000000
00100000
10000000
,
00100000
01000000
00001000
00010000
,
00011000
00000100
00000100
00000100
,
00000000
00000000
00010000
00001000
,
00010000
01000000
01000000
01000000
,
01000000
00000000
00020000
00030000
,
00001000
00000010
00000010
00000010
,
00000010
00000010
00000000
00000001
,
00000000
00000100
00000000
00001000
,
00000000
00010000
00100000
01000000
,
01100000
10000000
01000000
00010000
,
00000000
00000000
00001000
00010000
,
00001000
00001000
00000010
00000001
,
00000000
00000000
00000100
00001000
,
00000100
00010000
01000000
00100000
,
00010000
00001000
00000000
00010000
,
00000000
00022000
00000000
00000000
,
00000000
00000000
00000000
00000000
,
00000000
00033000
00000000
00000000
;

//---------------dance-double - ----------------
#NOTES:
     dance-double:
     :
     Medium:
     11:
     0.458170,0.576849,0.246707,0.198736,0.000000,468.000000,432.000000,36.000000,29.000000,0.000000,0.000000,0.458170,0.576849,0.246707,0.198736,0.000000,468.000000,432.000000,36.000000,29.000000,0.000000,0.000000:
// measure 0
00000000
00000000
00000000
00000000
,  // measure 1
00000000
00000000
00000000
00000000
,  // measure 2
00000000
00000000
00000000
00000000
,  // measure 3
00000000
00000000
00000000
00000000
,  // measure 4
00000000
00000000
00000000
00000000
,  // measure 5
00000000
00000000
00000000
00000000
,  // measure 6
00000000
00000000
00000000
00000000
,  // measure 7
00000000
00000000
00000000
00000000
,  // measure 8
00000000
00100000
00010000
01000000
,  // measure 9
00010000
00100000
00001000
00010000
,  // measure 10
00001000
00010000
00000100
00001000
,  // measure 11
00000010
00001000
00000100
00010000
,  // measure 12
00001000
00010000
00001000
01000000
,  // measure 13
00100000
00010000
00001000
00000100
,  // measure 14
00000010
00000000
00010000
00001000
00010000
00001000
00010000
00001000
,  // measure 15
00010000
00002000
00020000
00000000
00000000
00000000
00000000
00000000
,  // measure 16
00033000
00010000
01000000
11000000
,  // measure 17
00000000
00000000
10000000
01000000
,  // measure 18
00010000
00001000
00010000
00011000
,  // measure 19
00000000
00000000
00000000
00000000
00022000
00033000
00000000
00010000
,  // measure 20
00001000
00010000
00000010
00000000
00001000
00000000
00000001
00000000
,  // measure 21
00000100
00000000
00000110
00000000
00000010
00000100
00000010
00000000
,  // measure 22
00001001
00000001
00000010
00000100
,  // measure 23
00010000
00001000
00100000
01000000
,  // measure 24
10000000
00000000
00010000
01000000
00010000
01000000
00010000
01000000
,  // measure 25
00000000
00000000
00001000
00010000
,  // measure 26
00000100
00000000
00001000
00000010
00001000
00000010
00001000
00000010
,  // measure 27
00000000
00000000
00000200
00000000
,  // measure 28
00000301
00000000
00000001
00000010
00000001
00000000
00001000
00000100
,  // measure 29
00001000
00001010
00000010
00010000
,  // measure 30
00001000
00100000
00010000
01000000
,  // measure 31
00001000
00000000
00010000
00001000
00010000
00001000
00010000
00001000
,  // measure 32
00010000
00001000
00000100
00000001
,  // measure 33
00000010
00000100
00000110
00000000
,  // measure 34
00001000
00000100
00000110
00000000
,  // measure 35
00000001
00000100
00001000
00010000
,  // measure 36
00011000
00000000
00001000
00010000
,  // measure 37
00100000
10000000
10010000
00000000
,  // measure 38
10000000
01000000
00100000
00010000
,  // measure 39
01000000
00100000
00010000
00001000
,  // measure 40
00011000
00010000
01000000
10000000
,  // measure 41
00100000
01000000
01100000
00000000
,  // measure 42
00010000
01000000
01100000
00000000
,  // measure 43
10000000
01000000
00010000
00001000
,  // measure 44
00011000
00000000
00010000
00001000
,  // measure 45
00000010
00000001
00001001
00000000
,  // measure 46
00000001
00000100
00000010
00001000
,  // measure 47
00000100
00000010
00001000
00010000
,  // measure 48
00011000
00100000
00020000
00000000
,  // measure 49
10030000
01000000
00010000
00001000
,  // measure 50
00000010
00000000
00000001
00000000
00000000
00000100
00000000
00000000
,  // measure 51
00000001
00000000
00001000
00000000
00000000
00000100
00000000
00000000
,  // measure 52
00001000
00000000
00010000
00000000
00000000
00100000
00000000
00000000
,  // measure 53
00010000
00000000
10000000
00000000
00000000
00100000
00000000
00000000
,  // measure 54
10000000
01000000
00010000
00001000
,  // measure 55
00010000
00001000
00000100
00000001
,  // measure 56
00001000
00000000
00002002
00003003
,  // measure 57
00000001
00000010
00000100
00001000
,  // measure 58
00000010
00000000
00010000
00000000
00000000
00022000
00000000
00000000
,  // measure 59
00000000
00000000
00000000
00033000
,  // measure 60
00001000
01000000
00010000
00100000
,  // measure 61
01000000
10000000
00010000
01000000
,  // measure 62
00100000
00000000
00010000
00001000
00010000
00001000
00010000
00001000
,  // measure 63
00010000
00002000
00020000
00000000
00000000
00000000
00000000
00000000
,  // measure 64
00033000
00001000
00000100
00000101
,  // measure 65
00000000
00000000
00000001
00000100
,  // measure 66
00001000
00010000
00001000
00011000
,  // measure 67
00000000
00000000
00000000
00000000
00022000
00033000
00000000
00001000
,  // measure 68
00010000
00001000
00100000
00000000
00010000
00000000
10000000
00000000
,  // measure 69
01000000
00000000
01100000
00000000
00100000
01000000
00100000
00000000
,  // measure 70
10010000
10000000
00100000
01000000
,  // measure 71
00001000
00010000
00000010
00000100
,  // measure 72
00000001
00000000
00001000
00000100
00001000
00000100
00001000
00000100
,  // measure 73
00000000
00000000
00010000
00001000
,  // measure 74
01000000
00000000
00010000
00100000
00010000
00100000
00010000
00100000
,  // measure 75
00000000
00000000
02000000
00000000
,  // measure 76
13000000
00000000
10000000
00100000
10000000
00000000
00010000
01000000
,  // measure 77
00010000
00110000
00100000
00001000
,  // measure 78
00010000
00000010
00001000
00000100
,  // measure 79
00010000
00000000
00001000
00010000
00001000
00010000
00001000
00010000
,  // measure 80
00001000
00100000
02000000
00000000
,  // measure 81
13000000
00100000
00010000
00001000
,  // measure 82
00000020
00000002
00000000
00000000
,  // measure 83
00000000
00000000
00000000
00000033
,  // measure 84
00000001
00000000
00000100
00000000
00000000
00000110
00000000
00000000
,  // measure 85
00000010
00000000
00010000
00000000
00000000
00011000
00000000
00000000
,  // measure 86
00001000
01000000
00100000
10000000
,  // measure 87
01000000
00100000
00010000
01000000
,  // measure 88
00001000
00010000
00022000
00033000
,  // measure 89
00001000
00010000
00100000
00010000
,  // measure 90
00001000
00000010
00001000
00010000
,  // measure 91
01000000
00010000
00001000
00000100
,  // measure 92
00001000
00010000
00100000
10000000
,  // measure 93
01000000
00010000
00001000
00000010
,  // measure 94
00000001
00000000
00000100
00000010
00000100
00000010
00000100
00000010
,  // measure 95
00000100
00000020
00000200
00000000
00000000
00000000
00000000
00000000
,  // measure 96
00000330
00001001
00000100
00011000
,  // measure 97
00000000
00000000
00001000
00010000
,  // measure 98
01000000
10010000
00100000
00011000
,  // measure 99
00000000
00000000
00000000
00000000
00022000
00033000
00000000
00010000
,  // measure 100
00000100
00001000
00000001
00000000
00000011
00000000
00001000
00000000
,  // measure 101
00011000
00000000
00100000
00000000
01000000
10000000
00100000
00000000
,  // measure 102
00010000
00001000
00000100
00000001
,  // measure 103
00000010
00000100
00001000
00000010
,  // measure 104
00000100
00000000
00001000
00010000
00000010
00010000
00001000
00010000
,  // measure 105
00000000
00000000
00000100
00010000
,  // measure 106
00001000
00000000
01000000
00001000
00010000
00001000
00100000
00001000
,  // measure 107
00000000
00000000
00020000
00000000
,  // measure 108
00030100
00000000
00000100
00001000
00000001
00000000
00000010
00000001
,  // measure 109
00001000
00001100
00000100
00010000
,  // measure 110
01000000
10000000
00100000
00010000
,  // measure 111
00001000
00000000
00010000
00001000
00010000
00001000
00010000
00001000
,  // measure 112
00010000
00000000
00000100
00001000
00000100
00000010
00000100
00002000
,  // measure 113
00000000
00000000
00003001
00000100
,  // measure 114
00001000
00000000
01000000
00100000
00010000
00100000
01000000
00200000
,  // measure 115
00000000
00000000
10300000
01000000
,  // measure 116
00010000
00000000
00001000
00000010
00001000
00000010
00000001
00000100
,  // measure 117
00000001
00000100
00001000
00000000
00010000
00000000
00100000
00000000
,  // measure 118
10000000
20020000
00000000
00000000
,  // measure 119
00000000
00000000
00000000
00000000
,  // measure 120
00000000
30030000
00000000
00000000
;
