#TITLE:Verge (feat. Aloe Blacc);
#SUBTITLE:;
#ARTIST:Owl City;
#TITLETRANSLIT:;
#SUBTITLETRANSLIT:;
#ARTISTTRANSLIT:;
#GENRE:POP CHARTS;
#CREDIT:MUINELIM;
#BANNER:Verge (feat. Aloe Blacc).png;
#BACKGROUND:Verge (feat. Aloe Blacc)-bg.png;
#LYRICSPATH:;
#CDTITLE:;
#MUSIC:Verge (feat. Aloe Blacc).ogg;
#OFFSET:0.000000;
#SAMPLESTART:51.550495;
#SAMPLELENGTH:15.000008;
#SELECTABLE:YES;
#DISPLAYBPM:128.000000;
#BPMS:0.000000=128.000000
;
#STOPS:
;
#BGCHANGES:0.000=Verge (feat. Aloe Blacc).avi=1.000=0=0=0=StretchNoLoop====,
99999=-nosongbg-=1.000=0=0=0 // don't automatically add -songbackground-
;
#KEYSOUNDS:;
#ATTACKS:;

//---------------dance-single - ----------------
#NOTES:
     dance-single:
     :
     Beginner:
     2:
     0.106173,0.155200,0.029146,0.014573,0.000000,102.000000,98.000000,4.000000,2.000000,0.000000,0.000000,0.106173,0.155200,0.029146,0.014573,0.000000,102.000000,98.000000,4.000000,2.000000,0.000000,0.000000:
0000
0000
0000
0000
,
0000
0000
0000
0000
,
0000
0000
0000
0000
,
0000
0000
0000
0000
,
0000
0000
1000
0000
,
1000
0000
1000
0000
,
0000
0001
0000
0001
,
0000
0000
0000
0000
,
0000
0100
0000
0100
,
0000
0000
0000
0000
,
0010
0000
0010
0000
,
0010
0000
0000
0000
,
1000
0000
0000
0000
,
0100
0000
0000
0000
,
0001
0000
0000
0000
,
0010
0000
0000
0000
,
1000
0000
0000
0000
,
0100
0000
0000
0000
,
0001
0000
0000
0000
,
0010
0000
0000
0000
,
1000
0000
1000
0000
,
1000
0000
1000
0000
,
0001
0000
0001
0000
,
0001
0000
0001
0000
,
1000
0000
1000
0000
,
0001
0000
0001
0000
,
1000
0000
0001
0000
,
1001
0000
0000
0000
,
1000
0000
0000
0000
,
0010
0000
0000
0000
,
0001
0000
0000
0000
,
0100
0000
0000
0000
,
1000
0000
0000
0000
,
0010
0000
0000
0000
,
0001
0000
0000
0000
,
0100
0000
0000
0000
,
2000
0000
0000
0000
,
3000
0000
0000
0000
,
0002
0000
0000
0000
,
0003
0000
0000
0000
,
1001
0000
0000
0000
,
0000
0000
0000
0000
,
0100
0000
0100
0000
,
0000
0000
0000
0000
,
0010
0000
0010
0000
,
0010
0000
0010
0000
,
1000
0000
1000
0000
,
1000
0000
1000
0000
,
0001
0000
0001
0000
,
0001
0000
0001
0000
,
0100
0000
0100
0000
,
0100
0000
0100
0000
,
0010
0000
1000
0000
,
0001
0000
0100
0000
,
0010
0000
1000
0000
,
0001
0000
1001
0000
,
1000
0000
0100
0000
,
1000
0000
0100
0000
,
0010
0000
0001
0000
,
0010
0000
0010
0000
,
0001
0000
0100
0000
,
0001
0000
0100
0000
,
0010
0000
1000
0000
,
0010
0000
0010
0000
,
1000
0000
1000
0000
,
0100
0000
0100
0000
,
0001
0000
0001
0000
,
0010
0000
0010
0000
,
1000
0000
0000
0000
,
0001
0000
0000
0000
,
1000
0000
0000
0000
,
1001
0000
0000
0000
;

//---------------dance-single - ----------------
#NOTES:
     dance-single:
     :
     Easy:
     4:
     0.164464,0.209848,0.051005,0.058291,0.000000,158.000000,151.000000,7.000000,8.000000,0.000000,0.000000,0.164464,0.209848,0.051005,0.058291,0.000000,158.000000,151.000000,7.000000,8.000000,0.000000,0.000000:
0000
0000
0000
0000
,
0000
0000
0000
0000
,
0000
0000
0000
0000
,
0000
0000
0000
0000
,
0000
1000
1000
0000
,
1000
0000
1000
0000
,
0000
0001
0001
0000
,
0001
0000
0000
0000
,
0000
0100
0100
0000
,
0100
0000
0000
0010
,
0010
0000
0010
0000
,
0010
0000
0000
0000
,
1000
0000
0100
0000
,
1000
0000
0100
0000
,
0010
0000
0001
0000
,
0010
0000
0001
0000
,
1001
0000
0000
0000
,
1001
0000
0000
0000
,
1000
0000
0001
0000
,
0100
0000
0010
0000
,
1000
0000
1000
0000
,
0100
0000
0100
0000
,
0001
0000
0001
0000
,
0010
0000
0010
0000
,
1000
0000
0100
0000
,
0001
0000
0010
0000
,
1000
0000
0001
0000
,
2002
0000
3003
0000
,
1000
1000
1000
0000
,
0001
0001
0001
0000
,
1000
1000
1000
0000
,
0001
0001
0001
0000
,
0100
0100
0100
0000
,
0010
0010
0010
0000
,
0100
0100
0100
0000
,
0010
0010
0010
0000
,
0110
0000
0000
0000
,
0000
0000
0000
0000
,
1000
0000
1000
0000
,
0001
0000
0001
0000
,
1001
0000
1000
0000
,
0010
0000
0001
0000
,
0100
0000
1000
0000
,
0010
0000
0100
0000
,
0010
0010
1000
0000
,
0100
0100
0001
0000
,
0010
0010
0001
0000
,
0100
0100
1000
0000
,
0010
0010
1000
0000
,
0001
0001
0100
0000
,
0010
0010
0001
0000
,
1000
1000
0100
0000
,
0010
0010
1000
0000
,
0010
0010
0001
0000
,
0100
0100
1000
0000
,
0100
0100
2002
3003
,
1000
0100
1000
0000
,
0001
0010
0001
0000
,
1000
0010
1000
0000
,
0001
0100
0001
0000
,
0010
0100
1000
0000
,
0001
0010
0100
0000
,
1000
0001
0010
0000
,
0001
1000
0100
0000
,
1000
0000
0010
0000
,
0001
0000
0100
0000
,
1000
0000
0010
0000
,
0001
0000
0100
0000
,
2002
0000
0000
0000
,
0000
0000
3003
0000
,
0020
0000
0000
0000
,
0200
0000
0000
0000
,
0330
0000
0000
0000
;

//---------------dance-single - ----------------
#NOTES:
     dance-single:
     :
     Medium:
     7:
     0.289374,0.367234,0.196733,0.189446,0.000000,278.000000,251.000000,27.000000,26.000000,0.000000,0.000000,0.289374,0.367234,0.196733,0.189446,0.000000,278.000000,251.000000,27.000000,26.000000,0.000000,0.000000:
0000
0000
0000
0000
,
0000
0000
0000
0000
,
0000
0000
0000
0000
,
0000
0000
0000
0000
,
0000
1000
0010
0100
,
0001
0022
0000
0000
,
0033
0010
0100
1000
,
2200
0000
0000
0000
,
3300
1000
0010
0100
,
0202
0000
0303
0001
,
0010
0100
1000
0010
,
2020
3030
1000
0001
,
0100
0100
0001
1000
,
0010
0010
1000
0001
,
0010
0010
0001
1000
,
0100
0000
0100
0000
1000
0010
0100
0000
,
0220
0000
0330
0000
0001
0010
0100
0000
,
0220
0000
0330
0000
1000
0010
0100
0000
,
0001
0001
1000
1000
,
0001
0100
0010
1000
,
1001
0000
0000
0001
0100
0000
0000
0100
,
0010
0000
0000
0010
1000
0000
0000
1000
,
0001
0000
0000
0001
0010
0000
0000
0010
,
0100
0000
0000
0100
1000
0000
0000
1000
,
0010
0000
0000
0010
0100
0000
0000
0100
,
0001
0000
0000
0001
1000
0000
0000
1000
,
0100
0010
0001
1000
,
2002
0000
0000
3003
,
0001
0100
1000
0100
,
0001
0011
0100
0100
,
1000
0010
0001
0010
,
1000
1100
0010
0010
,
0001
0100
1000
0001
,
0010
1010
0100
0100
,
1000
0010
0001
1000
,
0100
0101
0010
0010
,
2002
0000
0000
0000
,
0000
0000
0000
3003
,
1000
0000
0010
0000
,
0001
0000
0100
0000
,
1000
1000
0010
0010
,
0100
0100
0001
0001
,
1000
0100
0010
0001
,
0100
0010
1000
0001
,
0010
0000
0100
1000
0100
0000
1000
0000
,
0100
0000
0010
0001
0010
0000
0001
0000
,
1000
1010
0101
2002
,
3003
0000
1100
0000
0011
0000
0001
1000
,
0001
0000
0100
0000
0010
0000
1000
0100
,
1000
0000
0010
0000
0100
0000
0001
0010
,
0001
1000
1010
0001
,
0011
1000
1100
0001
,
0101
0000
1000
0100
0010
0000
0100
0000
,
0010
0000
0001
0010
0100
0000
0010
0000
,
0100
0000
1000
0001
0100
0000
0010
0000
,
0100
0000
0001
1000
2002
0000
3003
0000
,
0001
0100
1000
0100
,
0001
0010
0100
0000
0010
0000
0110
0000
,
1000
0010
0001
0010
,
1000
0100
0010
0000
0100
0000
0110
0000
,
0001
0010
1000
0001
,
0100
1000
0010
0000
0100
0000
0110
0000
,
1000
0100
0001
1000
,
0010
0001
0100
0000
0010
0000
0110
0000
,
0000
1000
0100
1000
0000
0001
0010
0001
,
0000
0100
0100
0000
0020
0000
0130
0000
,
0000
0100
0001
0100
0000
0010
1000
0010
,
0000
0100
0100
0000
0020
0000
0130
0000
,
0002
0000
0000
0000
,
2003
0000
0000
0000
,
3020
0000
0000
0000
,
0200
0000
0000
0000
,
0330
0000
0000
0000
;

//---------------dance-single - ----------------
#NOTES:
     dance-single:
     :
     Hard:
     11:
     0.445511,0.472159,0.386179,0.204019,0.072864,428.000000,375.000000,53.000000,28.000000,0.000000,0.000000,0.445511,0.472159,0.386179,0.204019,0.072864,428.000000,375.000000,53.000000,28.000000,0.000000,0.000000:
0000
0000
0000
0000
,
0000
0000
0000
0000
,
0000
0000
0000
0000
,
0000
0000
0000
0000
,
0000
0000
0000
0000
1000
0000
0001
0000
1000
0000
0000
0000
0010
0000
0000
0110
,
0000
2002
0000
0000
,
3003
0000
0001
0100
0010
1000
0100
0010
,
0220
0000
0000
0000
,
0330
0000
0000
0000
1000
0000
0010
0000
0100
0000
0000
0110
0000
0000
2002
0000
,
0000
0000
0000
3003
0000
0001
0010
0100
,
1000
0000
0000
1010
0000
0000
0010
0000
0100
0000
0000
0101
0000
0000
0022
0000
,
0000
0000
0000
0000
0033
0000
0000
0000
0001
0000
0000
0100
0000
0000
0010
0000
,
1000
1000
1000
1000
,
0100
0100
0100
0100
,
0001
0001
0010
0010
,
1000
0000
1001
0000
0001
0010
0100
1000
,
0010
0000
0110
0000
1000
0100
0010
0001
,
0100
0000
0110
0000
0001
0100
0010
1000
,
0000
0010
0100
0001
0000
0100
0010
1000
,
1010
0000
0000
0101
0000
0000
0001
0000
0010
0000
0100
0000
2000
0000
0000
0000
,
3001
0000
0000
0100
0000
0000
0001
0000
0010
0000
0000
0100
0000
0000
0010
0000
,
0001
0000
0000
0100
0000
0000
0001
0000
1000
0000
0000
0010
0000
0000
1000
0000
,
0100
0000
0000
0010
0000
0000
0100
0000
1000
0000
0000
0010
0000
0000
1000
0000
,
0001
0000
0000
0010
0000
0000
0001
0000
1000
0000
0000
0100
0000
0000
1000
0000
,
0010
0000
0000
0100
0000
0000
0110
0000
0010
0000
0000
1000
0000
0000
1100
0000
,
0100
0000
0000
0010
0000
0000
0011
0000
0001
0000
0000
0100
0000
0000
0110
0000
,
0010
1000
0001
0100
0010
1000
0001
0100
,
0220
0000
0330
0000
0001
0010
0100
1000
,
0000
1000
0010
0100
0000
1000
0100
0010
,
0000
0100
0101
0000
1000
0100
0010
0001
,
0000
0001
0100
0010
0000
0001
0010
0100
,
0000
0010
1010
0000
0001
0100
0010
1000
,
0000
1000
0100
0001
0000
0100
1000
0001
,
0000
0010
0011
0000
1000
0010
0100
0001
,
0000
0001
0010
1000
0000
0010
0001
1000
,
0100
0010
0001
1000
0100
0010
0001
1000
,
0020
0100
0001
1030
,
0200
0010
1000
0301
,
0020
0001
0100
1030
,
0200
1000
0010
0301
,
0011
0100
0110
1000
,
1100
0010
0110
0001
,
0101
1000
1001
0010
,
1010
0100
0110
0001
,
1001
0000
1000
0010
0100
0000
0001
0010
,
0100
0000
1000
0010
0100
0000
0001
0010
,
0100
1100
1010
0011
,
0101
0000
0000
0000
0100
0000
0010
0000
1000
0000
0000
0001
0000
0000
0010
0000
,
0110
0000
0001
0010
0100
0000
1000
0010
,
0100
0000
0001
0010
0100
0000
1000
0010
,
0100
0101
0011
1010
,
1100
1010
0011
0101
,
0110
0000
0001
0010
0100
0001
0100
1000
,
0010
0000
1000
0100
0010
1000
0010
0001
,
0100
0000
1000
0100
0001
1000
0010
0001
,
0010
1000
0001
0100
2002
0000
3003
0000
,
1000
0010
0100
0010
1000
0100
0001
0100
,
1000
0010
0001
0010
1000
0100
0110
0000
,
0001
0010
0100
0010
0001
0100
1000
0100
,
0001
0010
1000
0010
0001
0100
0110
0000
,
1000
0010
0100
1000
0100
0001
0010
0100
,
0001
0100
1000
0010
0100
0001
1001
0000
,
0001
0100
0010
0001
0010
1000
0100
0010
,
1000
0010
0001
0100
0010
1000
1001
0000
,
0001
0010
0100
2000
0000
3010
0100
0002
,
0000
0013
0110
0000
1000
0100
0010
0002
,
0000
0103
0010
2000
0000
3100
0010
0001
,
0100
0000
0000
0110
0000
0000
1010
0000
1001
0000
0001
0000
0010
0000
0200
0000
,
0000
1300
0010
0200
0000
1300
0100
0020
,
0000
1030
1001
0000
1000
0010
0100
0002
,
0000
0013
0100
0002
0000
0103
2000
0002
,
0000
0000
0000
0000
,
3003
0000
0000
0000
;

//---------------dance-single - ----------------
#NOTES:
     dance-single:
     :
     Challenge:
     13:
     0.526703,0.655776,0.597485,0.225878,0.291456,506.000000,424.000000,82.000000,31.000000,0.000000,0.000000,0.526703,0.655776,0.597485,0.225878,0.291456,506.000000,424.000000,82.000000,31.000000,0.000000,0.000000:
0000
0000
0000
0000
,
0000
0000
0000
0000
,
0000
0000
0000
0000
,
0000
0000
0000
0000
,
0000
0000
0000
0000
1000
0000
0100
0000
0010
0000
0000
0001
0100
0000
0010
0100
,
0000
0202
0000
0000
,
0303
0000
0000
0000
0001
0000
0010
0100
0000
0010
0000
0100
0000
1000
0000
2020
,
0000
0000
0000
0000
,
3030
0000
0000
0000
1000
0000
0001
0000
0100
0000
0000
0110
0000
0000
2002
0000
,
0000
0000
0000
3003
0000
0001
1000
0010
,
0100
0000
0000
0101
0000
0000
0001
0000
0010
0000
0000
0110
0000
0000
2200
0000
,
0000
0000
0000
0000
3300
0000
0000
0000
1010
0000
0000
0110
0000
0000
0101
0000
,
0012
0010
0010
0013
,
2010
0010
0010
3010
,
1200
1000
1000
1300
,
0201
0000
0301
0000
0001
0010
0100
1000
,
1020
0000
1030
0000
1000
0100
0010
0001
,
0102
0000
0103
0000
0001
0100
0010
1000
,
0000
1000
0100
0010
0000
0010
0001
1000
,
0010
0000
0000
0110
0000
0000
0100
0000
1001
0000
0001
1000
0020
0000
0000
0000
,
1030
0000
0000
1000
0000
0000
1000
0000
0100
0000
0000
0100
0000
0000
0100
0000
,
0001
0000
0000
0001
0000
0000
0001
0000
0010
0000
0000
0010
0000
0000
0010
0000
,
0001
0000
0000
0001
0000
0000
0001
0000
0100
0000
0000
0100
0000
0000
0100
0000
,
1000
0000
0000
1000
0000
0000
1000
0000
0010
0000
0000
0010
0000
0000
0010
0000
,
0110
0000
0000
0101
0000
0000
0011
0000
0010
0000
0000
0110
0000
0000
1100
0000
,
1000
0000
0000
1010
0000
0000
1001
0000
0001
0000
0000
0011
0000
0000
0101
0000
,
0100
0010
0100
0000
0001
1000
0001
0000
0100
0010
0100
0010
0100
0010
0100
0010
,
0200
0000
0000
0000
0301
0010
0100
1000
,
0010
0000
0000
0100
0001
0000
0010
0000
0011
0000
0000
0100
1000
0000
0010
0000
,
1010
0000
0000
0100
0001
0000
0010
0000
0011
0000
1000
0000
0010
0000
0100
0000
,
0001
0000
0000
0010
0100
0000
1000
0000
1010
0000
0000
0100
0001
0000
0010
0000
,
0110
0000
0000
1000
0010
0000
0100
0000
0101
0000
0010
0000
1000
0000
0100
0000
,
0010
0000
0000
0001
0100
0000
0010
0000
1010
0000
0000
0100
0010
0000
0001
0000
,
0101
0000
0000
0010
1000
0000
0001
0000
0011
0000
0100
0000
1000
0000
0010
0000
,
0100
0000
0000
0001
0010
0000
0001
0000
0101
0000
0000
1000
0010
0000
1000
0000
,
1100
0000
0000
0001
0100
0000
0001
0000
0011
0000
0000
1000
0100
0000
1000
0000
,
2010
0000
0000
0010
0000
0000
0010
0000
0000
0010
0000
0000
0010
0000
0000
0001
,
0000
0000
0001
0000
0000
0010
0000
0000
0100
0000
0000
0010
0000
0000
3001
0000
,
0102
0000
0000
0100
0000
0000
0100
0000
0000
0100
0000
0000
0100
0000
0000
1000
,
0000
0000
1000
0000
0000
0100
0000
0000
0010
0000
0000
0100
0000
0000
1003
0000
,
1100
1100
1010
1010
,
0011
0011
0101
0101
,
1010
1100
0101
0011
,
0101
1100
1010
0110
,
1001
0000
1000
0100
0001
0000
0001
0100
,
1000
0000
0000
0000
0001
0000
0010
0000
1000
0000
0000
0001
0000
0000
0100
0000
,
0110
0000
0000
0010
0001
0000
0000
0100
0010
0000
0000
1000
0100
0000
0000
0000
,
1001
0000
0000
0000
1000
0000
0010
0000
0001
0000
0000
1000
0000
0000
0100
0000
,
0110
0000
0001
0010
1000
0000
1000
0010
,
0001
0000
0000
0000
0001
0000
0010
0000
1000
0000
0000
0001
0000
0000
0100
0000
,
1100
0000
0000
0000
1000
0000
0010
0000
0001
0000
0000
0010
0100
0000
0001
0000
,
0010
0000
0000
0100
0010
0000
0100
0000
1000
0000
0010
0000
0110
0000
0000
1001
,
0000
0000
0000
0000
0001
0000
0100
0000
1000
0000
0100
0010
0100
0000
0002
0000
,
0000
0000
0000
0000
1003
0000
0010
0000
0001
0000
0010
0100
0010
0000
2000
0000
,
0000
0000
0000
0000
3001
0000
0100
0000
1000
0000
0100
0010
0100
0000
0002
0000
,
0000
0013
0100
1000
2002
0000
3003
0000
,
0001
0000
0100
0010
0100
0000
0010
0000
1000
0000
0100
0010
0100
0000
0010
0000
,
0001
0000
0100
0010
0100
0000
0001
0000
0010
0000
1000
0000
0001
0000
0100
0000
,
0010
0100
0010
0000
0100
0000
1000
0000
0010
0100
0010
0000
0100
0000
0001
0000
,
0011
0000
0000
1010
0000
0000
1100
0000
0100
0000
0010
0000
0110
0000
0000
0000
,
0100
0000
1000
0010
1000
0000
0100
0000
0010
0000
0001
0100
0001
0000
0010
0000
,
0100
0000
1000
0010
0100
0000
0001
0000
0010
0000
1000
0000
0001
0000
0100
0000
,
1000
0100
1000
0000
0010
0000
0100
0000
0001
0010
0001
0000
0100
0000
0010
0000
,
1010
0000
0000
1100
0000
0000
0101
0000
0001
0000
0010
0100
0020
0000
0000
0000
,
0031
1000
1000
1010
0000
0001
0001
0011
,
0000
1000
1001
0000
0010
0100
0100
0101
,
0000
0010
0010
1010
0000
0100
0100
1100
,
0101
0000
0000
0011
0000
0000
1010
0000
1000
0000
0100
0000
0010
0000
0002
0000
,
0000
0103
1000
0002
0000
0013
1000
0002
,
0000
0013
0110
0000
0001
0010
0100
2000
,
0000
3010
0001
2000
0000
3100
0002
2000
,
0000
0000
0000
0000
,
3003
0000
0000
0000
;

//---------------dance-double - ----------------
#NOTES:
     dance-double:
     :
     Challenge:
     13:
     0.515252,0.603314,0.546480,0.204019,0.309672,495.000000,420.000000,75.000000,28.000000,0.000000,0.000000,0.515252,0.603314,0.546480,0.204019,0.309672,495.000000,420.000000,75.000000,28.000000,0.000000,0.000000:
// measure 0
00000000
00000000
00000000
00000000
,  // measure 1
00000000
00000000
00000000
00000000
,  // measure 2
00000000
00000000
00000000
00000000
,  // measure 3
00000000
00000000
00000000
00000000
,  // measure 4
00000000
00000000
00000000
00000000
00001000
00000000
00010000
00000000
00100000
00000000
00000000
10000000
01000000
00000000
00100000
01000000
,  // measure 5
00000000
20020000
00000000
00000000
,  // measure 6
30030000
00000000
00000000
00000000
00010000
00000000
01000000
00001000
00000000
00010000
00000000
00000100
00000000
00001000
00000000
00002002
,  // measure 7
00000000
00000000
00000000
00000000
,  // measure 8
00003003
00000000
00000000
00000000
00000001
00000000
00000100
00000000
00001000
00000000
00000000
00010000
00000000
00000000
00022000
00000000
,  // measure 9
00000000
00000000
00000000
00033000
00000000
00001000
00010000
00100000
,  // measure 10
10000000
00000000
00000000
11000000
00000000
00000000
01000000
00000000
00010000
00000000
00000000
00001000
00000000
00000000
00022000
00000000
,  // measure 11
00000000
00000000
00000000
00000000
00033000
00000000
00000000
00000000
01001000
00000000
00000000
00011000
00000000
00000000
00010100
00000000
,  // measure 12
00002100
00000001
00000100
00003001
,  // measure 13
00020100
00000010
00000100
00030010
,  // measure 14
01002000
00100000
01000000
00103000
,  // measure 15
01020000
00000000
10030000
00000000
10000000
00100000
00010000
00001000
,  // measure 16
00011000
00000000
00001100
00000000
00000001
00000010
00001000
00010000
,  // measure 17
00011000
00000000
00110000
00000000
10000000
01000000
00100000
00010000
,  // measure 18
00000000
00010000
00100000
00001000
00000000
00001000
00010000
00000010
,  // measure 19
00001000
00000000
00000000
00001100
00000000
00000000
00000010
00000000
00000011
00000000
00000001
00000000
00000200
00000000
00000000
00000000
,  // measure 20
00000310
00000000
00000000
00000010
00000000
00000000
00000010
00000000
00001000
00000000
00000000
00001000
00000000
00000000
00001000
00000000
,  // measure 21
00000100
00000000
00000000
00000100
00000000
00000000
00000100
00000000
00010000
00000000
00000000
00010000
00000000
00000000
00010000
00000000
,  // measure 22
01000000
00000000
00000000
01000000
00000000
00000000
01000000
00000000
00100000
00000000
00000000
00100000
00000000
00000000
00100000
00000000
,  // measure 23
00001000
00000000
00000000
00001000
00000000
00000000
00001000
00000000
00010000
00000000
00000000
00010000
00000000
00000000
00010000
00000000
,  // measure 24
00100000
00000000
00000000
10100000
00000000
00000000
11000000
00000000
01000000
00000000
00000000
01010000
00000000
00000000
00011000
00000000
,  // measure 25
00001000
00000000
00000000
00001010
00000000
00000000
00000011
00000000
00000001
00000000
00000000
00000101
00000000
00000000
00001100
00000000
,  // measure 26
00001000
00000000
00010000
00000000
01000000
00000000
10000000
00000000
00100000
01000000
00100000
01000000
00100000
01000000
00100000
02000000
,  // measure 27
00200000
00000000
03300000
00000000
10000000
01000000
00100000
00010000
,  // measure 28
01000000
00000000
00000000
01000000
00001000
00000000
00000000
00001000
00010000
00000000
00000000
00010000
00000100
00000000
00000000
00000100
,  // measure 29
00001000
00000000
00000000
00001000
00000001
00000000
00000100
00000000
00000110
00000000
00000010
00000000
00001000
00000000
00000100
00000000
,  // measure 30
00000010
00000000
00000000
00000010
00000001
00000000
00000000
00000001
00000100
00000000
00000000
00000100
00000010
00000000
00000000
00000010
,  // measure 31
00010000
00000000
00000000
00010000
00001000
00000000
00100000
00000000
00110000
00000000
00010000
00000000
01000000
00000000
00100000
00000000
,  // measure 32
10000000
00000000
00000000
10000000
01000000
00000000
00000000
01000000
00010000
00000000
00000000
00010000
00001000
00000000
00000000
00001000
,  // measure 33
00000100
00000000
00000000
00000100
00000001
00000000
00001000
00000000
00001010
00000000
00000010
00000000
00010000
00000000
00001000
00000000
,  // measure 34
00100000
00000000
00000000
00100000
01000000
00000000
00000000
01000000
10000000
00000000
00000000
10000000
00100000
00000000
00000000
00100000
,  // measure 35
00010000
00000000
00000000
00010000
00001000
00000000
00000000
00001000
00000010
00000000
00000000
00000010
00000100
00000000
00000010
00000000
,  // measure 36
00000012
00000000
00000000
00000103
00000000
00000000
00001000
00000000
00000000
00010000
00000000
00000000
00001000
00000000
00000000
00000010
,  // measure 37
00000000
00000000
00001000
00000000
00000000
00010000
00000000
00000000
01000000
00000000
00000000
10000000
00000000
00000000
00100000
00000000
,  // measure 38
20100000
00000000
00000000
31000000
00000000
00000000
00010000
00000000
00000000
00001000
00000000
00000000
00010000
00000000
00000000
00100000
,  // measure 39
00000000
00000000
00010000
00000000
00000000
00001000
00000000
00000000
00000010
00000000
00000000
00000001
00000000
00000000
00000100
00000000
,  // measure 40
00000110
00000110
00010010
00010010
,  // measure 41
00011000
00011000
01001000
01001000
,  // measure 42
01100000
01100000
10100000
11000000
,  // measure 43
01010000
00011000
00001010
00000011
,  // measure 44
00000101
00000000
00000100
00001000
00010000
00000000
00001000
00010000
,  // measure 45
00100000
00000000
00000000
00000000
00010000
00000000
00100000
00000000
10000000
00000000
00000000
01000000
00000000
00000000
00100000
00000000
,  // measure 46
00110000
00000000
00000000
00010000
01000000
00000000
00000000
00001000
00010000
00000000
00000000
00000010
00001000
00000000
00000000
00000000
,  // measure 47
00001100
00000000
00000000
00000000
00000100
00000000
00000010
00000000
00000001
00000000
00000000
00000100
00000000
00000000
00001000
00000000
,  // measure 48
00011000
00000000
01000000
00010000
00001000
00000000
00010000
00001000
,  // measure 49
00000010
00000000
00000000
00000000
00001000
00000000
00000010
00000000
00000001
00000000
00000000
00000100
00000000
00000000
00000010
00000000
,  // measure 50
00001010
00000000
00000000
00000000
00001000
00000000
00000100
00000000
00000010
00000000
00000000
00001000
00010000
00000000
01000000
00000000
,  // measure 51
00010000
00000000
00000000
00010000
00001000
00000000
00000100
00000000
00001000
00000000
00010000
00000000
00100000
00000000
00000000
10100000
,  // measure 52
00000000
00000000
00000000
00000000
10000000
00000000
01000000
00000000
00100000
00000000
00001000
00010000
00001000
00000000
00000020
00000000
,  // measure 53
00000000
00000000
00000000
00000000
00000031
00000000
00000100
00000000
00000010
00000000
00010000
00001000
00010000
00000000
00200000
00000000
,  // measure 54
00000000
00000000
00000000
00000000
10300000
00000000
01000000
00000000
00100000
00000000
00001000
00010000
00001000
00000000
00000200
00000000
,  // measure 55
00000000
00000301
00000010
00001000
00022000
00000000
00033000
00000000
,  // measure 56
00010000
00000000
01000000
00100000
01000000
00000000
10000000
00000000
00100000
00000000
00010000
00001000
00010000
00000000
00100000
00000000
,  // measure 57
10000000
00000000
01000000
00100000
01000000
00000000
10000000
00000000
00100000
00000000
00010000
00000000
00001000
00000000
00000100
00000000
,  // measure 58
00000001
00000010
00000001
00000000
00000100
00000000
00001000
00000000
00010000
00001000
00010000
00000000
00100000
00000000
10000000
00000000
,  // measure 59
11000000
00000000
00000000
01010000
00000000
00000000
00010000
00000000
00001000
00000000
00010000
00000000
00011000
00000000
00000000
00000000
,  // measure 60
00001000
00000000
00000100
00000010
00000100
00000000
00000001
00000000
00000010
00000000
00001000
00010000
00001000
00000000
00000010
00000000
,  // measure 61
00000001
00000000
00000100
00000010
00000100
00000000
00000001
00000000
00000010
00000000
00001000
00000000
00010000
00000000
01000000
00000000
,  // measure 62
10000000
00100000
10000000
00000000
01000000
00000000
00010000
00000000
00001000
00010000
00001000
00000000
00000010
00000000
00000001
00000000
,  // measure 63
00000101
00000000
00000000
00001100
00000000
00000000
00001000
00000000
00010000
00000000
00001000
00000000
00011000
00000000
00000000
00000000
,  // measure 64
00010000
00100000
10000000
12000000
00000000
13000000
01000000
01020000
,  // measure 65
00000000
00031000
00011000
00000000
00010000
00001000
00000100
00000102
,  // measure 66
00000000
00000103
00000001
00000021
00000000
00000031
00000010
00001000
,  // measure 67
00011000
00000000
00000000
00010010
00000000
00000000
00101000
00000000
00100000
00000000
01000000
00000000
10000000
00000000
10100000
00000000
,  // measure 68
00000000
00100000
00010000
00011000
00000000
00001000
00000100
00000101
,  // measure 69
00000000
00000001
00001001
00000000
00001000
00000010
00010000
00011000
,  // measure 70
00000000
01000000
00001000
00011000
00000000
00000100
00010000
00022000
,  // measure 71
00000000
00000000
00000000
00000000
,  // measure 72
00033000
00000000
00000000
00000000
;

//---------------dance-double - ----------------
#NOTES:
     dance-double:
     :
     Hard:
     11:
     0.430938,0.445928,0.349747,0.204019,0.156658,414.000000,366.000000,48.000000,28.000000,0.000000,0.000000,0.430938,0.445928,0.349747,0.204019,0.156658,414.000000,366.000000,48.000000,28.000000,0.000000,0.000000:
// measure 0
00000000
00000000
00000000
00000000
,  // measure 1
00000000
00000000
00000000
00000000
,  // measure 2
00000000
00000000
00000000
00000000
,  // measure 3
00000000
00000000
00000000
00000000
,  // measure 4
00000000
00000000
00000000
00000000
00001000
00000000
00010000
00000000
00001000
00000000
00000000
00000000
01000000
00000000
00000000
00001000
,  // measure 5
00000000
00022000
00000000
00000000
,  // measure 6
00033000
00000000
00001000
00010000
00000010
00001000
00000010
00010000
,  // measure 7
00022000
00000000
00000000
00000000
,  // measure 8
00033000
00000000
00000000
00000000
00001000
00000000
00100000
00000000
00001000
00000000
00000000
00010000
00000000
00000000
00022000
00000000
,  // measure 9
00000000
00000000
00000000
00033000
00000000
00001000
00010000
00000100
,  // measure 10
00010000
00000000
00000000
00011000
00000000
00000000
00001000
00000000
01000000
00000000
00000000
00001000
00000000
00000000
00022000
00000000
,  // measure 11
00000000
00000000
00000000
00000000
00033000
00000000
00000000
00000000
00010000
00000000
00000000
01000000
00000000
00000000
10000000
00000000
,  // measure 12
10100000
00100000
00100000
00100000
,  // measure 13
00110000
00010000
00010000
00010000
,  // measure 14
00011000
00001000
00001100
00000100
,  // measure 15
00000101
00000000
00000001
00000000
00000010
00000100
00001000
00000100
,  // measure 16
00010000
00000000
00011000
00000000
00001000
00100000
00010000
00100000
,  // measure 17
01000000
00000000
01100000
00000000
10000000
00100000
00010000
00001000
,  // measure 18
00000000
00010000
00001000
00000100
00000000
00001000
00000100
00000001
,  // measure 19
00000010
00000000
00000000
00000100
00000000
00000000
00000010
00000000
00001000
00000000
00010000
00000000
02000000
00000000
00000000
00000000
,  // measure 20
13000000
00000000
00000000
10000000
00000000
00000000
10000000
00000000
00100000
00000000
00000000
00100000
00000000
00000000
00100000
00000000
,  // measure 21
01000000
00000000
00000000
01000000
00000000
00000000
01000000
00000000
00001000
00000000
00000000
00001000
00000000
00000000
00001000
00000000
,  // measure 22
00010000
00000000
00000000
00010000
00000000
00000000
00010000
00000000
00000100
00000000
00000000
00000100
00000000
00000000
00000100
00000000
,  // measure 23
00000010
00000000
00000000
00000010
00000000
00000000
00000010
00000000
00000001
00000000
00000000
00000001
00000000
00000000
00000001
00000000
,  // measure 24
00000100
00000000
00000000
00001000
00000000
00000000
00010000
00000000
00001000
00000000
00000000
00010000
00000000
00000000
01000000
00000000
,  // measure 25
10000000
00000000
00000000
00100000
00000000
00000000
00010000
00000000
00001000
00000000
00000000
00010000
00000000
00000000
00001000
00000000
,  // measure 26
00000100
00000001
00000010
00000100
00001000
00000100
00010000
00001000
,  // measure 27
00022000
00000000
00033000
00000000
00010000
00001000
00000100
00000010
,  // measure 28
00000110
00000000
00000000
00000100
00000000
00000000
00000001
00000000
00000000
00000010
00000000
00000000
00000100
00000000
00000000
00010000
,  // measure 29
00000000
00000000
00001000
00000000
00000000
00100000
00000000
00000000
00010000
00000000
00000000
01000000
00000000
00000000
00100000
00000000
,  // measure 30
01100000
00000000
00000000
01000000
00000000
00000000
00010000
00000000
00000000
00100000
00000000
00000000
01000000
00000000
00000000
10000000
,  // measure 31
00000000
00000000
00100000
00000000
00000000
00010000
00000000
00000000
00001000
00000000
00000000
00000100
00000000
00000000
00000001
00000000
,  // measure 32
00001001
00000000
00000000
00001000
00000000
00000000
00000010
00000000
00000000
00010000
00000000
00000000
00001000
00000000
00000000
00100000
,  // measure 33
00000000
00000000
01000000
00000000
00000000
10000000
00000000
00000000
00100000
00000000
00000000
01000000
00000000
00000000
00010000
00000000
,  // measure 34
10010000
00000000
00000000
10000000
00000000
00000000
01000000
00000000
00000000
00010000
00000000
00000000
00001000
00000000
00000000
00000100
,  // measure 35
00000000
00000000
00000001
00000000
00000000
00000010
00000000
00000000
00000100
00000000
00000000
00001000
00000000
00000000
00000010
00000000
,  // measure 36
00000210
00000001
00001000
00000310
,  // measure 37
00020010
00000100
00001000
00030010
,  // measure 38
01002000
00100000
00010000
01003000
,  // measure 39
02100000
00010000
10000000
03100000
,  // measure 40
01100000
10000000
10010000
00100000
,  // measure 41
00101000
00010000
00010010
00001000
,  // measure 42
00001001
00000100
00000110
00000001
,  // measure 43
00000101
00001000
00011000
01000000
,  // measure 44
11000000
00000000
10000000
00100000
00010000
00000000
00001000
00000100
,  // measure 45
00000001
00000000
00000001
00000010
00001000
00000000
00010000
01000000
,  // measure 46
10000000
10100000
01100000
01001000
,  // measure 47
00011000
00000000
00000000
00000000
00010000
00000000
00000100
00000000
00001000
00000000
00000000
00000001
00000000
00000000
00000100
00000000
,  // measure 48
00000110
00000000
00000001
00000100
00001000
00000000
00010000
00100000
,  // measure 49
10000000
00000000
10000000
01000000
00010000
00000000
00001000
00000010
,  // measure 50
00000001
00000101
00000110
00010010
,  // measure 51
00011000
00101000
01100000
11000000
,  // measure 52
10010000
00000000
00000000
00000000
00010000
00000000
01000000
00000000
00100000
00000000
00000000
10000000
00000000
00000000
01000000
00000000
,  // measure 53
00010000
00000000
00000000
00000000
00001000
00000000
00000100
00000000
00000001
00000000
00000000
00001000
00000000
00000000
00000010
00000000
,  // measure 54
00000100
00000000
00000000
00000000
00000001
00000000
00000010
00000000
00001000
00000000
00000000
00010000
00000000
00000000
01000000
00000000
,  // measure 55
10000000
00100000
00010000
00001000
00022000
00000000
00033000
00000000
,  // measure 56
00010000
00000100
00001000
00000100
00010000
00001000
00000100
00000010
,  // measure 57
00001000
00000100
00000010
00000001
00000100
00001000
00010000
00000000
,  // measure 58
00001000
01000000
00010000
01000000
00001000
00010000
01000000
00100000
,  // measure 59
00010000
01000000
00100000
10000000
01000000
00010000
00001000
00000000
,  // measure 60
00100000
00010000
01000000
10000000
01000000
00010000
00100000
01000000
,  // measure 61
00010000
00001000
00000010
00000001
00000100
00000010
00001000
00000000
,  // measure 62
00000010
00001000
00000100
00000001
00000100
00001000
00000010
00000100
,  // measure 63
00001000
00010000
00100000
10000000
01000000
00100000
00010000
00000000
,  // measure 64
10000000
00100000
01000000
00020000
00000000
00031000
00000010
00000200
,  // measure 65
00000000
00000301
00001001
00000000
00000001
00000010
00000100
00002000
,  // measure 66
00000000
00013000
00100000
02000000
00000000
13000000
00010000
00100000
,  // measure 67
01000000
00000000
00000000
00010000
00000000
00000000
00001000
00000000
00011000
00000000
00010000
00000000
00000100
00000000
00002000
00000000
,  // measure 68
00000000
00003010
00010000
00002000
00000000
00103000
00010000
02000000
,  // measure 69
00000000
03001000
00011000
00000000
00010000
00100000
01000000
00002000
,  // measure 70
00000000
00013000
00000010
00000200
00000000
00001300
00010000
00022000
,  // measure 71
00000000
00000000
00000000
00000000
,  // measure 72
00033000
00000000
00000000
00000000
;

//---------------dance-double - ----------------
#NOTES:
     dance-double:
     :
     Easy:
     4:
     0.164464,0.209848,0.051005,0.058291,0.000000,158.000000,151.000000,7.000000,8.000000,0.000000,0.000000,0.164464,0.209848,0.051005,0.058291,0.000000,158.000000,151.000000,7.000000,8.000000,0.000000,0.000000:
// measure 0
00000000
00000000
00000000
00000000
,  // measure 1
00000000
00000000
00000000
00000000
,  // measure 2
00000000
00000000
00000000
00000000
,  // measure 3
00000000
00000000
00000000
00000000
,  // measure 4
00000000
01000000
01000000
00000000
,  // measure 5
01000000
00000000
01000000
00000000
,  // measure 6
00000000
00001000
00001000
00000000
,  // measure 7
00001000
00000000
00000000
00000000
,  // measure 8
00000000
00010000
00010000
00000000
,  // measure 9
00010000
00000000
00000000
00000010
,  // measure 10
00000010
00000000
00000010
00000000
,  // measure 11
00000010
00000000
00000000
00000000
,  // measure 12
00001000
00000000
00000001
00000000
,  // measure 13
00000100
00000000
00000010
00000000
,  // measure 14
00010000
00000000
00001000
00000000
,  // measure 15
01000000
00000000
00100000
00000000
,  // measure 16
01100000
00000000
00000000
00000000
,  // measure 17
10010000
00000000
00000000
00000000
,  // measure 18
10000000
00000000
01000000
00000000
,  // measure 19
00010000
00000000
00001000
00000000
,  // measure 20
00100000
00000000
00100000
00000000
,  // measure 21
01000000
00000000
01000000
00000000
,  // measure 22
00010000
00000000
00010000
00000000
,  // measure 23
00001000
00000000
00001000
00000000
,  // measure 24
00000010
00000000
00000100
00000000
,  // measure 25
00001000
00000000
00000001
00000000
,  // measure 26
00000100
00000000
00001000
00000000
,  // measure 27
00022000
00000000
00033000
00000000
,  // measure 28
00010000
00000100
00010000
00000000
,  // measure 29
00001000
00100000
00001000
00000000
,  // measure 30
00010000
00000010
00010000
00000000
,  // measure 31
00001000
01000000
00001000
00000000
,  // measure 32
00010000
00001000
00100000
00000000
,  // measure 33
00001000
00010000
00000100
00000000
,  // measure 34
00010000
00001000
01000000
00000000
,  // measure 35
00001000
00010000
00000010
00000000
,  // measure 36
00000110
00000000
00000000
00000000
,  // measure 37
00000000
00000000
00000000
00000000
,  // measure 38
00001000
00000000
00000001
00000000
,  // measure 39
00000100
00000000
00001000
00000000
,  // measure 40
00011000
00000000
00010000
00000000
,  // measure 41
00100000
00000000
10000000
00000000
,  // measure 42
01000000
00000000
00100000
00000000
,  // measure 43
00010000
00000000
01000000
00000000
,  // measure 44
00001000
00001000
00001000
00000000
,  // measure 45
00010000
00010000
00010000
00000000
,  // measure 46
00000100
00000100
00000100
00000000
,  // measure 47
00000010
00000010
00000010
00000000
,  // measure 48
00001000
00001000
00001000
00000000
,  // measure 49
00010000
00010000
00010000
00000000
,  // measure 50
01000000
01000000
01000000
00000000
,  // measure 51
00100000
00100000
00100000
00000000
,  // measure 52
00010000
00010000
00010000
00000000
,  // measure 53
10000000
10000000
10000000
00000000
,  // measure 54
01000000
01000000
01000000
00000000
,  // measure 55
00010000
00010000
00022000
00033000
,  // measure 56
00001000
00100000
01000000
00000000
,  // measure 57
00100000
00001000
00010000
00000000
,  // measure 58
00001000
00010000
00000100
00000000
,  // measure 59
00000010
00000100
00010000
00000000
,  // measure 60
00001000
00010000
01000000
00000000
,  // measure 61
00010000
00001000
00000100
00000000
,  // measure 62
00001000
00010000
00100000
00000000
,  // measure 63
00010000
00001000
00000010
00000000
,  // measure 64
00000001
00000000
00000100
00000000
,  // measure 65
00001000
00000000
00010000
00000000
,  // measure 66
00100000
00000000
10000000
00000000
,  // measure 67
01000000
00000000
00010000
00000000
,  // measure 68
00022000
00000000
00000000
00000000
,  // measure 69
00000000
00000000
00033000
00000000
,  // measure 70
00000200
00000000
00000000
00000000
,  // measure 71
00000020
00000000
00000000
00000000
,  // measure 72
00000330
00000000
00000000
00000000
;

//---------------dance-double - ----------------
#NOTES:
     dance-double:
     :
     Medium:
     7:
     0.283129,0.367234,0.182160,0.174874,0.000000,272.000000,247.000000,25.000000,24.000000,0.000000,0.000000,0.283129,0.367234,0.182160,0.174874,0.000000,272.000000,247.000000,25.000000,24.000000,0.000000,0.000000:
// measure 0
00000000
00000000
00000000
00000000
,  // measure 1
00000000
00000000
00000000
00000000
,  // measure 2
00000000
00000000
00000000
00000000
,  // measure 3
00000000
00000000
00000000
00000000
,  // measure 4
00000000
01000000
00010000
00001000
,  // measure 5
00010000
00022000
00000000
00000000
,  // measure 6
00033000
00000010
00001000
00010000
,  // measure 7
00022000
00000000
00000000
00000000
,  // measure 8
00033000
00100000
00010000
00001000
,  // measure 9
00022000
00000000
00033000
00000100
,  // measure 10
00001000
00010000
00100000
01000000
,  // measure 11
02200000
03300000
10000000
01000000
,  // measure 12
00010000
00010000
01000000
00010000
,  // measure 13
00001000
00001000
00010000
00001000
,  // measure 14
00000100
00000100
00001000
00000100
,  // measure 15
00000001
00000000
00000001
00000000
00000010
00000100
00000010
00000000
,  // measure 16
00002000
00000000
00003000
00000000
00010000
00001000
00010000
00000000
,  // measure 17
02000000
00000000
03000000
00000000
10000000
00010000
10000000
00000000
,  // measure 18
00100000
00010000
00001000
00010000
,  // measure 19
00001000
00000100
00000001
00001000
,  // measure 20
00001001
00000000
00000000
00000001
00000100
00000000
00000000
00000100
,  // measure 21
00000010
00000000
00000000
00000010
00001000
00000000
00000000
00001000
,  // measure 22
00000100
00000000
00000000
00000100
00010000
00000000
00000000
00010000
,  // measure 23
00001000
00000000
00000000
00001000
00100000
00000000
00000000
00100000
,  // measure 24
00010000
00000000
00000000
00010000
01000000
00000000
00000000
01000000
,  // measure 25
00100000
00000000
00000000
00100000
10000000
00000000
00000000
10000000
,  // measure 26
00010000
01000000
00001000
00010000
,  // measure 27
00022000
00000000
00000000
00033000
,  // measure 28
00001000
00100000
01000000
10000000
,  // measure 29
00100000
00110000
00010000
00001000
,  // measure 30
00010000
00000100
00000010
00000001
,  // measure 31
00000100
00001100
00001000
00010000
,  // measure 32
00001000
01000000
00100000
10000000
,  // measure 33
01000000
01010000
00010000
00001000
,  // measure 34
00010000
00000010
00000100
00000001
,  // measure 35
00000010
00001010
00001000
00010000
,  // measure 36
00022000
00000000
00000000
00000000
,  // measure 37
00000000
00000000
00000000
00033000
,  // measure 38
00001000
00000000
00100000
00000000
,  // measure 39
01000000
00000000
00010000
00000000
,  // measure 40
00001000
00000010
00000100
00010000
,  // measure 41
00001000
00000100
00000001
00000010
,  // measure 42
00001000
00010000
01000000
10000000
,  // measure 43
00100000
00010000
00001000
00010000
,  // measure 44
00000100
00000000
00001000
00000010
00010000
00000000
00001000
00000000
,  // measure 45
00100000
00000000
00010000
01000000
00001000
00000000
00010000
00000000
,  // measure 46
00001000
00101000
00010010
00022000
,  // measure 47
00033000
00000000
01001000
00000000
00010100
00000000
00010000
00001000
,  // measure 48
00010000
00000000
00001000
00000000
00000100
00000000
00000001
00001000
,  // measure 49
00000001
00000000
00000100
00000000
00001000
00000000
00010000
00001000
,  // measure 50
00010000
00001000
00101000
00010000
,  // measure 51
00010010
00001000
01001000
00010000
,  // measure 52
00010100
00000000
00000100
00001000
00000100
00000000
00010000
00000000
,  // measure 53
00001000
00000000
01000000
00010000
01000000
00000000
00001000
00000000
,  // measure 54
00010000
00000000
00000010
00001000
00000010
00000000
00010000
00000000
,  // measure 55
00001000
00000000
00100000
00010000
20020000
00000000
30030000
00000000
,  // measure 56
10000000
01000000
00010000
00001000
,  // measure 57
00000010
00000001
00000010
00000000
00000100
00000000
00000110
00000000
,  // measure 58
00000001
00000010
00001000
00010000
,  // measure 59
01000000
10000000
01000000
00000000
00100000
00000000
01100000
00000000
,  // measure 60
10000000
00100000
00010000
00001000
,  // measure 61
00000100
00000001
00000100
00000000
00000010
00000000
00000110
00000000
,  // measure 62
00000001
00000010
00001000
00010000
,  // measure 63
00100000
10000000
00100000
00000000
01000000
00000000
01100000
00000000
,  // measure 64
00000000
00100000
00000000
10000000
00000000
01000000
00000000
00010000
,  // measure 65
00000000
00001000
00001000
00000000
00020000
00000000
00031000
00000000
,  // measure 66
00000000
00000010
00000000
00000001
00000000
00000100
00000000
00001000
,  // measure 67
00000000
00010000
00010000
00000000
00002000
00000000
00013000
00000000
,  // measure 68
02000000
00000000
00000000
00000000
,  // measure 69
03002000
00000000
00000000
00000000
,  // measure 70
00023000
00000000
00000000
00000000
,  // measure 71
00000020
00000000
00000000
00000000
,  // measure 72
00030030
00000000
00000000
00000000
;
