#TITLE:Vegetable;
#SUBTITLE:;
#ARTIST:Norazo;
#TITLETRANSLIT:;
#SUBTITLETRANSLIT:;
#ARTISTTRANSLIT:;
#GENRE:VARIETY;
#CREDIT:MUINELIM;
#BANNER:Vegetable.png;
#BACKGROUND:Vegetable-bg.png;
#LYRICSPATH:;
#CDTITLE:;
#MUSIC:Vegetable.ogg;
#OFFSET:-0.217000;
#SAMPLESTART:56.695587;
#SAMPLELENGTH:14.077652;
#SELECTABLE:YES;
#DISPLAYBPM:170.000000;
#BPMS:0.000000=170.000000
;
#STOPS:158.000000=0.352943,
205.000000=0.352943
;
#BGCHANGES:0.000=Vegetable.avi=1.000=1=0=0=StretchNoLoop==CrossFade==,
99999=-nosongbg-=1.000=0=0=0 // don't automatically add -songbackground-
;
#KEYSOUNDS:;
#ATTACKS:;

//---------------dance-single - ----------------
#NOTES:
     dance-single:
     :
     Beginner:
     4:
     0.193336,0.276210,0.015829,0.087058,0.000000,171.000000,169.000000,2.000000,11.000000,0.000000,0.000000,0.193336,0.276210,0.015829,0.087058,0.000000,171.000000,169.000000,2.000000,11.000000,0.000000,0.000000:
0000
0000
0000
0000
,
0000
0000
0000
0000
,
0000
0000
0000
0000
,
0000
0000
0000
0000
,
1000
0000
1000
0000
,
1000
0000
1000
0000
,
0001
0000
0001
0000
,
0001
0000
0001
0001
,
0001
0000
0100
0000
,
0010
0000
1000
0000
,
0001
0000
0100
0000
,
0010
0010
0010
0000
,
1000
0000
0010
0000
,
0100
0000
0001
0000
,
1000
0000
0010
0000
,
0100
0100
0100
0000
,
0001
0000
1000
0000
,
0010
0000
0010
0000
,
1000
0000
0001
0000
,
0100
0000
0100
0000
,
0001
0000
0000
0000
,
1000
0000
0000
0000
,
0001
0000
1000
0000
,
0002
0000
0003
0000
,
0100
0000
0010
0000
,
1000
0000
1000
0000
,
0010
0000
0100
0000
,
0001
0000
0001
0000
,
0100
0000
0000
0000
,
0010
0000
0000
0000
,
0100
0000
0010
0000
,
0200
0000
0300
0000
,
0010
0000
0010
0000
,
0010
0010
0010
0000
,
1000
0000
0001
0000
,
2000
0000
3000
0000
,
0100
0000
0100
0000
,
0100
0100
0100
0000
,
1000
0000
0001
0000
,
1000
0000
1001
0001
,
0000
1000
0000
0001
,
0000
1000
0000
0100
,
0000
0010
0000
0100
,
0000
0010
0000
0001
,
0000
1000
0000
0010
,
0000
0100
0000
0020
,
0000
0000
0000
0000
,
0000
0030
0000
1000
,
1000
1000
0000
0001
,
0001
0001
0000
2002
,
0000
0000
0000
0000
,
0000
3003
1000
0000
,
0001
0000
1000
0000
,
0001
0000
1000
0000
,
0100
0000
0010
0000
,
0001
0000
0001
0000
,
1000
0000
0001
0000
,
1000
0000
0001
0000
,
0100
0000
0010
0000
,
1000
0000
1000
0000
,
0010
0000
0100
0100
,
0000
0000
0001
0000
,
0100
0000
0010
0010
,
0010
0000
2000
0000
,
3000
0000
0002
0000
,
0003
0000
1000
0000
,
0001
0000
1000
0001
,
1000
0000
0001
0001
,
0001
0000
1000
1000
,
1000
0000
0010
0010
,
0010
0000
0100
0100
,
0100
0000
0001
0000
,
0010
0000
0100
0000
,
1000
0000
0020
0000
,
0000
0000
0000
0000
,
0030
0000
0100
0100
,
0100
0000
0010
0010
,
0010
0000
1000
1000
,
1000
0000
0001
0001
,
0001
0000
0010
0000
,
0100
0000
1000
0000
,
0001
0000
2000
0000
,
0000
0000
0000
0000
,
3000
0000
0010
0010
,
0010
0000
0100
0100
,
0100
0000
0001
0001
,
0001
0001
1000
1000
,
2000
3000
0000
0000
;

//---------------dance-single - ----------------
#NOTES:
     dance-single:
     :
     Easy:
     7:
     0.278132,0.345263,0.110801,0.102886,0.000000,246.000000,232.000000,14.000000,13.000000,0.000000,0.000000,0.278132,0.345263,0.110801,0.102886,0.000000,246.000000,232.000000,14.000000,13.000000,0.000000,0.000000:
0000
0000
0000
0000
,
0000
0000
0000
0000
,
0000
0000
0000
0000
,
0000
0000
0000
0000
,
1000
0000
1000
0000
,
0001
0000
0001
0000
,
1000
0000
0001
0000
,
1000
0001
2000
3000
,
0001
0100
0010
0000
,
0010
0100
0001
0000
,
0001
0100
0010
0100
,
0001
0100
0010
0000
,
1000
0100
0010
0000
,
0010
0100
1000
0000
,
1000
0100
0010
0100
,
1000
0100
0010
0000
,
0100
0000
1000
0000
,
0001
0000
1001
0000
,
0010
0000
0001
0000
,
1000
0000
1001
0000
,
0010
1000
0010
0000
,
0100
0001
0100
0000
,
0010
1000
0010
0100
,
0020
0030
0100
0100
,
0001
0000
1000
0000
,
0100
0000
0110
0000
,
1000
0000
0001
0000
,
0010
0000
0110
0000
,
0100
1000
0100
0000
,
0010
0001
0010
0000
,
0100
1000
0100
0010
,
0002
0000
1003
0000
,
0000
1000
0001
1000
,
0010
1000
0100
0000
,
1000
0001
0100
0001
,
0020
0000
0000
0030
,
0000
0001
0100
0010
,
1000
0100
0010
0001
,
1000
0000
0001
0000
,
1000
0001
1001
1000
,
1000
1000
0000
0001
,
0001
0001
0000
1000
,
1000
0001
0001
1000
,
0001
1000
0000
0010
,
0000
0001
0000
0100
,
0000
1000
0000
0010
,
0000
0001
0000
0100
,
0000
1000
0001
1000
,
1000
0100
0100
0010
,
0010
0001
0001
2002
,
0000
0000
0000
0000
,
0000
3003
1000
0000
,
0010
0000
0100
0000
,
0010
0000
0001
0000
,
0010
0000
0100
0000
,
0010
0000
1000
0000
,
0100
0000
0010
0000
,
0100
0000
1000
0000
,
0100
0000
0010
0000
,
0100
0000
1000
0010
,
0100
0010
1000
0002
,
0003
1000
0100
0100
,
0010
0010
0001
0100
,
0010
1000
0002
0000
,
0000
0003
2000
0000
,
0000
3000
0020
0030
,
0200
0300
0010
0100
,
0110
0000
0001
0001
,
0001
0000
1000
1000
,
1000
0000
0001
0001
,
1000
1000
0001
1000
,
0001
0000
0010
0000
,
1000
0000
0100
0000
,
0001
0000
0010
0000
,
1000
0000
0100
0100
,
0001
0010
0100
0100
,
0100
0010
0100
0100
,
0100
1000
0001
0001
,
0001
1000
0001
0001
,
0001
1000
1001
0000
,
0110
0000
1010
0000
,
0101
0000
0011
0000
,
1100
0000
1000
0010
,
0100
0001
1000
0100
,
0001
0100
1000
0010
,
0001
0010
1000
0100
,
0001
1000
0010
0001
,
2002
3003
0000
0000
;

//---------------dance-single - ----------------
#NOTES:
     dance-single:
     :
     Medium:
     11:
     0.552873,0.625035,0.395717,0.158287,0.035615,489.000000,439.000000,50.000000,20.000000,0.000000,0.000000,0.552873,0.625035,0.395717,0.158287,0.035615,489.000000,439.000000,50.000000,20.000000,0.000000,0.000000:
0000
0000
0000
0000
,
0000
0000
0000
0000
,
0000
0000
0000
0000
,
0000
0000
0000
0000
,
1000
1000
0001
0001
,
1000
0010
0100
0001
,
1000
1000
0001
0001
,
0100
0000
0010
0000
1000
0001
1000
0000
,
1001
0000
0001
0100
0001
0000
0010
0000
,
0100
0000
1000
0010
1000
0000
1010
0000
,
0010
0000
0100
0001
0100
0000
0010
1000
,
0010
0000
0100
0010
0100
0000
0110
0000
,
1001
0000
1000
0100
1000
0000
0100
0000
,
0010
0000
0001
0010
0001
0000
0011
0000
,
0010
0000
0001
0010
0001
0000
1000
0100
,
1000
0000
0001
1000
0002
0000
0003
0000
,
1000
0000
1010
0000
0010
0100
0001
1000
,
0100
1100
1000
1100
,
0001
0000
0101
0000
0100
0010
1000
0001
,
0010
0011
0001
0011
,
1000
0010
0000
1000
0000
0010
1000
0000
,
0001
0100
0001
0010
0000
0001
0100
0000
,
0010
1010
0100
0101
,
0020
0000
0000
0000
1000
1000
1030
0000
,
1000
0000
1100
0000
0100
0010
0100
0010
,
0001
1000
0100
0000
1000
0001
0010
0000
,
0001
0000
0101
0000
0100
0010
0100
0010
,
1000
0001
0100
0000
0001
1000
0010
0000
,
1000
0100
0000
1000
0000
0100
1000
0000
,
0001
0010
0001
0100
0000
0001
0010
0000
,
0001
0101
1000
1010
,
0002
0000
0000
0000
0100
0100
0103
0000
,
0100
0010
0100
0010
,
1000
0100
0010
0001
0020
0000
0030
0000
,
0001
0000
0000
0100
0000
0000
0010
0000
0100
0000
0000
0010
0000
0000
1000
0000
,
0001
1000
0001
1000
,
0001
0010
0100
0000
1000
0100
0010
0000
,
0001
0100
0010
1000
0100
0000
0110
0000
,
0010
0000
0000
0001
0000
0000
1000
0000
0100
0000
0000
1000
0000
0000
0001
0000
,
0100
0000
0000
0001
0000
0000
1000
0000
1001
0000
0000
0000
0101
0000
0000
0000
,
0011
0000
0101
0000
0100
0010
1000
0001
,
0100
0010
1000
0000
0001
0000
0010
0001
,
0100
0000
0010
1000
0100
0000
0010
0001
,
0100
0010
1000
0001
1000
0000
1001
0000
,
0001
0100
0010
0000
0001
0010
0100
0000
,
0001
0100
0010
0000
0001
0010
1000
0000
,
0100
0000
0001
0000
0100
0000
1000
0010
,
0100
0001
1000
0100
0010
0001
0100
0000
,
0110
0010
1010
1000
,
1001
0001
0101
0220
,
0000
0000
0000
0000
0330
0000
0010
0100
,
0001
1000
1001
0000
0001
0000
0100
1000
,
0100
0000
0001
0000
0010
0000
0100
1000
,
0100
0000
0010
0000
0001
0000
1000
0010
,
0100
0000
0100
0001
0010
0000
0010
0100
,
1000
0010
0100
0001
1000
0000
0100
0001
,
0100
0000
1000
0010
1000
0000
0001
0100
,
0001
0000
0010
0000
1000
0000
0010
0001
,
0010
0000
0100
1000
0100
0000
0010
0001
,
1000
0100
1000
0001
0010
0100
1000
0010
,
0100
0001
1000
0100
0010
0000
0220
0330
,
0000
0100
0010
0001
2000
0000
3010
0000
,
0002
0103
2000
3200
,
0320
0000
0000
0000
0032
0000
0000
0000
1003
0000
0000
0010
0000
0000
1000
0000
,
0001
0000
0000
0010
0000
0000
0001
0000
1000
0000
0000
0100
0000
0000
1000
0000
,
0001
0000
0000
0100
0000
0000
0001
0000
1000
0000
0010
0000
0100
0000
0001
0000
,
0010
0100
1000
0001
2002
0000
0000
0000
,
0000
3003
1100
1010
,
1100
0000
0100
0010
0001
1000
0100
0010
,
0001
0000
1000
0000
0010
1000
0100
0000
,
0010
0001
0100
0000
0010
1000
0100
0010
,
0001
1000
0001
0000
1001
0000
1000
0100
,
0010
0000
1000
0010
0100
0000
1000
0100
,
0010
0000
1000
0010
0001
0000
0100
0000
,
1000
0000
0100
0000
0001
0010
0000
1000
,
0001
0100
0010
1000
1100
0000
0101
0000
,
1100
0000
1000
0010
0100
0001
1000
0100
,
0010
0000
0011
0000
0001
0100
0010
1000
,
0001
0010
0100
1000
0010
0100
0001
1000
,
0100
0000
0110
0000
1001
0000
1000
0010
,
0001
0000
0001
0010
1000
0000
0001
0100
,
1000
0000
1000
0100
0001
0000
0010
0000
,
0100
0000
1000
0000
0010
0100
0001
1000
,
0100
0010
0001
0100
0110
0000
1010
0000
,
0110
0101
0011
1001
,
1100
1001
0220
0000
,
0000
0000
0000
0330
,
2000
3002
0000
0003
;

//---------------dance-single - ----------------
#NOTES:
     dance-single:
     :
     Hard:
     15:
     0.766560,0.937552,0.648975,0.348231,0.273045,678.000000,596.000000,82.000000,44.000000,0.000000,0.000000,0.766560,0.937552,0.648975,0.348231,0.273045,678.000000,596.000000,82.000000,44.000000,0.000000,0.000000:
0000
0000
0000
0000
,
0000
0000
0000
0000
,
0000
0000
0000
0000
,
0000
0000
0000
0000
,
1000
1000
1000
1000
,
0001
0001
0001
0001
,
0100
0100
0010
0010
,
1000
0000
0000
0000
0001
0000
0000
0000
0100
0010
0100
0010
0200
0000
0300
0000
,
1001
0000
0001
0100
0010
0000
1010
0000
,
0101
0000
0001
0010
0100
0000
2100
0000
,
3001
0000
0001
0100
0010
0000
0001
0010
,
0100
0000
0000
0000
0001
0000
0100
0000
0010
0000
1000
0001
1000
0000
0001
0000
,
1001
0000
1000
0100
0010
0000
0011
0000
,
1100
0000
1000
0010
0100
0000
0102
0000
,
1003
0000
1000
0100
0010
0000
0100
1000
,
0001
0000
0010
0100
0010
0000
0100
0000
2000
0000
0000
0000
3001
0000
0000
0000
,
0101
0000
0000
0000
1010
0000
0000
0010
0100
0000
0010
0000
1000
0000
0100
0000
,
0120
0031
0210
1300
,
1010
0000
0101
0001
0010
0100
0010
0001
,
2001
3100
1002
0013
,
0011
0010
0100
1000
0000
0100
1000
0100
,
0110
0010
0001
0010
0000
0001
0100
0010
,
1010
1100
0101
0011
,
0220
0000
0030
0000
1000
1000
1300
0000
,
1001
0000
0000
0000
0110
0000
0000
0010
1000
0000
0100
0000
0001
0000
0100
0000
,
2100
0010
3010
0000
0012
0100
0103
0000
,
1001
0000
0000
0000
0110
0000
0000
0010
0001
0000
0100
0000
1000
0000
0100
0000
,
0102
0010
0013
0000
2010
0100
3100
0000
,
1010
0010
0100
0001
0000
0100
0001
0010
,
0110
0100
1000
0010
0000
1000
0010
0100
,
0101
0011
1010
1100
,
0220
0000
0330
0000
1001
0001
1000
0000
,
0010
1000
0100
0001
0100
1000
0100
0001
,
0100
1000
0010
0100
0002
0000
1003
0000
,
0001
0000
0000
0001
0100
0000
0001
0000
1000
0000
0000
1000
0010
0000
1000
0000
,
0001
0000
0000
0001
0010
0000
0001
0000
1000
0000
0100
0000
0010
0000
0001
0000
,
1001
1000
0010
0100
0001
0010
1000
0010
,
0001
0010
0100
0010
0001
0100
1000
0100
,
0001
0000
0010
0100
0010
0000
0100
0000
1000
0000
0010
0100
0010
0000
0100
0000
,
0001
0000
1000
0010
1000
0000
0001
0000
1001
0000
0000
0000
1010
0000
0010
0000
,
0110
0010
1010
1000
0200
0310
0011
0010
,
0110
0000
0010
0000
0011
0000
0001
0000
1000
0000
0000
0000
0001
0100
0001
0000
,
0010
0000
0100
0000
1000
0010
1000
0000
0100
0000
0010
0000
0001
1000
0001
0000
,
0010
0000
0100
0000
1000
0010
1000
0010
0200
0000
0300
0000
0101
0000
0000
0000
,
0001
0010
1000
0000
1000
0010
0001
0000
,
0001
0100
1000
0000
1000
0100
0001
0010
,
0100
1000
0010
0001
0010
1000
0100
0010
,
1000
0010
0001
0010
0100
1000
1010
0000
,
0011
0101
1100
0101
,
0011
1010
1100
2002
,
0000
0000
0000
0000
3003
0000
0100
0100
,
0100
0100
0110
0000
0010
1000
0010
1000
,
0100
0010
0100
0010
0001
0100
0001
0100
,
0010
0000
1000
0000
0010
0000
1000
0000
0001
0000
0010
0100
0010
0000
0001
0000
,
0100
0000
0010
0100
0010
0000
1000
0000
0100
0000
0010
0100
0010
0000
0001
0000
,
1000
0000
0010
0100
0000
0010
0100
0000
0001
0000
1000
0000
0001
0000
1000
0000
,
0100
0010
0100
0010
0001
0100
0001
0100
,
0010
0000
1000
0000
0010
0000
1000
0000
0100
0000
0010
0001
0010
0000
0001
0000
,
0100
0000
0010
1000
0010
0000
1000
0000
0100
0000
0010
0001
0010
0000
0001
0000
,
0100
0000
0010
1000
0000
0010
1000
0000
0001
0000
0100
0000
1000
0000
0100
0000
,
0001
0000
0010
0000
0100
0000
1000
0000
1010
0000
0000
0010
0200
0000
0000
0000
,
0000
0000
0301
0000
0010
0000
0100
0000
1000
0000
0000
1000
0010
0000
0100
0000
,
0010
0000
0000
0010
0100
0000
0001
0000
0100
0000
0000
0100
0001
0000
0000
0001
,
0010
0000
0000
0010
0100
0000
0000
0100
1000
0000
0010
1000
0100
0000
1000
0000
,
0001
0000
0100
0001
0010
0000
0001
0000
1000
0000
0100
0010
0001
0000
0010
0000
,
0100
0000
1000
0100
0010
0000
0001
0000
0100
0010
0100
0010
1000
0001
1000
0001
,
0010
0100
0010
0100
1000
0010
0100
0001
2000
0000
3200
0000
0320
0000
0032
0000
,
0203
0010
0310
0000
1010
1000
1100
1000
,
1010
0010
0200
0301
0011
0001
0101
0001
,
0011
0000
0010
0000
0100
0000
0000
0000
1000
0010
0100
0000
0001
0000
1000
0000
,
0100
0010
0001
0000
0100
0000
0010
0000
1000
0001
0010
0000
0100
0000
1000
0000
,
0010
0100
0001
1000
0200
0000
0300
0000
0110
0000
0000
0010
0001
0000
0100
0000
,
0010
0000
0000
0010
1000
0000
0001
0000
0100
0000
0000
0100
0010
0000
1000
0000
,
0100
0000
0000
0100
0010
0000
0001
0000
0100
0000
1000
0000
0100
0000
0001
0000
,
0010
0100
1000
0010
0001
0010
0100
0010
,
1000
0100
0010
0001
0201
0310
0102
0013
,
0201
0310
1000
0100
2100
3010
0120
1030
,
2100
0000
3010
0000
0100
0000
0001
0000
0010
0100
1000
0000
0010
0000
0100
0000
,
0001
1000
0100
0000
0010
0000
0001
0000
0100
0010
1000
0000
0001
0000
0010
0000
,
0100
1000
0001
0100
0020
0000
0030
0000
1000
0000
0001
0010
0100
0000
2000
0000
,
3010
0000
0010
0100
0001
0000
0020
0000
0130
0000
0100
1000
0001
0000
0200
0000
,
0310
0000
0010
1000
0100
0000
0020
0000
0031
0100
0010
0000
1000
0100
0010
0000
,
0001
0010
0100
0000
1000
0010
0100
0000
0001
0000
0010
0000
1000
0000
0001
0000
,
0100
1000
0010
0100
0101
0000
0011
0000
,
1010
1100
0101
1100
,
1010
0011
2002
0000
,
0000
0000
0000
3003
,
0210
0320
0000
0030
;

//---------------dance-double - ----------------
#NOTES:
     dance-double:
     :
     Hard:
     15:
     0.733772,0.868104,0.601489,0.332402,0.209730,649.000000,573.000000,76.000000,42.000000,0.000000,0.000000,0.733772,0.868104,0.601489,0.332402,0.209730,649.000000,573.000000,76.000000,42.000000,0.000000,0.000000:
// measure 0
00000000
00000000
00000000
00000000
,  // measure 1
00000000
00000000
00000000
00000000
,  // measure 2
00000000
00000000
00000000
00000000
,  // measure 3
00000000
00000000
00000000
00000000
,  // measure 4
00001000
00001000
00001000
00001000
,  // measure 5
00010000
00010000
00010000
00010000
,  // measure 6
00001000
00001000
00010000
00010000
,  // measure 7
00001000
00000000
00000000
00000000
00010000
00000000
00000000
00000000
00001000
00010000
00001000
00010000
00002000
00000000
00003000
00000000
,  // measure 8
00011000
00000000
00010000
01000000
10000000
00000000
10100000
00000000
,  // measure 9
01010000
00000000
00010000
00100000
01000000
00000000
21000000
00000000
,  // measure 10
30010000
00000000
00010000
01000000
00100000
00000000
00010000
00001000
,  // measure 11
00100000
00000000
00000000
00000000
00010000
00000000
01000000
00000000
00100000
00000000
00010000
00001000
00010000
00001000
00010000
00000000
,  // measure 12
00011000
00000000
00001000
00000100
00000001
00000000
00000011
00000000
,  // measure 13
00001100
00000000
00001000
00000010
00000100
00000000
00000102
00000000
,  // measure 14
00001003
00000000
00001000
00000100
00000010
00000000
00001000
00010000
,  // measure 15
00000100
00000000
00000010
00000100
00000010
00000000
00001000
00000000
00020000
00000000
00000000
00000000
01030000
00000000
00000000
00000000
,  // measure 16
11000000
00000000
00000000
00000000
00110000
00000000
00000000
00100000
01000000
00000000
10000000
00000000
00100000
00000000
00010000
00000000
,  // measure 17
00012000
01003000
00021000
00030100
,  // measure 18
00001100
00000000
00000011
00000001
00001000
00000100
00000010
00001000
,  // measure 19
00021000
00030100
00012000
00103000
,  // measure 20
00110000
00100000
01000000
10000000
00000000
01000000
10000000
00200000
,  // measure 21
00310000
00010000
00001000
00000010
00000000
00000100
00000010
00000001
,  // measure 22
00000101
00001010
00010100
01001000
,  // measure 23
00022000
00000000
00003000
00000000
00000010
00000010
00030010
00000000
,  // measure 24
00011000
00000000
00000000
00000000
00101000
00000000
00000000
00100000
00010000
00000000
01000000
00000000
10000000
00000000
01000000
00000000
,  // measure 25
01010000
00010000
00100000
00000000
00101000
00001000
00010000
00000000
,  // measure 26
00011000
00000000
00000000
00000000
00010010
00000000
00000000
00000010
00001000
00000000
00000100
00000000
00000001
00000000
00000100
00000000
,  // measure 27
00001100
00001000
00000010
00000000
00010010
00010000
00001000
00000000
,  // measure 28
00011000
00010000
01000000
10000000
00000000
01000000
10000000
00200000
,  // measure 29
00310000
00010000
00001000
00000100
00000000
00000001
00000010
00000100
,  // measure 30
00001100
00010100
01001000
01010000
,  // measure 31
20020000
00000000
30030000
00000000
01100000
01000000
00100000
00000000
,  // measure 32
10000000
01000000
00100000
01000000
00010000
00001000
00010000
00000100
,  // measure 33
00000010
00000100
00001000
00000001
00000200
00000000
00000310
00000000
,  // measure 34
00001010
00000000
00001000
00000001
00000100
00000000
00001000
00010000
,  // measure 35
01000000
00000000
10000000
00100000
01000000
00010000
00100000
01000000
,  // measure 36
11000000
10000000
00100000
01000000
00010000
00100000
01000000
00010000
,  // measure 37
00001000
00000010
00000100
00001000
00000010
00000001
00000010
00000100
,  // measure 38
00001000
00000000
00010000
00001000
00010000
00000000
00000100
00000000
00010000
00000000
00001000
00010000
00001000
00000000
01000000
00000000
,  // measure 39
00001000
00000000
00010000
00001000
00010000
00000000
00001000
00000000
00011000
00000000
00000000
00000000
00020100
00000000
00000000
00000000
,  // measure 40
01000000
00000000
00031000
00000000
00010000
00001000
00000020
00000031
,  // measure 41
00000020
00001030
00000020
00000031
00001001
00000000
00001100
00000100
,  // measure 42
00000010
00000100
00010100
00010000
00001000
00100000
00110000
01000000
,  // measure 43
11000000
00000000
10000000
00000000
00100000
01000000
00010000
10000000
02000000
00000000
03000000
00000000
01100000
00000000
00000000
00000000
,  // measure 44
00100000
00010000
01000000
00000000
00100000
00010000
00001000
00000000
,  // measure 45
00010000
00001000
00000010
00000000
00000100
00000010
00000001
00001000
,  // measure 46
00000010
00000100
00001000
00010000
00100000
10000000
01000000
00010000
,  // measure 47
00001000
00000010
00000001
00000100
00001000
00010000
00010100
00000000
,  // measure 48
00101000
00010010
01001000
00011000
,  // measure 49
00110000
00011000
00001010
00022000
,  // measure 50
00000000
00000000
00000000
00000000
00033000
00000000
00010000
00010000
,  // measure 51
00001000
00001000
00011000
00000000
00010000
00000100
00000010
00000001
,  // measure 52
00000100
00000010
00010000
00000100
00000010
00000001
00000100
00000010
,  // measure 53
00010000
00000000
00000100
00000000
00000010
00000000
00000001
00000000
00000100
00000000
00001000
00010000
00001000
00000000
00010000
00000000
,  // measure 54
01000000
00000000
10000000
00100000
10000000
00000000
00100000
00000000
00010000
00000000
00001000
00010000
00001000
00000000
00000100
00000000
,  // measure 55
00000001
00000000
00000010
00000100
00000000
00000100
00000010
00000000
00001000
00000000
00010000
00000000
00100000
00000000
10000000
00000000
,  // measure 56
01000000
00100000
00001000
00010000
00100000
10000000
01000000
00100000
,  // measure 57
00001000
00000000
00010000
00000000
00100000
00000000
10000000
00000000
01000000
00000000
00010000
00001000
00010000
00000000
00001000
00000000
,  // measure 58
00000010
00000000
00000001
00000100
00000001
00000000
00000100
00000000
00001000
00000000
00010000
00001000
00010000
00000000
00100000
00000000
,  // measure 59
10000000
00000000
01000000
00100000
00000000
00100000
01000000
00000000
00010000
00000000
00001000
00000000
00000100
00000000
00001000
00000000
,  // measure 60
00010000
00000000
00001000
00000000
00000100
00000000
00000001
00000000
00000011
00000000
00000000
00000010
00000200
00000000
00000000
00000000
,  // measure 61
00000000
00001300
00000010
00010000
00001000
00000100
00001000
00010000
,  // measure 62
01000000
00000000
00010000
00000000
00001000
00000000
00010000
00000000
00100000
00000000
00000000
00100000
10000000
00000000
00000000
10000000
,  // measure 63
01000000
00000000
00000000
01000000
00010000
00000000
00000000
00010000
00001000
00000000
00000100
00000001
00000100
00000000
00000001
00000000
,  // measure 64
00000010
00000000
00001000
00010000
00001000
00000000
00010000
00000000
00100000
00000000
10000000
01000000
10000000
00000000
01000000
00000000
,  // measure 65
00010000
00000000
00001000
00010000
00001000
00000000
00000100
00000000
00000001
00000010
00000001
00000010
00000100
00000000
00000010
00000000
,  // measure 66
00000001
00000010
00000001
00000010
00000100
00001000
00000100
00010000
00002000
00000000
00000000
00000000
00003200
00000000
00000000
00000000
,  // measure 67
00020300
01030000
01002000
00000100
,  // measure 68
00013000
00000000
00001000
00010000
00200000
10300000
00200000
00310000
,  // measure 69
00200000
10300000
10010000
00000000
01010000
01000000
00100000
01000000
,  // measure 70
01001000
00001000
00010000
00000010
00001010
00000100
00000101
00000001
,  // measure 71
00000010
00000100
00001000
00000001
00000200
00000000
00000300
00000000
00000110
00000000
00000000
00000000
00000010
00000000
00001000
00000000
,  // measure 72
00000100
00000000
00000010
00001000
00010000
00000000
00001000
00010000
,  // measure 73
00100000
00000000
01000000
00100000
10000000
00010000
00100000
01000000
,  // measure 74
00010000
00001000
00000010
00000001
00000100
00001000
00010000
00100000
,  // measure 75
10000000
01000000
00010000
00001000
00021000
00030010
00020000
00130000
,  // measure 76
00020000
00030010
00010000
00001000
00012000
01003000
00002000
00003100
,  // measure 77
00002000
00000000
01003000
00000000
00001000
00000000
00010000
00000000
00100000
10000000
01000000
00000000
00100000
00000000
00010000
00000000
,  // measure 78
01000000
00001000
00010000
00000000
00000100
00000000
00001000
00000000
00000010
00000100
00000001
00000000
00001000
00000000
00000010
00000000
,  // measure 79
00000100
00001000
00010000
00100000
02000000
00000000
03000000
00000000
00100000
00000000
10000000
01000000
00100000
00000000
01000000
00000000
,  // measure 80
00010000
00000000
00001000
00010000
00000100
00000000
00001000
00000000
00000001
00000000
00000100
00000010
00001000
00000000
00000001
00000000
,  // measure 81
00000010
00000000
00000100
00001000
00000010
00000000
00010000
00000000
00001000
00100000
01000000
00000000
01000000
10000000
00100000
00000000
,  // measure 82
00100000
00010000
00001000
00000000
00001000
00000010
00000001
00000000
00001000
00000000
00000010
00000000
00010000
00000000
00100000
00000000
,  // measure 83
00001000
00000100
00010000
01000000
11000000
00000000
00110000
00000000
,  // measure 84
01001000
00010100
00001010
00000101
,  // measure 85
00010010
00101000
00022000
00000000
,  // measure 86
00000000
00000000
00000000
00033000
,  // measure 87
02000000
03000200
00000000
00000300
;

//---------------dance-double - ----------------
#NOTES:
     dance-double:
     :
     Easy:
     7:
     0.271349,0.345263,0.087058,0.102886,0.000000,240.000000,229.000000,11.000000,13.000000,0.000000,0.000000,0.271349,0.345263,0.087058,0.102886,0.000000,240.000000,229.000000,11.000000,13.000000,0.000000,0.000000:
// measure 0
00000000
00000000
00000000
00000000
,  // measure 1
00000000
00000000
00000000
00000000
,  // measure 2
00000000
00000000
00000000
00000000
,  // measure 3
00000000
00000000
00000000
00000000
,  // measure 4
00001000
00000000
00001000
00000000
,  // measure 5
00010000
00000000
00010000
00000000
,  // measure 6
00001000
00000000
00010000
00000000
,  // measure 7
00001000
00010000
00002000
00003000
,  // measure 8
01000000
00010000
01000000
00000000
,  // measure 9
01000000
00010000
01000000
00000000
,  // measure 10
01000000
00010000
01000000
00001000
,  // measure 11
00010000
00001000
00010000
00000000
,  // measure 12
00000100
00001000
00000100
00000000
,  // measure 13
00000100
00001000
00000100
00000000
,  // measure 14
00000100
00001000
00000100
00010000
,  // measure 15
00001000
00010000
00001000
00000000
,  // measure 16
00000100
00000000
00000001
00000000
,  // measure 17
00001000
00000000
00001001
00000000
,  // measure 18
00000100
00000000
00001000
00000000
,  // measure 19
00000001
00000000
00001001
00000000
,  // measure 20
00001000
00000010
00010000
00000000
,  // measure 21
00001000
00100000
00010000
00000000
,  // measure 22
00100000
00001000
00010000
00100000
,  // measure 23
02000000
00000000
00000000
03100000
,  // measure 24
00100000
00000000
10000000
00000000
,  // measure 25
00010000
00000000
10010000
00000000
,  // measure 26
00100000
00000000
00010000
00000000
,  // measure 27
10000000
00000000
10010000
00000000
,  // measure 28
00010000
00100000
00001000
00000000
,  // measure 29
00010000
00000010
00001000
00000000
,  // measure 30
00000100
00010000
00001000
00000100
,  // measure 31
00000002
00000000
00001003
00000000
,  // measure 32
00000000
00001000
00000010
00001000
,  // measure 33
00000100
00001000
00000001
00000000
,  // measure 34
00000100
00001000
00010000
00100000
,  // measure 35
20000000
00000000
00000000
00000000
,  // measure 36
30000000
01000000
00100000
00010000
,  // measure 37
01000000
00100000
00010000
00001000
,  // measure 38
00010000
00000000
00001000
00000000
,  // measure 39
00010000
00001000
00011000
00010000
,  // measure 40
00000010
00010000
00000000
00001000
,  // measure 41
01000000
00001000
00000000
00100000
,  // measure 42
00001000
00010000
00000100
00010000
,  // measure 43
00001000
00100000
00000000
01000000
,  // measure 44
00000000
10000000
00000000
00100000
,  // measure 45
00000000
00010000
00000000
00001000
,  // measure 46
00000000
00000100
00000000
00000001
,  // measure 47
00000000
00000010
00000100
00000010
,  // measure 48
00000010
00001000
00001000
00010000
,  // measure 49
00010000
01000000
01000000
20020000
,  // measure 50
00000000
00000000
00000000
00000000
,  // measure 51
00000000
30030000
10000000
00000000
,  // measure 52
00100000
00000000
01000000
00000000
,  // measure 53
00010000
00000000
00001000
00000000
,  // measure 54
00000010
00000000
00000100
00000000
,  // measure 55
00000001
00000000
00000010
00000000
,  // measure 56
00000100
00000000
00001000
00000000
,  // measure 57
00010000
00000000
00100000
00000000
,  // measure 58
01000000
00000000
10000000
00000000
,  // measure 59
00100000
00000000
01000000
00010000
,  // measure 60
01000000
00001000
00010000
00000020
,  // measure 61
00000030
00001000
00000100
00000100
,  // measure 62
00000010
00000010
00000001
00000100
,  // measure 63
00001000
00010000
00200000
00000000
,  // measure 64
00000000
00300000
20000000
00000000
,  // measure 65
00000000
30000000
02000000
03000000
,  // measure 66
00020000
00030000
00001000
00010000
,  // measure 67
00011000
00000000
00001000
00100000
,  // measure 68
00001000
00000000
00010000
00000100
,  // measure 69
00010000
00000000
00000010
00010000
,  // measure 70
00001000
01000000
00001000
00010000
,  // measure 71
00000010
00000000
00000100
00000000
,  // measure 72
00000001
00000000
00000010
00000000
,  // measure 73
00001000
00000000
00010000
00000000
,  // measure 74
01000000
00000000
10000000
10000000
,  // measure 75
00100000
00010000
00001000
00001000
,  // measure 76
00001000
00000010
00001000
00001000
,  // measure 77
00001000
00000000
00010000
00010000
,  // measure 78
00010000
00100000
00010000
00010000
,  // measure 79
00010000
00000000
00011000
00000000
,  // measure 80
00000100
00000000
00010100
00000000
,  // measure 81
01000000
00000000
01001000
00000000
,  // measure 82
00001000
00000000
00010000
00001000
,  // measure 83
00000100
00000001
00000010
00000100
,  // measure 84
00001000
00000010
00000100
00001000
,  // measure 85
00010000
00100000
01000000
00010000
,  // measure 86
00100000
01000000
10000000
00010000
,  // measure 87
20020000
30030000
00000000
00000000
;

//---------------dance-double - ----------------
#NOTES:
     dance-double:
     :
     Medium:
     11:
     0.535914,0.590310,0.356145,0.158287,0.031657,474.000000,429.000000,45.000000,20.000000,0.000000,0.000000,0.535914,0.590310,0.356145,0.158287,0.031657,474.000000,429.000000,45.000000,20.000000,0.000000,0.000000:
// measure 0
00000000
00000000
00000000
00000000
,  // measure 1
00000000
00000000
00000000
00000000
,  // measure 2
00000000
00000000
00000000
00000000
,  // measure 3
00000000
00000000
00000000
00000000
,  // measure 4
00001000
00001000
00010000
00010000
,  // measure 5
00000100
00000010
00001000
00010000
,  // measure 6
00001000
00001000
00010000
00010000
,  // measure 7
01000000
00000000
00100000
00000000
00001000
00010000
00001000
00000000
,  // measure 8
00011000
00000000
00010000
00000100
00010000
00000000
00000010
00000000
,  // measure 9
00001000
00000000
00000001
00000100
00000001
00000000
00000011
00000000
,  // measure 10
00000010
00000000
00001000
00010000
00000100
00000000
00010000
00001000
,  // measure 11
00100000
00000000
00001000
00010000
00001000
00000000
00010000
00000000
,  // measure 12
00011000
00000000
00001000
01000000
00001000
00000000
00100000
00000000
,  // measure 13
00010000
00000000
10000000
01000000
10000000
00000000
10100000
00000000
,  // measure 14
00100000
00000000
00010000
00001000
01000000
00000000
00001000
00010000
,  // measure 15
00000010
00000000
00010000
00001000
00020000
00000000
00030000
00000000
,  // measure 16
00001000
00000000
00011000
00000000
00010000
00000100
00001000
00000001
,  // measure 17
00000010
00000011
00000001
00000011
,  // measure 18
00000100
00000000
00001100
00000000
00001000
00000010
00010000
00001000
,  // measure 19
00100000
00110000
00010000
00110000
,  // measure 20
00100000
01000000
00000000
10000000
00000000
01000000
00100000
00000000
,  // measure 21
01000000
00010000
00001000
00010000
00000000
00000010
00001000
00000000
,  // measure 22
00000001
00000101
00001000
00001010
,  // measure 23
00020000
00000000
00000000
00000000
00001000
00001000
00031000
00000000
,  // measure 24
00010000
00000000
00011000
00000000
00001000
00100000
00010000
00100000
,  // measure 25
01000000
10000000
01000000
00000000
00100000
00010000
00100000
00000000
,  // measure 26
00010000
00000000
01010000
00000000
01000000
00001000
00010000
00000100
,  // measure 27
00001000
00000010
00001000
00000000
00000001
00000100
00000001
00000000
,  // measure 28
00001000
00000010
00000000
00000100
00000000
00000010
00001000
00000000
,  // measure 29
00000100
00010000
00001000
00010000
00000000
00100000
10000000
00000000
,  // measure 30
01000000
11000000
00100000
00110000
,  // measure 31
00002000
00000000
00000000
00000000
00010000
00010000
00013000
00000000
,  // measure 32
00010000
00001000
00000100
00000001
,  // measure 33
00000010
00000100
00000020
00000030
,  // measure 34
00001000
00000000
00000000
00001000
00000000
00000000
00001000
00000000
00010000
00000000
00000000
00010000
00000000
00000000
00010000
00000000
,  // measure 35
01000000
00100000
01000000
10000000
,  // measure 36
00100000
01000000
00010000
00000000
00100000
00001000
00010000
00000000
,  // measure 37
00000100
00001000
00000001
00000100
00000010
00000000
00000110
00000000
,  // measure 38
00000100
00000000
00000000
00000100
00000000
00000000
00000100
00000000
00000001
00000000
00000000
00000001
00000000
00000000
00000001
00000000
,  // measure 39
00000010
00001000
00010000
00000000
00011000
00000000
01001000
00000000
,  // measure 40
00010000
00000000
00010100
00000000
00000100
00001000
00000001
00001000
,  // measure 41
00000100
00010000
00001000
00000000
00100000
00000000
00010000
01000000
,  // measure 42
00100000
00000000
01000000
00010000
00100000
00000000
00010000
01000000
,  // measure 43
00100000
10000000
00100000
10000000
01000000
00000000
11000000
00000000
,  // measure 44
10000000
01000000
00100000
00000000
01000000
00100000
00001000
00000000
,  // measure 45
00010000
00000100
00000010
00000000
00000100
00000010
00000001
00000000
,  // measure 46
00000100
00000000
00000010
00000000
00001000
00000000
00000001
00000100
,  // measure 47
00000010
00001000
00000010
00010000
00001000
00010000
00100000
00000000
,  // measure 48
10100000
10000000
11000000
01000000
,  // measure 49
01010000
00010000
00011000
00022000
,  // measure 50
00000000
00000000
00000000
00000000
,  // measure 51
00033000
00000000
00011000
00000000
00010000
00000000
00001000
00000100
,  // measure 52
00001000
00000000
00010000
00000000
00001000
00000000
00000010
00000001
,  // measure 53
00000010
00000000
00001000
00000000
00010000
00000000
00100000
01000000
,  // measure 54
00100000
00000000
10000000
01000000
10000000
00000000
00010000
00100000
,  // measure 55
00010000
00000000
01000000
00000000
00001000
00000000
00010000
00100000
,  // measure 56
00010000
00000000
00001000
00000010
00001000
00000000
00010000
00100000
,  // measure 57
00010000
00000000
00001000
00000000
00000010
00000000
00000001
00000100
,  // measure 58
00000001
00000000
00000100
00001000
00000100
00000000
00001000
00010000
,  // measure 59
00001000
00000000
00010000
00000000
00100000
10000000
01000000
00100000
,  // measure 60
00010000
01000000
00100000
00010000
00001000
00000000
00022000
00033000
,  // measure 61
00000000
00010000
00000100
00001000
00000002
00000000
00000103
00000000
,  // measure 62
00000020
00001030
00020000
00230000
,  // measure 63
02300000
00000000
00000000
00000000
23000000
00000000
00000000
00000000
30100000
00000000
00000000
00100000
00000000
00000000
00100000
00000000
,  // measure 64
01000000
00000000
00000000
01000000
00000000
00000000
01000000
00000000
00001000
00000000
00000000
00001000
00000000
00000000
00001000
00000000
,  // measure 65
00010000
00000000
00000000
00010000
00000000
00000000
00010000
00000000
00000100
00000000
00001000
00000000
00000100
00000000
00000010
00000000
,  // measure 66
00000001
00000100
00001000
00000000
00022000
00000000
00000000
00000000
,  // measure 67
00000000
00033000
00010100
00001000
,  // measure 68
01001000
00000000
01000000
00010000
10000000
00010000
01000000
00001000
,  // measure 69
00010000
00000000
00000010
00000000
00001000
00000100
00000010
00000000
,  // measure 70
00000100
00001000
00000010
00000000
00001000
00000100
00000010
00000001
,  // measure 71
00000010
00000001
00000100
00000000
00000101
00000000
00000001
00000100
,  // measure 72
00000010
00000000
00000100
00000010
00010000
00000000
00001000
01000000
,  // measure 73
00100000
00000000
01000000
00100000
10000000
00000000
01000000
00000000
,  // measure 74
00100000
00000000
00010000
00000000
10000000
01000000
00100000
00010000
,  // measure 75
00100000
00001000
00010000
00001000
00000010
00000000
00000011
00000000
,  // measure 76
00001100
00000000
00000100
00010000
00001000
00010000
00100000
01000000
,  // measure 77
00100000
00000000
10100000
00000000
10000000
00010000
00100000
01000000
,  // measure 78
00100000
00001000
00010000
00000100
00000010
00000100
00001000
00000001
,  // measure 79
00000100
00000000
00000110
00000000
00001001
00000000
00000001
00000100
,  // measure 80
00001000
00000000
00010000
00100000
10000000
00000000
10000000
01000000
,  // measure 81
00010000
00000000
00001000
00000010
00000001
00000000
00000100
00000000
,  // measure 82
00000010
00000000
00001000
00000000
00000001
00000010
00000100
00001000
,  // measure 83
00000010
00010000
00001000
00100000
01000000
00000000
11000000
00000000
,  // measure 84
10100000
00110000
00011000
00001100
,  // measure 85
00000101
00000011
00002002
00000000
,  // measure 86
00000000
00000000
00000000
00003003
,  // measure 87
00000020
00020030
00000000
00030000
;
