#TITLE:Uranium;
#SUBTITLE:;
#ARTIST:Memme;
#TITLETRANSLIT:;
#SUBTITLETRANSLIT:;
#ARTISTTRANSLIT:;
#GENRE:VARIETY;
#CREDIT:MUINELIM;
#BANNER:Uranium.png;
#BACKGROUND:Uranium-bg.png;
#LYRICSPATH:;
#CDTITLE:;
#MUSIC:Uranium.mp3;
#OFFSET:-0.176000;
#SAMPLESTART:35.478115;
#SAMPLELENGTH:12.685883;
#SELECTABLE:YES;
#BPMS:0.000000=170.000000
;
#STOPS:
;
#BGCHANGES:0.000=Uranium.avi=1.000=1=0=0=StretchNoLoop==CrossFade==,
99999=-nosongbg-=1.000=0=0=0 // don't automatically add -songbackground-
;
#KEYSOUNDS:;
#ATTACKS:;

//---------------dance-single - ----------------
#NOTES:
     dance-single:
     :
     Beginner:
     4:
     0.149567,0.238029,0.017897,0.017897,0.000000,117.000000,115.000000,2.000000,2.000000,0.000000,0.000000,0.149567,0.238029,0.017897,0.017897,0.000000,117.000000,115.000000,2.000000,2.000000,0.000000,0.000000:
0000
0000
0000
0000
,
0000
0000
0000
0000
,
0000
0000
0000
0000
,
0000
0000
0000
0000
,
0000
0000
0000
0000
,
1000
0000
0000
0000
,
0001
0000
0000
0000
,
1000
0000
0001
0000
,
1000
1000
1000
0000
,
0001
0000
0010
0000
,
0001
0000
0010
0000
,
0100
0000
0010
0000
,
0100
0000
0010
0000
,
0100
0000
1000
0000
,
0100
0000
1000
0000
,
0001
0000
1000
0000
,
0001
0001
0001
0001
,
0001
0000
0000
0000
,
0000
0000
0000
0000
,
0000
0000
0000
0000
,
0000
0000
0000
0000
,
1000
0000
0000
0000
,
0100
0000
0000
0000
,
0010
0000
0010
0000
,
0010
0000
0010
0010
,
0010
0000
0001
0000
,
0100
0000
0010
0000
,
1000
0000
1000
0000
,
0001
0000
0001
0000
,
0100
0000
0100
0000
,
0010
0000
0010
0000
,
1000
0000
1000
0000
,
0100
0000
0100
0000
,
0010
0000
0010
0000
,
0001
0001
0001
0000
,
1001
0000
0000
0000
,
0000
0000
0000
0000
,
0000
0000
0000
0000
,
0000
0000
0000
0000
,
1000
0000
0000
0000
,
0001
0000
0000
0000
,
1000
0000
0001
0000
,
1000
1000
1000
0000
,
0100
0000
0000
0000
,
0010
0000
0000
0000
,
0001
0000
0000
0000
,
1000
0000
0000
0000
,
0010
0000
0000
0000
,
0100
0000
0000
0000
,
0010
0000
0010
0000
,
0010
0010
0010
0000
,
1000
0000
0100
0000
,
0010
0000
0000
0000
,
0001
0000
0010
0000
,
0100
0000
0000
0000
,
1000
0000
0010
0000
,
0100
0000
0000
0000
,
0001
0000
0100
0000
,
0010
0000
0010
0000
,
1000
0000
0001
0000
,
1000
0000
0001
0000
,
0010
0000
0100
0000
,
0010
0000
0100
0000
,
1000
0000
0001
0000
,
0010
0000
0100
0000
,
1000
0000
0010
0000
,
0100
0000
0001
0001
,
0001
0000
1000
0000
,
0000
0000
0000
0000
,
0000
0000
0000
0000
,
0001
0000
0001
0000
,
0001
0000
0100
0000
,
0000
0000
1000
0000
,
0010
0000
0001
0000
,
1000
0000
0001
0000
,
2002
0000
0000
0000
,
3003
0000
0000
0000
;

//---------------dance-single - ----------------
#NOTES:
     dance-single:
     :
     Easy:
     7:
     0.290186,0.374046,0.152124,0.161072,0.000000,227.000000,210.000000,17.000000,18.000000,0.000000,0.000000,0.290186,0.374046,0.152124,0.161072,0.000000,227.000000,210.000000,17.000000,18.000000,0.000000,0.000000:
0000
0000
0000
0000
,
0000
0000
0000
0000
,
0000
0000
0000
0000
,
0000
0000
0000
0000
,
0000
0000
0000
0000
,
1000
0000
1000
0000
,
0001
0000
0001
0000
,
1000
1000
0001
0001
,
1000
0001
1000
1001
,
0001
0010
0001
0000
,
1000
0100
1000
0000
,
0001
0100
0001
0000
,
1000
0010
1000
0000
,
0001
0001
0010
0000
,
1000
1000
0100
0000
,
0001
0001
1000
1000
,
0010
0100
0010
0100
,
0010
0000
0000
0220
0000
0000
0000
0000
,
0330
0000
0000
0000
,
1000
0000
0000
0001
0000
0000
1000
0000
,
1001
0000
0010
0010
,
1000
0000
0001
0000
,
0100
0010
1000
0010
,
0100
0100
0001
0001
,
1001
0000
1000
0001
,
0200
0300
0001
0010
,
0200
0300
1000
1000
,
0010
0100
0001
0100
,
0010
1000
0010
0100
,
0002
0003
1000
0100
,
0020
0030
0001
0010
,
0110
0000
1000
0100
,
0110
0000
0001
0010
,
0110
1000
0100
0010
,
0001
1000
2002
3003
,
0110
0000
0000
0000
,
0000
0000
0000
0000
,
0000
0000
0000
0000
,
0000
0000
0000
0000
,
0010
0000
0000
0000
,
0010
0000
0000
0000
,
0010
0000
0010
0000
,
0010
0010
0010
1001
,
1000
0100
0010
0001
,
0000
0001
0010
0100
,
0000
0100
1000
0010
,
0000
0010
0100
0001
,
1001
1000
0100
0010
,
1001
0001
0010
0100
,
1000
1000
0001
0001
,
0200
0320
0230
0320
,
1030
0100
0010
0100
,
1000
0100
0001
0000
,
0001
0010
0100
0010
,
0001
0010
1000
0000
,
1000
0100
0010
0001
,
1000
0100
0001
0000
,
0001
0010
0100
1000
,
0001
0010
1000
1001
,
0010
0001
0010
0100
,
0010
0001
0010
0010
,
0100
1000
0100
0010
,
0100
1000
0100
0100
,
0001
0100
1000
0010
,
0001
0010
1000
0100
,
0010
0010
0001
0001
,
1000
0100
0010
0001
,
1000
0000
0000
2002
0000
0000
0000
0000
,
3003
0000
0000
0000
,
0000
0000
0000
0000
,
0010
0000
0010
0000
,
0010
0000
0000
0220
0000
0000
0330
0000
,
0000
0010
0100
0010
,
1000
0001
0100
1000
,
0010
0001
0100
0100
,
1001
0000
0000
0220
0000
0000
0000
0000
,
0330
0000
0000
0000
;

//---------------dance-double - ----------------
#NOTES:
     dance-double:
     :
     Easy:
     7:
     0.277402,0.340042,0.143175,0.178969,0.000000,217.000000,201.000000,16.000000,20.000000,0.000000,0.000000,0.277402,0.340042,0.143175,0.178969,0.000000,217.000000,201.000000,16.000000,20.000000,0.000000,0.000000:
00000000
00000000
00000000
00000000
,
00000000
00000000
00000000
00000000
,
00000000
00000000
00000000
00000000
,
00000000
00000000
00000000
00000000
,
00000000
00000000
00000000
00000000
,
00001000
00000000
00001000
00000000
,
00010000
00000000
00010000
00000000
,
00001000
00001000
00010000
00010000
,
00001000
00010000
00001000
00011000
,
00010000
00000000
00000100
00000000
,
00000010
00000000
00001000
00000000
,
00010000
00000000
01000000
00000000
,
00100000
00000000
00001000
00000000
,
00010000
00000000
00100000
00000000
,
00001000
00000000
00000010
00000000
,
00010000
00001000
00100000
00010000
,
01000000
00001000
00000100
00000010
,
00000001
00000000
00000000
00002002
00000000
00000000
00000000
00000000
,
00003003
00000000
00000000
00000000
,
00001000
00000000
00000000
00000010
00000000
00000000
00010000
00000000
,
00011000
00000000
00001000
00100000
,
00010000
00000000
10000000
00000000
,
00010000
01000000
00001000
00010000
,
00000100
00001000
00000010
00010000
,
00022000
00033000
00001000
00010000
,
02000000
03000000
10000000
00100000
,
00020000
00030000
00001000
00001000
,
00100000
01000000
00010000
00001000
,
00100000
01000000
00010000
00001000
,
00000020
00000030
00000100
00000010
,
00000002
00000003
00000100
00001000
,
00011000
00000000
01000000
00010000
,
00011000
00000000
00000010
00001000
,
00011000
00010000
00100000
10000000
,
01000000
00010000
00002000
00000000
,
00013000
00000000
00000000
00000000
,
00000000
00000000
00000000
00000000
,
00000000
00000000
00000000
00000000
,
00000000
00000000
00000000
00000000
,
00010000
00000000
00000000
00000000
,
00010000
00000000
00000000
00000000
,
00010000
00000000
00010000
00000000
,
00010000
00001000
00010000
00011000
,
00000100
00001000
00000001
00000100
,
00000000
00000100
00001000
00010000
,
00000000
00010000
00100000
10000000
,
00000000
10000000
01000000
00100000
,
01100000
01000000
00010000
00000000
,
00011000
00001000
00000010
00000000
,
00000110
00000100
00000010
00000001
,
00000200
00002300
00023000
02030000
,
13000000
00100000
10000000
01000000
,
10000000
00100000
10000000
00000000
,
00010000
01000000
00010000
00100000
,
00010000
01000000
00010000
00000000
,
00001000
00000100
00001000
00000010
,
00001000
00000100
00001000
00000000
,
00000001
00000010
00000001
00000100
,
00000001
00000010
00000001
00001001
,
00001000
00000100
00010000
00001000
,
00100000
00010000
01000000
01000000
,
00010000
00100000
00001000
00010000
,
00000100
00001000
00000010
00000010
,
00001000
00000100
00010000
00001000
,
00100000
00010000
01000000
00001000
,
00010000
00000010
00001000
00000100
,
00010000
00001000
00100000
00010000
,
01000000
00000000
00000000
02200000
00000000
00000000
00000000
00000000
,
03300000
00000000
00000000
00000000
,
00000000
00000000
00000000
00000000
,
00100000
00000000
00010000
00000000
,
00001000
00000000
00000000
00022000
00000000
00000000
00033000
00000000
,
00000000
00010000
00001000
00000100
,
00000001
00000010
00000100
00001000
,
00000020
00000030
00010000
00001000
,
00011000
00000000
00000000
00022000
00000000
00000000
00000000
00000000
,
00033000
00000000
00000000
00000000
;

//---------------dance-single - ----------------
#NOTES:
     dance-single:
     :
     Medium:
     12:
     0.493444,0.612075,0.152124,0.465320,0.049217,386.000000,369.000000,17.000000,52.000000,0.000000,0.000000,0.493444,0.612075,0.152124,0.465320,0.049217,386.000000,369.000000,17.000000,52.000000,0.000000,0.000000:
0000
0000
0000
0000
,
0000
0000
0000
0000
,
0000
0000
0000
0000
,
0000
0000
0000
0000
,
0000
0000
0000
0000
,
1000
0010
0100
0001
,
0100
0010
1000
1001
,
0001
0010
0100
0000
1000
0100
0010
0000
,
0001
0100
0010
1000
0002
0000
2003
0000
,
3010
0000
0010
0000
0100
0001
0010
0000
,
0100
0000
0100
0000
1000
0010
0100
0000
,
0001
0000
0001
0000
0010
0100
1000
0000
,
0010
0000
0010
0000
0100
0001
1000
0000
,
1001
0000
0001
0000
0100
0010
1000
0000
,
1001
0000
0001
0000
0010
0100
1000
0000
,
0010
0100
0001
0000
0100
0010
1000
0000
,
0001
0000
0010
0000
0100
0000
0000
1000
0000
0000
0010
0000
0000
0100
0000
0000
,
0102
0000
0000
2000
0000
0000
0000
3003
,
0000
0000
1000
0000
0010
0000
0100
0000
0001
0000
0000
1000
0000
0000
0100
0000
,
0020
0000
0000
0032
0000
0000
2003
0000
,
3200
0000
0000
0310
0000
0010
0100
1000
,
0002
0000
0000
0203
0000
0000
0320
0000
,
0000
1030
0100
1000
0001
0020
0000
0130
,
2000
0000
0000
3010
0100
0001
1000
0100
,
0020
0000
0000
0031
0100
0010
1000
0001
,
2002
3003
0000
1000
0100
0010
0001
0200
,
0000
0000
0000
0310
1000
0010
0100
0001
,
0020
0000
0130
0000
0001
0100
0010
1000
,
0200
0000
0310
0000
1000
0010
0100
0001
,
2000
0000
0000
3100
0010
0001
1000
0020
,
0000
0000
0000
0130
0001
0010
0100
1000
,
0020
0000
0130
0000
1000
0100
0010
0001
,
0200
0000
0310
0000
0001
0010
0100
1000
,
0010
0100
0010
0100
0001
1000
0001
1000
,
0100
0010
0001
1000
0020
0000
0130
0000
,
1001
0000
0000
0000
,
0000
0000
0000
0000
,
0000
0000
0000
0000
,
0000
0000
0000
0000
,
0110
0000
0001
0100
0000
1000
0100
0000
,
0110
0000
1000
0010
0000
0001
0010
0000
,
0110
0000
0001
0100
0000
1000
0010
0000
,
0001
0000
0000
0001
0000
0000
0001
0000
1000
0000
0010
0000
0200
0000
0000
0000
,
0301
0000
0010
0000
0100
0000
0000
1000
0000
0000
0010
0000
0100
0000
0001
0000
,
0000
0000
1000
0000
0100
0000
0000
0010
0000
0000
0001
0000
0100
0000
0010
0000
,
0000
0000
1000
0000
0001
0000
0000
0010
0000
0000
0100
0000
1000
0000
0001
0000
,
0000
0000
0100
0000
0010
0000
0000
1000
0000
0000
0100
0000
0010
0000
0001
0000
,
1001
0000
1000
0000
0010
0000
0000
0100
0000
0000
0001
0000
1000
0000
0100
0000
,
1000
0000
0001
0000
0010
0000
0000
0001
0000
0000
0100
0000
0010
0000
1000
0000
,
0001
0010
0001
0010
0100
1000
0100
1000
,
0001
0100
0010
1000
0100
0010
0001
1000
,
0020
0000
0230
0000
0301
1000
0100
0010
,
0002
0000
2003
0000
3010
0100
0101
0000
,
0002
0000
2003
0000
3010
0100
0001
1000
,
0200
0000
0320
0000
0031
1000
1100
0000
,
0200
0000
0320
0000
0031
1000
0010
0100
,
0002
0000
2003
0000
3100
0010
0011
0000
,
0001
0100
0010
0000
1000
0010
0100
0000
,
0001
0010
0100
1000
0100
0010
0001
0100
,
0010
1000
0001
0010
0100
1000
0010
0100
,
0002
2003
3200
0310
,
0010
0001
0100
0010
1000
0001
0010
0100
,
2000
3020
0230
0301
,
0001
1000
0100
0010
1000
0010
0001
0000
,
1000
0001
0010
0100
0001
0100
1000
0000
,
0001
0100
0010
1000
0001
0010
0100
1000
,
0010
0001
0010
0100
1000
0100
0001
0010
,
0200
0000
0000
2000
0000
0000
0000
0000
,
0000
0000
0000
3300
,
1000
0010
0100
0001
,
2000
0000
3020
0000
,
0230
0000
0000
0002
0000
0000
0000
0303
,
0000
0001
0010
0100
1000
0020
0000
0130
,
0101
0000
0001
1000
0100
0010
1000
0010
,
0001
0000
0000
0101
0000
0000
1100
0000
1000
0000
0010
0000
0100
0000
0001
0000
,
1000
0000
0000
2002
0000
0000
0000
0000
,
3003
0000
0000
0000
;

//---------------dance-single - ----------------
#NOTES:
     dance-single:
     :
     Hard:
     15:
     0.697980,0.850104,0.286351,0.447423,0.492166,546.000000,514.000000,32.000000,50.000000,0.000000,0.000000,0.697980,0.850104,0.286351,0.447423,0.492166,546.000000,514.000000,32.000000,50.000000,0.000000,0.000000:
0000
0000
0000
0000
,
0000
0000
0000
0000
,
0000
0000
0000
0000
,
0000
0000
0000
0000
,
0000
0000
0000
0000
0000
0100
0100
0100
,
0110
0010
1000
0000
0010
0100
0001
0000
,
0010
0100
1000
0000
0001
0010
0100
0000
,
1000
0010
0100
0001
0100
0010
1000
0100
,
0010
0001
0010
0000
0100
1000
0100
0000
1000
0001
1000
0001
2000
0000
0000
0000
,
3001
0000
0100
0000
0010
0000
0000
1000
0000
0001
0100
0001
0100
0000
0001
0000
,
0010
0000
0100
0000
1000
0000
0010
0100
0000
0001
0000
0100
0010
0000
1000
0000
,
1100
0000
0000
0000
0100
0000
0000
0010
0000
0001
0100
0001
0100
0000
0010
0000
,
1000
0000
0001
0000
0010
0000
0100
1000
0000
0001
0000
1000
0100
0000
0010
0000
,
0011
0000
0000
0000
0001
0000
0000
0100
0000
0010
1000
0010
1000
0000
0001
0000
,
0010
0000
0100
0000
1000
0000
0010
0100
0000
0001
0000
0100
0010
0000
1000
0000
,
1010
0010
0100
0001
0101
0100
0010
1000
,
0001
0000
0000
0000
0011
0000
0000
0110
0000
0000
1100
0000
0000
1010
0000
0000
,
0102
0000
0000
2000
0000
0000
0000
3003
,
0000
0000
1000
0000
0010
0000
0100
0000
0001
0000
0000
0010
0000
0000
0100
0000
,
2100
0000
0000
3002
0000
0000
0203
0000
,
0320
0000
0000
2030
0000
3100
0010
0001
,
0201
0000
0000
1000
0000
0000
0001
0000
,
0000
0310
1000
0100
0010
0001
0100
0010
,
1000
1000
0001
0001
0010
0010
0100
0100
,
1000
0010
1000
0010
0000
0100
0001
0000
0010
0000
0100
0000
1000
0000
0010
0000
,
0220
0000
0330
0000
0000
0000
0100
0001
0100
0000
0010
0000
1000
0000
0002
0000
,
0000
0000
0000
0000
0000
0000
0013
0100
0010
0000
0100
0000
1000
0000
0010
0000
,
0100
0001
0000
0010
0001
0000
1000
0001
0000
0010
0001
0000
0100
0000
0100
0000
,
0010
1000
0000
0100
1000
0000
0001
1000
0000
0100
1000
0000
0010
0000
0010
0000
,
0200
0000
0000
0000
0000
0000
0301
0010
0001
0000
1000
0000
0100
0000
0020
0000
,
0000
0000
0000
0000
0000
0000
0031
0100
0001
0000
1000
0000
0100
0000
0010
0000
,
0001
0100
0000
0010
0100
0000
1000
0100
0000
0010
0100
0000
0001
0000
0001
0000
,
1000
0010
0000
0100
0010
0000
0001
0010
0000
0100
0010
0000
1000
0000
1000
0000
,
0100
0010
0001
1000
0010
0100
0001
1000
,
0010
1000
0010
0000
0100
0001
0100
0000
0020
0000
0000
0000
0130
0000
0000
0000
,
1001
0000
0000
0000
,
0000
0000
0000
0000
,
0000
0000
0000
0000
,
0000
0000
0000
0000
,
1000
0000
0010
0000
0100
0000
0000
0101
0000
0000
0001
0000
1000
0000
0100
0000
,
0010
0000
0001
0000
0100
0000
0000
0110
0000
0000
0010
0000
1000
0000
0001
0000
,
0010
0000
0100
0000
1000
0000
0000
1010
0000
0000
0010
0000
0100
0000
0001
0000
,
0011
0000
0000
1100
0000
0000
1001
0000
0001
0000
0100
0000
0020
0000
0000
0000
,
1030
0000
0100
0000
0010
0000
0001
0100
0000
0010
0000
1000
0001
0000
0010
0000
,
0100
0000
1000
0000
0010
0000
0100
0001
0000
1000
0000
0100
0010
0000
0001
0000
,
0100
0000
1000
0000
0100
0000
0010
1000
0000
0100
0000
0010
0001
0000
1000
0000
,
0010
0000
0001
0000
0010
0000
0100
0001
0000
1000
0000
0100
0010
0000
0001
0000
,
0101
0000
0100
0000
0010
0000
1000
0001
0000
0010
0000
0100
0010
0000
0100
0000
,
1100
0000
1000
0000
0010
0000
0100
0001
0000
1000
0000
0100
0010
0000
0001
0000
,
0100
0100
0010
0010
1000
1000
0001
0001
,
0010
0100
0010
0100
1000
0001
1000
0001
0010
0100
0010
0100
1000
0001
1000
0001
,
0010
0100
1000
0010
0100
0001
1000
0100
,
0010
0002
0000
0013
0200
0000
0310
0002
0000
0013
0200
0000
1000
0000
1300
0000
,
1000
0010
0100
0001
1000
0100
0010
0001
,
0100
0020
0000
0130
0002
0000
0103
0020
0000
0130
0002
0000
0010
0000
0013
0000
,
0010
0100
1000
0001
0100
0010
0100
0001
,
1000
0200
0000
1300
0020
0000
1030
0200
0000
1300
0002
0000
0100
0000
0103
0000
,
0100
0010
1000
0100
0001
1000
0010
0001
,
0100
0000
0010
0000
1000
0000
0001
0010
0000
0100
1000
0100
1000
0000
1001
0000
,
0001
0100
1000
0100
0001
0010
0100
1000
,
0001
0100
0002
0000
1003
0010
2000
0000
3001
0100
0002
0000
0010
0000
0013
0000
,
0100
1000
0010
0001
0010
1000
0100
0010
,
0001
0010
0002
0000
1003
0100
2000
0000
3010
0100
0020
0000
1000
0000
1030
0000
,
0100
0010
0001
0100
1000
0001
0010
1000
,
0100
0010
0200
0000
1300
0010
2000
0000
3001
0100
0002
0000
1000
0000
1003
0000
,
0100
0100
0010
0010
0001
0001
1000
1000
,
0010
0100
0010
0100
0001
0000
1000
0000
0100
0010
0100
0010
0002
0000
0000
0000
,
2003
0000
0000
0020
0000
0000
0000
0000
,
0000
0000
0000
3030
,
0010
1000
0100
0010
,
0022
0033
2200
3300
,
2002
3003
0000
0220
0000
0000
0000
0330
,
0000
0000
0010
0000
1000
0000
0001
0000
0010
0000
0100
0000
1000
0000
0010
0100
,
0001
1000
0100
0001
1000
0010
0001
0100
,
0110
0000
0000
1010
0000
0000
0101
0000
0001
0000
0010
0000
0100
0000
1000
0000
,
1001
0000
0000
0220
0000
0000
0000
0000
,
0330
0000
0000
0000
;

//---------------dance-single - ----------------
#NOTES:
     dance-single:
     :
     Challenge:
     17:
     0.869280,0.999096,0.420578,0.787465,0.854578,680.000000,633.000000,47.000000,88.000000,0.000000,0.000000,0.869280,0.999096,0.420578,0.787465,0.854578,680.000000,633.000000,47.000000,88.000000,0.000000,0.000000:
0000
0000
0000
0000
,
1001
0000
0000
0000
,
0000
0000
0000
0000
,
0000
0000
0000
0000
,
0000
0000
0000
0000
0000
0000
0000
0000
0000
1000
0001
0100
0001
1000
0001
0100
,
0001
0010
0100
1000
0010
0100
0001
1000
,
0100
0010
0001
0100
0010
1000
0001
0010
,
0110
0100
1000
1000
0001
0001
0010
0010
,
0100
1000
0100
0010
0001
0010
0100
0010
0100
0000
1000
0010
0200
0000
0301
1000
,
0100
0000
1000
0000
0010
0000
0100
0001
0000
0010
0001
0010
0100
0000
1000
0000
,
0010
0000
0100
0000
0101
0000
1000
0100
0000
0100
0000
1000
0001
0000
0010
0000
,
0001
0000
0100
0000
0010
0000
1000
0100
0000
1000
0010
0100
0010
0000
1000
0000
,
0001
0000
0010
0000
0011
0000
1000
0100
0000
0100
0000
0010
0001
0000
0100
0000
,
0110
0000
0010
0000
1000
0000
0001
0010
0000
0100
0010
0100
1000
0000
0010
0000
,
0110
0000
0100
0000
0001
0000
1000
0010
0000
0010
0000
0100
0001
0000
1000
0000
,
1001
0001
0100
0100
0010
0010
1000
1000
,
2200
0000
3300
0000
1010
0000
0000
0011
0000
0000
0101
0000
0000
0110
0000
0000
,
2002
0000
3003
0220
0000
0000
0000
0000
,
0330
0000
0010
0000
1000
0000
0100
0000
0010
0000
0000
0011
0000
0000
1001
0000
,
1020
0000
0000
0230
0000
0000
0302
0000
,
2003
0000
0000
0000
0000
0000
3100
0000
0100
0010
0100
0010
0001
1000
0001
1000
,
0020
0000
0100
0230
0000
0000
0301
0000
,
0011
0000
0100
0000
1000
0000
0010
0000
0001
0000
1000
0000
0100
0000
0001
0010
,
0100
0100
1000
1000
0001
0001
0010
0010
,
0100
1000
0100
0020
0000
0031
0100
0000
0010
1000
0001
0100
0010
1000
0100
0010
,
0002
0000
0000
0000
0000
0000
0103
0010
1000
0000
0001
0000
0100
0000
2000
0000
,
0000
0000
0000
0000
0000
0000
3100
0001
0010
0001
0010
0001
0010
0100
0010
0100
,
1000
0010
0100
0000
0001
0100
0010
0000
1000
0010
0100
0001
2000
0000
3001
0000
,
0001
0010
0100
0000
1000
0100
0010
0000
0001
0010
0100
1000
0002
0000
1003
0000
,
1020
0000
0000
0000
0000
0000
0130
0001
0010
0000
1000
0000
0010
0000
0002
0000
,
0000
0000
0000
0000
0000
0000
0103
0010
0100
0010
1000
0100
1000
0100
0010
0001
,
0100
0010
1000
0000
0010
0100
0001
0000
0010
0100
1000
0010
0200
0000
0301
0000
,
0001
0010
0100
0000
1000
0100
0010
0000
0001
1000
0010
0100
0002
0000
1003
0000
,
1000
1000
0010
0010
0001
0001
0100
0100
,
1000
0010
0100
0001
0010
0100
1000
0010
0200
0000
0000
0000
0020
0000
0330
0000
,
1001
0000
0000
0000
,
0000
0000
0000
0000
,
0000
0000
0000
0000
,
0000
0000
0000
0000
,
1000
0000
0010
0000
0001
0000
0010
1000
0000
0100
0000
0001
0100
0000
1000
0000
,
1010
0000
0001
0000
0100
0000
1000
0100
0000
0001
0000
0010
1000
0000
0010
0000
,
0011
0000
1000
0000
0100
0000
0001
0100
0000
1000
0000
0010
0100
0000
0001
0000
,
0011
0000
0000
1010
0000
0000
1100
0000
0100
0010
0001
1000
0020
0000
0000
0000
,
0130
0000
0001
0000
0011
0000
1000
0100
0000
0100
0000
0001
1000
0000
0010
0000
,
0100
0000
0010
0000
1010
0000
0001
0100
0000
0100
0000
1000
0001
0000
0100
0000
,
0010
0000
0100
0000
0101
0000
1000
0010
0000
0010
0000
0001
0100
0000
0010
0000
,
1000
0000
0100
0000
1100
0000
0001
0010
0000
0010
0000
1000
0100
0000
1000
0000
,
1001
0000
0001
0000
0100
0000
0010
1000
0000
1000
0000
0100
0001
0000
0010
0000
,
0110
0000
0100
0000
1000
0000
0010
0001
0000
0001
0000
0100
1000
0000
0010
0000
,
0110
0100
0101
0001
1001
1000
1010
0010
,
0100
0001
0100
0001
1000
0010
1000
0010
0100
0001
0010
0100
1000
0010
0100
0001
,
1000
0100
0020
0000
0130
1000
0020
0000
1030
0100
0020
0000
0130
1000
0020
0000
,
0130
0001
0000
0010
0100
0000
1000
0010
0000
0001
0010
0000
1010
0000
0101
0000
,
0001
0010
0200
0000
0310
0001
0200
0000
0301
0010
0200
0000
0310
0001
0200
0000
,
0310
1000
0000
0100
0001
0000
1000
0010
0000
0100
1000
0000
1100
0000
0011
0000
,
0001
0100
0020
0000
0031
0010
0200
0000
0310
1000
0200
0000
1300
0100
0020
0000
,
0031
0100
0000
1000
0001
0000
0010
1000
0000
0100
0010
0000
0110
0000
1001
0000
,
1000
1000
0010
0010
0001
0001
0100
0100
,
1000
0010
0100
0000
0001
0100
0010
0000
1000
0100
0010
0001
0100
1000
0100
0001
,
0010
0100
2000
0000
3010
0100
2000
0000
3100
0010
2000
0000
3100
0010
2000
0000
,
3010
0002
0203
0320
2030
3020
0230
0302
0023
0230
0320
0032
1000
0000
1003
0000
,
0010
0100
0002
0000
0013
0100
0002
0000
0103
0010
0002
0000
0103
0010
0002
0000
,
0013
2000
3200
0320
0032
0023
0230
2300
3020
0230
0320
2030
0001
0000
3001
0000
,
0001
1000
0200
0000
0301
0100
2000
0000
3001
1000
0020
0000
0031
0010
2000
0000
,
3100
0020
0032
0203
0320
2030
3200
0302
0203
2300
3002
0203
0010
0000
0310
0000
,
1000
1000
0100
0100
0001
0001
0010
0010
,
1000
0100
1000
0100
0001
0100
1000
0010
0001
0010
1000
0100
0010
1000
0010
0001
,
0200
0000
0000
0020
0000
0000
0300
0000
,
0100
1000
0100
0001
,
1000
0001
0100
1030
,
0202
0000
0000
0000
0003
0000
0000
0000
0310
0000
0010
1000
0100
0010
0001
1000
,
0100
0010
0100
1001
0001
0100
1000
0001
,
0010
0000
0110
0000
1000
0000
0001
0000
1001
0000
0010
0000
0100
0000
1000
0010
,
1000
0001
0100
1000
0001
0010
1000
0100
,
0101
0000
0000
1010
0000
0000
1000
0100
0010
0001
0100
1000
0001
0010
1000
0100
,
0020
0000
0000
0002
0000
0000
0000
0000
,
0000
0000
0030
0000
,
0003
0000
0000
0000
;

//---------------dance-double - ----------------
#NOTES:
     dance-double:
     :
     Challenge:
     17:
     0.846269,0.999096,0.393732,0.348990,0.787465,662.000000,618.000000,44.000000,39.000000,0.000000,0.000000,0.846269,0.999096,0.393732,0.348990,0.787465,662.000000,618.000000,44.000000,39.000000,0.000000,0.000000:
// measure 0
00000000
00000000
00000000
00000000
,  // measure 1
00011000
00000000
00000000
00000000
,  // measure 2
00000000
00000000
00000000
00000000
,  // measure 3
00000000
00000000
00000000
00000000
,  // measure 4
00000000
00000000
00000000
00000000
00000000
00000000
00000000
00000000
00000000
00001000
00010000
00001000
00010000
00001000
00010000
00001000
,  // measure 5
00010000
00000100
00001000
00000010
00010000
00001000
00100000
00010000
,  // measure 6
01000000
00001000
00010000
00100000
00010000
00001000
00000100
00001000
,  // measure 7
00011000
00100000
01000000
00010000
00001000
00000010
00000100
00010000
,  // measure 8
00001000
00100000
00001000
00100000
00010000
01000000
00100000
01000000
00100000
00000000
10000000
01000000
00200000
00000000
00310000
01000000
,  // measure 9
00001000
00000000
00010000
00000000
00000100
00000000
00001000
00000010
00000000
00000100
00000010
00000100
00000001
00000000
00000010
00000000
,  // measure 10
00000100
00000000
00001000
00000000
00001100
00000000
00000100
00010000
00000000
00001000
00000000
00100000
00010000
00000000
00100000
00000000
,  // measure 11
01000000
00000000
10000000
00000000
00100000
00000000
01000000
00010000
00000000
00100000
00010000
00100000
00001000
00000000
00010000
00000000
,  // measure 12
00000100
00000000
00001000
00000000
00001010
00000000
00000010
00000100
00000000
00000001
00000000
00001000
00000100
00000000
00010000
00000000
,  // measure 13
00011000
00000000
00001000
00000000
00100000
00000000
00010000
01000000
00000000
00100000
01000000
00100000
10000000
00000000
01000000
00000000
,  // measure 14
01100000
00000000
00100000
00000000
00010000
00000000
01000000
00001000
00000000
00010000
00000000
00000100
00001000
00000000
00000001
00000000
,  // measure 15
00000101
00000100
00001000
00010000
00100000
10000000
01000000
00100000
,  // measure 16
02200000
00000000
03300000
00000000
10010000
00000000
00000000
01001000
00000000
00000000
00011000
00000000
00000000
00010100
00000000
00000000
,  // measure 17
00002020
00000000
00003030
00000202
00000000
00000000
00000000
00000000
,  // measure 18
00000303
00000000
00000001
00000000
00000010
00000000
00001000
00000000
00010000
00000000
00000000
00010010
00000000
00000000
00101000
00000000
,  // measure 19
00120000
00000000
00000000
02030000
00000000
00000000
03200000
00000000
,  // measure 20
20300000
00000000
00000000
00000000
00000000
00000000
31000000
00000000
01000000
00010000
00001000
00010000
00001000
00010000
00001000
00010000
,  // measure 21
00000020
00000000
00001000
00002030
00000000
00000000
00003001
00000000
,  // measure 22
00000101
00000000
00000100
00000000
00001000
00000000
00010000
00000000
00001000
00000000
00010000
00000000
01000000
00000000
10000000
00100000
,  // measure 23
01000000
00010000
00100000
01000000
00010000
00001000
00000010
00000100
,  // measure 24
00001000
00000001
00001000
00000100
00000000
00010000
00001000
00000000
00100000
00010000
00100000
00010000
00100000
01000000
10000000
00100000
,  // measure 25
02000000
00000000
00000000
00000000
00000000
00000000
03001000
00010000
00001000
00000000
00000100
00000000
00000010
00000000
00000200
00000000
,  // measure 26
00000000
00000000
00000000
00000000
00000000
00000000
00000301
00000010
00000100
00001000
00000100
00010000
00001000
00010000
00001000
00010000
,  // measure 27
00100000
01000000
00100000
00000000
10000000
01000000
00100000
00000000
01000000
00100000
00010000
00100000
00002000
00000000
00013000
00000000
,  // measure 28
00010000
00001000
00010000
00000000
00000100
00001000
00000010
00000000
00000100
00000001
00000010
00000100
00002000
00000000
00003001
00000000
,  // measure 29
00000201
00000000
00000000
00000000
00000000
00000000
00000310
00001000
00000010
00000000
00010000
00000000
00001000
00000000
00200000
00000000
,  // measure 30
00000000
00000000
00000000
00000000
00000000
00000000
01300000
10000000
01000000
10000000
00100000
01000000
00100000
01000000
00010000
00100000
,  // measure 31
00001000
00010000
00000010
00000000
00010000
00001000
00100000
00000000
00001000
00010000
00000100
00010000
00002000
00000000
01003000
00000000
,  // measure 32
01000000
00010000
00100000
00000000
00001000
00010000
00000100
00000000
00001000
00000100
00000010
00000001
00002000
00000000
00003010
00000000
,  // measure 33
00000010
00010000
00100000
00001000
00000100
00010000
01000000
10000000
,  // measure 34
00100000
01000000
00010000
00100000
00001000
00010000
00000100
00001000
00000020
00000000
00000000
00000000
00000200
00000000
00000330
00000000
,  // measure 35
00001001
00000000
00000000
00000000
,  // measure 36
00000000
00000000
00000000
00000000
,  // measure 37
00000000
00000000
00000000
00000000
,  // measure 38
00000000
00000000
00000000
00000000
,  // measure 39
10010000
00000000
00010000
00000000
10000000
00000000
01000000
00100000
00000000
01000000
00000000
00010000
00001000
00000000
00010000
00000000
,  // measure 40
00011000
00000000
00000100
00000000
00001000
00000000
00000010
00000100
00000000
00000001
00000000
00001000
00000100
00000000
00000010
00000000
,  // measure 41
00000011
00000000
00001000
00000000
00000010
00000000
00010000
00001000
00000000
00100000
00000000
01000000
10000000
00000000
00100000
00000000
,  // measure 42
01100000
00000000
00000000
01001000
00000000
00000000
00011000
00000000
00010000
00000100
00001000
00000100
00002000
00000000
00000000
00000000
,  // measure 43
00003001
00000000
00000100
00000000
00000110
00000000
00000010
00010000
00000000
00001000
00000000
00100000
01000000
00000000
10000000
00000000
,  // measure 44
00100000
00000000
01000000
00000000
01100000
00000000
00010000
10000000
00000000
01000000
00000000
00100000
00001000
00000000
00010000
00000000
,  // measure 45
00000100
00000000
00001000
00000000
00001100
00000000
00000001
00000100
00000000
00000010
00000000
00010000
00001000
00000000
00100000
00000000
,  // measure 46
01000000
00000000
10000000
00000000
10100000
00000000
00010000
00100000
00000000
01000000
00000000
00010000
00001000
00000000
00000010
00000000
,  // measure 47
00000110
00000000
00000100
00000000
00000010
00000000
00000001
00000100
00000000
00001000
00000000
00010000
00000100
00000000
00001000
00000000
,  // measure 48
00001010
00000000
00010000
00000000
00001000
00000000
00100000
01000000
00000000
10000000
00000000
00100000
00010000
00000000
00001000
00000000
,  // measure 49
01001000
00010000
00010100
00001000
00101000
00010000
00010010
00001000
,  // measure 50
00100000
00010000
00100000
00010000
01000000
00001000
01000000
00001000
00010000
00000100
00010000
00000100
00001000
00000010
00001000
00000010
,  // measure 51
00000100
00000001
00000010
00000000
00001000
00000000
00010000
00000000
01000000
10000000
00100000
00000000
00010000
00000000
00001000
00000000
,  // measure 52
00000100
00000001
00000000
00000100
00000010
00000000
00000100
00001000
00000000
00010000
00001000
00000000
00200000
00000000
01300000
00000000
,  // measure 53
01000000
10000000
00100000
00000000
00010000
00000000
00001000
00000000
00000010
00000001
00000100
00000000
00001000
00000000
00010000
00000000
,  // measure 54
00100000
10000000
00000000
00100000
01000000
00000000
00100000
00010000
00000000
00001000
00010000
00000000
00000020
00000000
00000130
00000000
,  // measure 55
00000100
00000001
00000010
00000000
00001000
00000000
00010000
00000000
01000000
10000000
00100000
00000000
00010000
00000000
00001000
00000000
,  // measure 56
00100000
01000000
00000000
00010000
00001000
00000000
00000010
00000100
00000000
00010000
00001000
00000000
01001000
00000000
00010100
00000000
,  // measure 57
00000100
00000010
00001000
00100000
00010000
00000100
00001000
01000000
,  // measure 58
00100000
10000000
01000000
00000000
00100000
00010000
01000000
00000000
00001000
00010000
00001000
00010000
00000100
00001000
00000100
00000010
,  // measure 59
00000001
00000100
00002000
00000000
00013000
00000000
00001000
00000000
00000100
00001000
00020000
00000000
01030000
00000000
00010000
00000000
,  // measure 60
00001000
00001000
00000010
00000000
00001000
00001000
00010000
00000000
00001000
00001000
00000010
00001000
00001000
00010000
01000000
00000000
,  // measure 61
10000000
01000000
00020000
00000000
00031000
00000000
00010000
00000000
01000000
00010000
00002000
00000000
00003100
00000000
00001000
00000000
,  // measure 62
00010000
00010000
00100000
00000000
00010000
00010000
00001000
00000000
00010000
00010000
00100000
00010000
00010000
00001000
00000100
00000000
,  // measure 63
00000001
00000010
00000200
00000000
00000310
00000000
00000100
00000000
00001000
00010000
00200000
00000000
00310000
00000000
00100000
00000000
,  // measure 64
01000000
01000000
10000000
00000000
01000000
01000000
00010000
00000000
01000000
01000000
10000000
01000000
01000000
00010000
00100000
00000000
,  // measure 65
01000000
00010000
00000100
00001000
00100000
00010000
00000010
00000100
,  // measure 66
00000001
00000010
00000001
00000010
00000100
00001000
00000100
00010000
00001000
00100000
00010000
00100000
01000000
10000000
01000000
10000000
,  // measure 67
00020000
00000000
00000000
02000000
00000000
00000000
00030000
00000000
,  // measure 68
00100000
10000000
00100000
00010000
,  // measure 69
03002000
00100000
00010000
00003010
,  // measure 70
00000220
00000000
00000000
00000000
00000030
00000000
00000000
00000000
00001300
00000000
00001000
00000001
00000100
00001000
00010000
00100000
,  // measure 71
10000000
01000000
00100000
00011000
00000100
00000010
00000001
00000100
,  // measure 72
00001000
00000000
00011000
00000000
00010000
00000000
00001000
00000000
00011000
00000000
00010000
00000000
00100000
00000000
10000000
01000000
,  // measure 73
00100000
01000000
00010000
00001000
00000010
00000100
00000010
00000001
,  // measure 74
00000101
00000000
00000000
00001100
00000000
00000000
00001000
00010000
00100000
00010000
00001000
00010000
00100000
10000000
01000000
00100000
,  // measure 75
00020000
00000000
00000000
00002000
00000000
00000000
00000000
00000000
,  // measure 76
00000000
00000000
00000000
00000000
,  // measure 77
00033000
00000000
00000000
00000000
;

//---------------dance-double - ----------------
#NOTES:
     dance-double:
     :
     Hard:
     15:
     0.680083,0.748092,0.304248,0.393732,0.456372,532.000000,498.000000,34.000000,44.000000,0.000000,0.000000,0.680083,0.748092,0.304248,0.393732,0.456372,532.000000,498.000000,34.000000,44.000000,0.000000,0.000000:
00000000
00000000
00000000
00000000
,
00000000
00000000
00000000
00000000
,
00000000
00000000
00000000
00000000
,
00000000
00000000
00000000
00000000
,
00000000
00000000
00000000
00000000
00000000
00001000
00010000
00001000
,
00011000
00010000
00000010
00000000
00010000
00001000
00100000
00000000
,
00001000
00010000
00000100
00000000
00010000
00001000
01000000
00000000
,
00001000
00010000
00100000
00010000
00001000
00000100
00001000
00010000
,
00100000
00000000
10000000
00000000
01000000
00000000
00010000
00000000
00001000
00010000
00001000
00010000
00002000
00000000
00000000
00000000
,
00003010
00000000
00000010
00000000
00000001
00000000
00000000
00000100
00000000
00000100
00000000
00000010
00001000
00000000
00000100
00000000
,
00010000
00000000
00001000
00000000
00100000
00000000
00010000
01000000
00000000
00100000
00000000
01000000
00010000
00000000
10000000
00000000
,
11000000
00000000
00000000
00000000
01000000
00000000
00000000
10000000
00000000
00100000
00000000
00100000
01000000
00000000
00010000
00000000
,
00100000
00000000
01000000
00000000
00010000
00000000
00001000
00100000
00000000
00010000
00000000
00100000
00001000
00000000
00010000
00000000
,
00010010
00000000
00000000
00000000
00000010
00000000
00000000
00001000
00000000
00000100
00000000
00000100
00000010
00000000
00000001
00000000
,
00000100
00000000
00001000
00000000
00010000
00000000
00100000
01000000
00000000
00010000
00000000
01000000
00100000
00000000
10000000
00000000
,
11000000
01000000
00010000
00001000
00011000
00010000
00001000
00000010
,
00000011
00000000
00000000
00000000
00000101
00000000
00000000
00001100
00000000
00000000
00011000
00000000
00000000
00110000
00000000
00000000
,
20100000
00000000
00000000
02000000
00000000
00000000
00000000
33000000
,
00000000
00000000
01000000
00000000
00100000
00000000
00010000
00000000
00100000
00000000
00000000
00001000
00000000
00000000
00010000
00000000
,
00010020
00000000
00000000
00002030
00000000
00000000
00003200
00000000
,
00020300
00000000
00000000
02030000
00000000
13000000
00100000
00010000
,
00012000
00000000
00000000
00003020
00000000
00000000
00000032
00000000
,
00000000
00001003
00000100
00000010
00000001
00000100
00001000
00010000
,
00100000
00100000
10000000
10000000
01000000
01000000
00100000
00100000
,
00010000
01000000
00010000
01000000
00000000
00001000
00010000
00000000
00001000
00000000
00000100
00000000
00000001
00000000
00000010
00000000
,
00000220
00000000
00000330
00000000
00000000
00000000
00000100
00001000
00000100
00000000
00010000
00000000
00001000
00000000
02000000
00000000
,
00000000
00000000
00000000
00000000
00000000
00000000
03100000
10000000
00100000
00000000
01000000
00000000
00010000
00000000
00100000
00000000
,
01000000
00010000
00000000
00001000
00010000
00000000
01000000
00010000
00000000
00001000
00010000
00000000
00001000
00000000
00001000
00000000
,
00000010
00001000
00000000
00010000
00001000
00000000
00000010
00001000
00000000
00010000
00001000
00000000
00010000
00000000
00010000
00000000
,
00000200
00000000
00000000
00000000
00000000
00000000
00000310
00000001
00000010
00000000
00000100
00000000
00001000
00000000
00000020
00000000
,
00000000
00000000
00000000
00000000
00000000
00000000
00010030
00001000
00010000
00000000
01000000
00000000
10000000
00000000
00100000
00000000
,
00010000
00001000
00000000
00010000
00000010
00000000
00010000
00001000
00000000
00010000
00000100
00000000
00010000
00000000
00010000
00000000
,
00001000
00010000
00000000
00001000
01000000
00000000
00001000
00010000
00000000
00001000
00100000
00000000
00001000
00000000
00001000
00000000
,
00010000
00000100
00000010
00000001
00000100
00001000
00010000
00100000
,
10000000
01000000
00100000
00000000
01000000
00100000
00010000
00000000
00100000
00000000
00001000
00000000
00022000
00000000
00033000
00000000
,
00011000
00000000
00000000
00000000
,
00000000
00000000
00000000
00000000
,
00000000
00000000
00000000
00000000
,
00000000
00000000
00000000
00000000
,
00010000
00000000
00001000
00000000
00000100
00000000
00000000
00000101
00000000
00000000
00000001
00000000
00000010
00000000
00000100
00000000
,
00001000
00000000
00000010
00000000
00010000
00000000
00000000
00011000
00000000
00000000
00001000
00000000
00100000
00000000
00010000
00000000
,
01000000
00000000
00100000
00000000
10000000
00000000
00000000
11000000
00000000
00000000
01000000
00000000
00010000
00000000
00001000
00000000
,
00101000
00000000
00000000
00010010
00000000
00000000
00011000
00000000
00001000
00000000
00000100
00000000
00000002
00000000
00000000
00000000
,
00000013
00000000
00000100
00000000
00000010
00000000
00001000
00010000
00000000
00010000
00000000
00001000
00100000
00000000
00010000
00000000
,
01000000
00000000
00100000
00000000
10000000
00000000
01000000
00100000
00000000
00100000
00000000
00010000
01000000
00000000
00001000
00000000
,
00010000
00000000
00001000
00000000
00000100
00000000
00000010
00001000
00000000
00001000
00000000
00000001
00000100
00000000
00001000
00000000
,
00010000
00000000
00100000
00000000
10000000
00000000
01000000
00100000
00000000
00100000
00000000
00010000
10000000
00000000
00100000
00000000
,
01100000
00000000
01000000
00000000
00010000
00000000
00100000
00001000
00000000
00010000
00000000
00010000
00000100
00000000
00000010
00000000
,
00000110
00000000
00000100
00000000
00001000
00000000
00000001
00000010
00000000
00000010
00000000
00000100
00010000
00000000
00001000
00000000
,
00100000
01000000
00010000
00001000
00000010
00000100
00010000
00001000
,
00100000
00010000
00100000
00010000
01000000
00000000
00001000
00000000
00010000
00000100
00010000
00000100
00001000
00000000
00000001
00000000
,
00000100
00001000
00010000
00100000
10000000
01000000
00100000
00010000
,
02000000
00000000
00000000
03002000
00000000
00000000
00023000
00000000
00000000
00030200
00000000
00000000
00000010
00000000
00000310
00000000
,
00000001
00000100
00001000
00010000
00100000
10000000
01000000
00100000
,
00020000
00000000
00000000
02030000
00000000
00000000
03002000
00000000
00000000
00023000
00000000
00000000
00000100
00000000
00030100
00000000
,
00000010
00000001
00001000
00000010
00010000
00100000
10000000
01000000
,
00200000
00000000
00000000
00302000
00000000
00000000
00023000
00000000
00000000
00030200
00000000
00000000
00001000
00000000
00001300
00000000
,
00000001
00000100
00001000
01000000
00010000
00100000
01000000
10000000
,
00100000
00000000
00010000
00000000
00000010
00000000
00001000
00000100
00000000
00010000
00001000
00010000
00001000
00000000
00011000
00000000
,
00010000
00000100
00000010
00001000
00000010
00000001
00000100
00001000
,
00010000
00001000
00100000
00000000
00001000
00010000
00000010
00000000
00010000
00001000
01000000
00000000
00010000
00100000
00010000
00100000
,
01000000
10000000
00100000
00010000
00100000
01000000
00010000
00100000
,
01000000
00010000
00001000
00000000
00010000
00001000
00000100
00000000
00001000
00000100
00000010
00000000
00000100
00000001
00000100
00000001
,
00000010
00001000
00010000
00000100
00000010
00001000
00100000
00010000
,
10000000
00100000
01000000
00000000
00010000
00100000
01000000
00000000
10000000
00010000
01000000
00000000
00100000
00010000
00100000
00010000
,
00001000
00000010
00001000
00010000
00100000
00010000
00001000
00000100
,
00000001
00000010
00000100
00000000
00010000
00000000
00001000
00000000
00100000
01000000
10000000
00000000
00200000
00000000
00000000
00000000
,
00320000
00000000
00000000
00002000
00000000
00000000
00000000
00000000
,
00000000
00000000
00000000
00033000
,
00001000
00000100
00000001
00000010
,
00000220
00000330
00002002
00003003
,
00020020
00030030
00000000
00202000
00000000
00000000
00000000
00303000
,
00000000
00000000
00100000
00000000
01000000
00000000
10000000
00000000
00100000
00000000
00010000
00000000
00001000
00000000
00000010
00000001
,
00000100
00001000
00010000
00100000
10000000
01000000
00100000
00010000
,
01010000
00000000
00000000
00101000
00000000
00000000
00010010
00000000
00010000
00000000
00001000
00000000
00000100
00000000
00000001
00000000
,
00001001
00000000
00000000
00000220
00000000
00000000
00000000
00000000
,
00000330
00000000
00000000
00000000
;

//---------------dance-double - ----------------
#NOTES:
     dance-double:
     :
     Medium:
     12:
     0.476825,0.612075,0.143175,0.465320,0.049217,373.000000,357.000000,16.000000,52.000000,0.000000,0.000000,0.476825,0.612075,0.143175,0.465320,0.049217,373.000000,357.000000,16.000000,52.000000,0.000000,0.000000:
00000000
00000000
00000000
00000000
,
00000000
00000000
00000000
00000000
,
00000000
00000000
00000000
00000000
,
00000000
00000000
00000000
00000000
,
00000000
00000000
00000000
00000000
,
00001000
00010000
00000010
00010000
,
00001000
01000000
00001000
00011000
,
00010000
00001000
00100000
00000000
00001000
00010000
00000100
00000000
,
00010000
00001000
00100000
00001000
00020000
00000000
00030020
00000000
,
00001030
00001000
00000100
00000010
,
00000001
00000100
00001000
00010000
,
00100000
10000000
01000000
00100000
,
00010000
01000000
00001000
00010000
,
00011000
00001000
00000100
00000001
,
00001001
00001000
00000010
00010000
,
00011000
00001000
00100000
00010000
,
10010000
00000000
00000000
00000000
10000000
00000000
00000000
01000000
00000000
00000000
00100000
00000000
00000000
00010000
00000000
00000000
,
02010000
00000000
00000000
00002000
00000000
00000000
00000000
03003000
,
00000000
00000000
00001000
00000000
00010000
00000000
00000100
00000000
00001000
00000000
00000000
00000100
00000000
00000000
00000010
00000000
,
00000002
00000000
00000000
00000203
00000000
00000000
00002300
00000000
,
00023000
00000000
00000000
01030000
00000000
01000000
10000000
00100000
,
02000000
00000000
00000000
03002000
00000000
00000000
00023000
00000000
,
00000000
00030100
00001000
00000100
00000010
00000002
00000000
00001003
,
00002000
00000000
00000000
00003010
00010000
00001000
00100000
00010000
,
20000000
00000000
00000000
31000000
00100000
00010000
01000000
00001000
,
00022000
00033000
00000000
00010000
00000100
00001000
00000001
00000200
,
00000000
00000000
00000000
00000310
00010000
00001000
00100000
00010000
,
02000000
00000000
03100000
00000000
00100000
00010000
00001000
00000100
,
00000020
00000000
00001030
00000000
00001000
00000100
00000010
00000001
,
00002000
00000000
00000000
00003010
00010000
00001000
00100000
00020000
,
00000000
00000000
00000000
10030000
01000000
00100000
00010000
01000000
,
00002000
00000000
00013000
00000000
00010000
00000100
00001000
00000001
,
00000200
00000000
00000310
00000000
00000010
00010000
00001000
00100000
,
00010000
01000000
00010000
01000000
00001000
00010000
00001000
00010000
,
00000100
00001000
00000010
00010000
00002000
00000000
00013000
00000000
,
00011000
00000000
00000000
00000000
,
00000000
00000000
00000000
00000000
,
00000000
00000000
00000000
00000000
,
00000000
00000000
00000000
00000000
,
00011000
00000000
00010000
01000000
00000000
01000000
00010000
00000000
,
00011000
00000000
00001000
00000100
00000000
00000100
00001000
00000000
,
00011000
00000000
00010000
00100000
00000000
00100000
00010000
00000000
,
00001000
00000000
00000000
00001000
00000000
00000000
00001000
00000000
00010000
00000000
00001000
00000000
00000200
00000000
00000000
00000000
,
00000301
00000000
00000001
00000000
00000010
00000000
00000000
00001000
00000000
00000000
00010000
00000000
00001000
00000000
00010000
00000000
,
00000000
00000000
01000000
00000000
01000000
00000000
00000000
10000000
00000000
00000000
00100000
00000000
01000000
00000000
00100000
00000000
,
00000000
00000000
00010000
00000000
00010000
00000000
00000000
00001000
00000000
00000000
00000100
00000000
00000001
00000000
00000010
00000000
,
00000000
00000000
00000100
00000000
00000100
00000000
00000000
00010000
00000000
00000000
00001000
00000000
00001000
00000000
00100000
00000000
,
00110000
00000000
00010000
00000000
10000000
00000000
00000000
01000000
00000000
00000000
10000000
00000000
00010000
00000000
01000000
00000000
,
00001000
00000000
00010000
00000000
00001000
00000000
00000000
00100000
00000000
00000000
00010000
00000000
01000000
00000000
00001000
00000000
,
00010000
00000100
00010000
00000100
00001000
00000010
00001000
00000010
,
00000100
00000001
00000010
00000100
00010000
00001000
00100000
01000000
,
20000000
00000000
30200000
00000000
00310000
00001000
00000100
00000000
,
00000002
00000000
00000023
00000000
00001030
00010000
01000000
00000000
,
20000000
00000000
30020000
00000000
01030000
00001000
00010000
00000000
,
00000200
00000000
00000320
00000000
00000031
00000100
00001000
00000000
,
00020000
00000000
00230000
00000000
10300000
01000000
00100000
00000000
,
00002000
00000000
00023000
00000000
00030100
00000010
00000001
00000000
,
00001000
00000010
00010000
00000000
00001000
00100000
00010000
00000000
,
01000000
00001000
00010000
00000100
00001000
00000010
00010000
00001000
,
00100000
00010000
01000000
00100000
10000000
01000000
00100000
00010000
,
02000000
03002000
00023000
00030100
,
00000100
00001000
00000010
00010000
00001000
00100000
00010000
01000000
,
00200000
00320000
00032000
00003100
,
00000100
00000001
00000010
00000100
00000010
00001000
00010000
00000000
,
00001000
00010000
01000000
00100000
01000000
10000000
00100000
00000000
,
00010000
00001000
00100000
00001000
00010000
00000010
00010000
00001000
,
00100000
00010000
01000000
00100000
00010000
00001000
00000100
00000010
,
00002000
00000000
00000000
00000002
00000000
00000000
00000000
00000000
,
00000000
00000000
00000000
00003003
,
00000001
00000100
00001000
00010000
,
00200000
00000000
20300000
00000000
,
32000000
00000000
00000000
00200000
00000000
00000000
00000000
03300000
,
00000000
00100000
00010000
01000000
00100000
00020000
00000000
00031000
,
00011000
00000000
00001000
00000100
00000001
00000010
00000100
00001000
,
00000010
00000000
00000000
00010010
00000000
00000000
00101000
00000000
00100000
00000000
01000000
00000000
10000000
00000000
00100000
00000000
,
00010000
00000000
00000000
00022000
00000000
00000000
00000000
00000000
,
00033000
00000000
00000000
00000000
;
