#TITLE:Underworld ft. Skizzo (PIU Edit.);
#SUBTITLE:;
#ARTIST:MonstDeath vs Neutral Moon;
#TITLETRANSLIT:;
#SUBTITLETRANSLIT:;
#ARTISTTRANSLIT:;
#GENRE:VARIETY;
#CREDIT:MUINELIM;
#BANNER:Underworld ft. Skizzo (PIU Edit.).png;
#BACKGROUND:Underworld ft. Skizzo (PIU Edit.)-bg.png;
#LYRICSPATH:;
#CDTITLE:;
#MUSIC:Underworld ft. Skizzo (PIU Edit.).ogg;
#OFFSET:0.020000;
#SAMPLESTART:55.646923;
#SAMPLELENGTH:13.874741;
#SELECTABLE:YES;
#DISPLAYBPM:190.000000;
#BPMS:0.000000=190.000000
;
#STOPS:48.000000=1.578946,
163.000000=1.578949
;
#BGCHANGES:;
#KEYSOUNDS:;
#ATTACKS:;

//---------------dance-single - ----------------
#NOTES:
     dance-single:
     :
     Beginner:
     4:
     0.204779,0.263719,0.018378,0.110266,0.000000,156.000000,154.000000,2.000000,12.000000,0.000000,0.000000,0.204779,0.263719,0.018378,0.110266,0.000000,156.000000,154.000000,2.000000,12.000000,0.000000,0.000000:
0000
0000
0000
0000
,
0000
0000
0000
0000
,
0000
0000
0000
0000
,
0000
0000
0000
0000
,
1000
0000
1000
0000
,
1000
0000
1000
0000
,
0001
0000
0001
0000
,
0001
0000
0001
0000
,
1000
0000
1000
0000
,
0001
0000
0001
0000
,
1000
0000
0001
0000
,
1000
1000
2000
0000
,
3000
0000
0000
0001
,
0000
0001
0000
0100
,
0000
0100
0000
0010
,
0020
0030
0000
0000
,
0020
0030
0000
1000
,
0000
1000
0000
0010
,
0000
0010
0000
0100
,
0000
0100
0000
0001
,
0000
0001
0000
1000
,
0000
0100
0000
0010
,
0000
0001
0000
0010
,
0000
0100
0000
1000
,
1000
1000
0000
1001
,
0000
0000
0000
0000
,
0000
0000
0000
0002
,
0000
0003
0000
2000
,
0000
3000
0000
1001
,
0000
0000
0000
0000
,
0000
0000
0000
1000
,
1000
0000
0000
0001
,
0001
0000
0000
1000
,
0000
0100
0000
1000
,
0000
0100
0000
0010
,
0000
0001
0000
0010
,
0000
0001
0000
0100
,
0000
0010
0000
0100
,
0000
0100
0000
0010
,
0000
0010
0000
0100
,
0100
0200
0000
0300
,
0020
0030
0010
0010
,
0010
0000
1000
0000
,
0001
0000
0100
0000
,
0010
0100
0010
0000
,
0100
0100
0100
0000
,
0001
0000
1000
0000
,
0010
0000
0100
0000
,
0001
0000
1000
1000
,
1000
0000
0001
0000
,
0010
0000
0100
0000
,
1000
0000
0010
0000
,
0100
0000
0001
1000
,
0001
0000
0100
0100
,
0100
0000
0010
0000
,
1000
0000
0001
0000
,
0010
0000
0100
0000
,
1000
0001
2000
0000
,
0000
0000
0000
0000
,
3000
0000
0002
0000
,
0000
0000
0000
0000
,
0003
0000
1000
0000
,
0100
0000
0010
0000
,
0001
0000
1000
0000
,
0100
0000
0020
0000
,
0030
0000
0001
0001
,
0001
0000
0100
0100
,
0100
0000
0010
0010
,
0010
0000
1000
1000
,
1000
0000
0001
0001
,
0001
0000
0010
0010
,
0010
0000
0100
0100
,
0000
0000
0200
0000
,
0300
0000
1000
0000
,
0001
0000
1000
0000
,
0010
0000
0100
0000
,
0001
0000
1000
0000
,
0001
0000
0100
0000
,
0010
0000
1000
0000
,
0100
0000
0010
0000
,
0001
0000
1000
0000
,
0010
0100
0020
0000
,
0030
0000
0000
0000
;

//---------------dance-single - ----------------
#NOTES:
     dance-single:
     :
     Easy:
     8:
     0.342611,0.452089,0.137832,0.147021,0.000000,261.000000,246.000000,15.000000,16.000000,0.000000,0.000000,0.342611,0.452089,0.137832,0.147021,0.000000,261.000000,246.000000,15.000000,16.000000,0.000000,0.000000:
0000
0000
0000
0000
,
0000
0000
0000
0000
,
0000
0000
0000
0000
,
0000
0000
0000
0000
,
1000
0000
1000
0000
,
1000
1000
1000
0000
,
0001
0000
0001
0000
,
0001
0001
0001
0000
,
1000
0000
1000
0000
,
0001
0000
0001
0000
,
1000
0000
0001
0000
,
1000
0001
2002
0000
,
3003
0000
0000
1000
,
0100
1000
0000
0100
,
1000
0100
0000
1000
,
0010
0000
0000
0010
0000
0000
0001
0000
,
0100
0000
0000
0100
0000
0000
1000
0000
,
0010
1000
0000
0010
,
1000
0010
0000
0100
,
0001
0100
0000
0001
,
0100
0001
0000
0010
,
0001
0100
0000
0010
,
1000
0100
0000
1000
,
0001
0010
0000
0001
,
1000
0100
0000
2000
,
0000
0000
3000
0000
,
1000
0100
0010
0002
,
0000
0000
0003
2000
,
0000
0000
3000
0001
,
0002
0000
0003
0000
,
0001
0100
0010
1000
,
0000
0000
0000
1000
0000
0000
0001
0000
,
0000
0000
0000
0001
0000
0000
1000
0000
,
0100
0010
0000
0010
,
0001
0100
0000
0100
,
0010
1000
0000
1000
,
0001
0010
0000
0010
,
0100
1000
0000
1000
,
0001
0100
0000
0100
,
0010
0100
0001
1000
,
0001
2002
0000
3003
,
0200
0300
0110
0110
,
0010
1000
0010
0100
,
0001
0100
0010
1000
,
0100
0100
0100
0100
,
1001
1001
0001
0100
,
0010
0100
0001
0010
,
0100
1000
0010
0100
,
0010
1000
0200
0000
,
0300
0000
1001
1001
,
1000
0010
0100
0001
,
0010
0100
1000
0010
,
0100
0100
0000
0010
0010
0000
0100
0000
,
0100
0100
0110
0110
,
0010
0100
0001
0100
,
0010
1000
0010
0100
,
0001
0001
0000
1000
1000
0000
0010
0000
,
0010
0010
1000
0200
,
0000
0300
0000
0100
,
1000
0001
0020
0000
,
0000
0000
0030
0000
,
0000
0000
0010
0001
,
1000
0010
1000
0001
,
0100
0001
1000
0100
,
0000
0100
0000
0000
0000
0000
0010
0000
,
0000
0010
0000
0000
0001
1000
0001
0000
,
0100
0000
0010
0000
1000
0001
1000
0000
,
0010
0100
0001
0001
,
0010
0010
1000
1000
,
0200
0000
0300
0000
0010
0100
0010
0000
,
0001
0000
1000
0000
0100
0010
0100
0000
,
1000
0001
0010
0100
,
0000
0100
0000
0000
0200
0000
0000
0000
,
0000
0300
1000
0001
,
1000
1100
0001
1000
,
0001
0011
0100
0010
,
0100
0101
0010
0100
,
0010
0000
1010
0000
1000
0100
1000
0000
,
0100
0000
0010
0000
0001
0010
0001
0000
,
0100
0000
0010
0000
1000
0001
1000
0000
,
0010
0100
0010
0000
1000
0000
0100
0000
,
0001
0010
0220
0000
,
0330
0000
0000
0000
;

//---------------dance-single - ----------------
#NOTES:
     dance-single:
     :
     Medium:
     12:
     0.581520,0.715808,0.404308,0.422685,0.009189,443.000000,399.000000,44.000000,46.000000,0.000000,0.000000,0.581520,0.715808,0.404308,0.422685,0.009189,443.000000,399.000000,44.000000,46.000000,0.000000,0.000000:
0000
0000
0000
0000
,
0000
0000
0000
0000
,
0000
0000
0000
0000
,
0000
0000
0000
0000
,
1000
1000
0001
0001
,
1000
0001
1000
0001
,
0100
0100
0010
0010
,
0100
0010
0100
0010
,
1000
0100
1000
0000
0001
0010
0001
0000
,
0100
0001
0100
0000
0010
1000
0010
0000
,
1000
0001
1000
0001
0010
0100
0010
0100
,
1000
0010
0100
0001
2002
0000
0000
0000
,
3003
0200
0300
0110
,
0110
0001
0001
0110
,
0110
0000
1000
0001
1000
0001
1000
0000
,
1010
0000
0000
0202
0000
0000
0303
0000
,
0011
0000
0000
2200
3300
0000
1010
0000
,
1010
0001
0001
0011
,
0011
0000
1000
0000
1000
0100
1100
0000
,
1100
0001
0001
0101
,
0101
0000
0100
0010
0200
0000
0301
0000
,
0011
0100
1100
0010
,
1010
0000
0100
0000
0101
0001
0010
0000
,
0110
0000
0100
0000
1100
0000
1000
0001
,
1000
0100
0010
0001
1000
0000
1020
0000
,
0230
0000
0000
0000
,
0302
0023
0230
2300
,
0000
0000
0000
0002
,
0000
0000
3003
0001
,
0201
0000
0000
0000
,
0320
0000
2030
0000
3200
0000
0310
0001
,
0010
0000
0010
0001
0000
0001
0001
1000
,
0001
0000
0001
1000
0000
1000
0100
0000
,
1000
0100
1000
0001
,
0010
0001
0010
0100
,
0001
0100
0001
1000
,
0010
0000
1000
0000
0010
0000
0100
1000
,
0001
1000
0100
1000
0001
0000
0010
0001
,
1000
0001
0010
0001
1000
0000
0010
1000
,
0010
0100
0001
0100
0010
1000
0100
0010
,
0001
1000
2002
0000
0000
0000
3003
0000
,
0020
0030
0110
0110
,
0200
0000
0301
0010
0001
1000
0100
1000
,
0001
0010
0001
0100
0020
0000
1030
0000
,
1000
0100
0010
0001
1000
0100
0010
0001
,
0101
0101
1010
1010
,
1000
0010
0100
0001
0100
0010
1000
0010
,
0200
0000
0301
0010
0020
0000
0130
0000
,
0100
1000
0010
0100
0001
0001
1000
1000
,
0200
0310
0011
0011
,
0002
0000
0103
0010
0100
0001
1000
0001
,
0100
0010
0100
0001
1001
0000
1001
0000
,
1000
2000
0000
3001
0002
0000
1003
0010
,
0100
0001
1000
0010
0200
0000
0301
0000
,
1010
0000
1000
0100
0010
0001
1000
0100
,
0010
0001
0100
0010
2000
0000
3001
0000
,
0001
0001
0000
0100
0100
0000
0010
1000
,
0010
0100
0001
0010
0100
0000
2100
0000
,
0000
0000
0000
3020
,
0230
0302
0023
0000
,
0000
0000
0200
0000
,
0000
0330
0100
1000
,
0100
0001
1000
0010
,
0001
0010
0100
1100
,
0000
2020
3030
0000
0110
0000
0101
0000
,
0000
0022
0033
0000
0010
0100
1000
0000
,
0010
1000
0001
0000
0100
0001
1000
0000
,
0010
1000
0010
1000
0100
0010
0001
0000
,
0100
0001
1000
0000
0010
1000
0001
0000
,
0010
0100
0010
0100
1000
0001
0100
0000
,
0001
1000
0010
0000
0100
0001
1000
0000
,
0010
0100
0001
1000
1002
0000
0103
0200
,
0000
0310
0020
0000
1030
0100
0010
0001
,
0010
0100
1000
0010
0001
0010
1000
0000
,
0100
0010
0001
0100
1000
0100
0001
0000
,
0010
0001
0010
0001
0100
1000
0100
0000
,
0010
1000
0010
1000
0100
0001
0100
0000
,
1000
0010
0100
0001
1000
1000
0100
0010
,
0100
0100
0010
0001
0010
0010
0001
0100
,
0010
1000
1000
0001
0001
0010
0100
1000
,
0010
0001
0010
1000
0100
0100
0010
0010
,
0001
0100
0001
0000
1000
0010
1000
0000
0020
0000
0000
0000
0000
0000
0000
0000
,
0030
0000
0000
0000
;

//---------------dance-single - ----------------
#NOTES:
     dance-single:
     :
     Hard:
     15:
     0.727229,0.941853,0.477818,0.532951,0.280259,554.000000,502.000000,52.000000,58.000000,0.000000,0.000000,0.727229,0.941853,0.477818,0.532951,0.280259,554.000000,502.000000,52.000000,58.000000,0.000000,0.000000:
0000
0000
0000
0000
,
0000
0000
0000
0000
,
0000
0000
0000
0000
,
0000
0000
0000
0000
,
1020
1000
1000
1030
,
0210
0000
0010
0000
0010
0000
0310
0100
,
0102
0100
0100
0103
,
0021
0000
0001
0000
0001
0000
0031
0010
,
0100
1000
0100
1000
0010
1000
0010
1000
,
0001
0100
0001
0100
0001
0010
0001
0010
,
0001
0100
0001
0000
0100
0000
0010
0000
1000
0010
1000
0000
0010
0000
0100
0000
,
0001
0010
0001
0000
1000
0100
1000
0000
2002
0000
0000
0000
0000
0000
0000
0000
,
3003
0000
0000
0000
0001
1000
0001
0000
1000
0001
1000
0000
1001
0000
0000
0000
,
1001
0010
0010
0110
,
0110
0000
0100
0100
0100
0100
0001
0010
,
0011
0001
1000
2020
0000
0000
3030
0000
,
1100
1000
0001
0202
0303
0000
0110
0000
,
0110
1000
1000
1001
,
1001
0000
0000
0000
0001
0000
0000
0000
0100
0001
0100
0001
0100
0000
0000
0000
,
0110
1010
0101
0011
,
1100
0000
0000
0000
1000
0001
1000
0000
0020
0000
0000
0000
0130
0000
0000
0000
,
0101
0001
0011
0100
,
1100
0000
1000
0000
1010
0010
0100
0000
,
0110
0000
1010
0000
0101
0000
0001
1000
,
0100
0000
0010
0000
0001
0100
0001
0100
0020
0000
0000
0000
2030
0000
0000
0000
,
0002
0000
3000
0000
,
0023
0000
0230
0000
1000
1000
2300
0000
,
0000
0000
0000
0002
,
0000
0000
3003
0002
,
0203
0000
0000
0000
,
0320
0000
2030
0000
3002
0000
0013
0100
,
0200
0000
1300
0010
0000
0010
0010
0010
,
0200
0000
0301
0010
0000
0010
0200
0000
,
1000
0010
1300
2000
,
0010
0001
3010
0002
,
0100
1000
0103
0200
,
0001
0000
0010
0000
0301
0000
0001
0100
,
0001
0100
1000
0100
1000
0100
0010
0001
,
0010
0000
0001
0000
0010
0000
1000
0000
0010
0000
1000
0000
0100
1000
0100
0000
,
0010
0000
0100
0000
0010
0001
0010
0000
0100
0000
0010
0000
0001
0100
0001
0000
,
1000
0010
1000
0000
2002
0000
0000
0000
0000
0000
0000
0000
3003
0000
0000
0000
,
0001
1000
0001
0000
1000
0001
1000
0000
1001
0000
0000
0000
1001
0000
0000
0000
,
0001
0000
0100
0000
1000
0000
0100
0000
0001
0000
0010
0000
0100
0000
1000
0010
,
1000
0100
0010
0001
0100
0000
0110
0000
,
0010
1000
0010
0000
1000
0100
1000
0000
0010
1000
0010
0000
1000
0100
1000
0000
,
1100
1100
0101
0101
,
0001
0000
0010
0000
1000
0000
0010
0000
0001
0000
0100
0000
0010
0000
1000
0100
,
1000
0010
0100
0001
0020
0000
0130
0000
,
0100
1000
0001
0000
0010
0001
1000
0000
0010
0000
0100
0000
0100
0000
0100
0000
,
0001
0010
0001
0000
1000
0000
0000
0000
1010
0000
0000
0000
1010
0000
0000
0000
,
0010
0000
1000
0000
0100
0000
0001
0000
0100
0000
1000
0000
0010
0000
0100
0001
,
0100
0010
1000
0100
0020
0000
0031
0000
,
0001
0000
0201
0000
0000
0000
0310
0000
0120
0000
0000
0000
1030
0100
1000
0000
,
0001
0100
0001
0000
1000
0100
1000
0000
1010
0000
0000
0000
0101
0000
0000
0000
,
0011
0000
0010
0001
1000
0010
0001
0010
,
1000
0100
0010
0100
0110
0000
1001
0000
,
1000
0000
1020
0000
0000
0000
0130
0000
0210
0000
0000
0000
0301
0010
0001
0000
,
0100
0001
0100
0000
0001
0010
0001
0000
0200
0000
0000
0000
0320
0000
0000
0000
,
0000
0000
0000
2030
,
3002
0000
0010
0010
0023
0000
0000
0000
,
0000
0000
0200
0000
,
0000
0000
0330
0000
0100
1000
0010
0100
,
0010
1000
0100
0001
1000
0010
0001
0100
,
0010
0100
0001
0010
0100
1000
1010
0100
,
0001
0011
0100
1000
0020
0000
0230
0000
,
0302
0000
2003
0000
3100
0100
0010
0000
,
0001
0010
0001
0000
0100
0000
0010
0000
1000
0000
0001
0000
0010
0000
0000
0000
,
0100
1000
0100
0000
0010
0000
0001
0000
1000
0000
0010
0000
0100
0000
0000
0000
,
0001
1000
0001
0000
0010
0000
0100
0000
1000
0000
0010
0000
0100
0000
0001
0000
,
1000
0000
0100
0000
0010
0100
0010
0100
0010
0000
0001
0000
0100
0000
0000
0000
,
0010
1000
0010
0000
0100
0000
0001
0000
0010
0000
0100
0000
1000
0000
0000
0000
,
0001
0100
0001
0000
1000
0000
0100
0000
0010
0000
0001
0000
0101
0000
2000
0000
,
3000
1100
0002
0003
2000
3200
0320
0032
,
1003
0010
1000
0010
0100
0001
0100
0001
0010
0000
0010
0000
0200
0000
0000
0000
,
1300
0010
1000
0000
0010
0100
0010
0000
0100
0000
0100
0000
0002
0000
0000
0000
,
0013
0100
0010
0000
0100
1000
0100
0000
1000
0000
1000
0000
0020
0000
0000
0000
,
0130
0001
0100
0000
0001
1000
0001
0000
1000
0000
1000
0000
0020
0000
0000
0000
,
0130
0000
0001
0010
0001
0010
0100
0000
0010
0000
0001
0000
0100
0000
0010
0000
,
1000
0001
0010
1000
0001
0100
1000
0010
,
0100
0000
0001
0010
0001
0000
0100
0000
0010
1000
0010
0000
0100
0000
0001
0000
,
0010
0100
0010
0000
0100
0000
1000
0000
0001
0100
0001
0100
0010
0000
1000
0000
,
0001
0100
0001
0100
0010
1000
0100
0010
0002
0000
0000
0000
0000
0000
0000
0000
,
0003
0000
0000
0000
;

//---------------dance-double - ----------------
#NOTES:
     dance-double:
     :
     Easy:
     8:
     0.325546,0.452089,0.147021,0.165399,0.000000,248.000000,232.000000,16.000000,18.000000,0.000000,0.000000,0.325546,0.452089,0.147021,0.165399,0.000000,248.000000,232.000000,16.000000,18.000000,0.000000,0.000000:
00000000
00000000
00000000
00000000
,
00000000
00000000
00000000
00000000
,
00000000
00000000
00000000
00000000
,
00000000
00000000
00000000
00000000
,
00001000
00000000
00001000
00000000
,
00001000
00000000
00001000
00000000
,
00010000
00000000
00010000
00000000
,
00010000
00000000
00010000
00000000
,
00001000
00000000
00001000
00000000
,
00010000
00000000
00010000
00000000
,
00001000
00000000
00010000
00000000
,
00001000
00000000
00022000
00000000
,
00033000
00000000
00000000
00001000
,
00010000
00000100
00000000
00010000
,
00001000
00100000
00000000
00001000
,
00010000
00000000
00000000
00010000
00000000
00000000
00010000
00000000
,
00001000
00000000
00000000
00001000
00000000
00000000
00001000
00000000
,
00010000
00000010
00000000
00010000
,
00001000
01000000
00000000
00001000
,
00010000
00100000
00000000
00010000
,
00001000
00000100
00000000
00000001
,
00000010
00000100
00000000
00000010
,
00001000
00010000
00000000
00001000
,
00010000
01000000
00000000
00100000
,
01000000
10000000
00000000
20020000
,
00000000
00000000
30030000
00000000
,
00010000
01000000
00001000
00020000
,
00000000
00000000
00030000
00002000
,
00000000
00000000
00003000
00010000
,
00022000
00000000
00033000
00000000
,
00001000
00010000
00000010
00001000
,
00000000
00000000
00000000
00001000
00000000
00000000
00000001
00000000
,
00000000
00000000
00000000
00000001
00000000
00000000
00000100
00000000
,
00000000
00001000
00000000
00010000
,
00000000
00100000
00000000
10000000
,
00000000
01000000
00000000
00010000
,
00000000
00001000
00000000
00000010
,
00000000
00000001
00000000
00000100
,
00000000
00001000
00000000
00010000
,
00000010
00010000
00001000
01000000
,
00001000
00022000
00000000
00033000
,
00020000
00030000
00011000
00011000
,
00001000
00100000
00010000
01000000
,
00100000
10000000
02000000
03000000
,
00010000
00001000
00010000
00001000
,
00011000
00011000
00010000
00000100
,
00001000
00000010
00000100
00000001
,
00000010
00001000
00020000
00030000
,
00001000
00000000
00000010
00000000
00000001
00001000
00000001
00001000
,
00000001
00000000
00001001
00001001
,
00001000
00000010
00010000
00001000
,
00100000
00010000
01000000
00100000
,
10000000
00000000
00000000
00010000
00000000
00000000
10000000
00000000
,
00010000
10000000
10010000
10010000
,
00010000
00100000
01000000
00010000
,
00001000
00000010
00000001
00000001
,
00000100
00000000
00000000
00000010
00000000
00000000
00000100
00000000
,
00001000
00010000
00100000
02000000
,
00000000
03000000
00000000
01000000
,
00001000
00010000
00000020
00000000
,
00000000
00000000
00000030
00000000
,
00000000
00000000
00000010
00001000
,
00000100
00000010
00000001
00000100
,
00001000
00010000
00100000
10000000
,
00000000
10000000
00000000
00000000
00000000
00000000
00010000
00000000
,
00000000
00010000
00000000
00000000
10000000
00000000
01000000
00000000
,
00010000
00001000
00010000
00100000
,
00010000
00001000
00000100
00001000
,
00010000
00001000
00000010
00000001
,
00002000
00003000
00000010
00000100
,
00001000
00010000
00100000
01000000
,
00001000
00010000
00000100
00000010
,
00000000
00000010
00000000
00000000
00000020
00000000
00000000
00000000
,
00000000
00000030
00000001
00000100
,
00001000
00011000
00010000
00100000
,
10000000
10010000
00010000
01000000
,
00001000
00011000
00010000
00000100
,
00001000
00000000
00001001
00000000
00000001
00000100
00000001
00000000
,
00000010
00000000
00000100
00000000
00001000
00000100
00001000
00000000
,
00000100
00000000
00010000
00000000
00001000
00010000
00001000
00000000
,
00100000
00010000
00100000
01000000
,
10000000
00010000
10000000
00010000
20000000
00000000
00000000
00000000
,
30000000
00000000
00000000
00000000
;

//---------------dance-double - ----------------
#NOTES:
     dance-double:
     :
     Medium:
     12:
     0.569706,0.678134,0.385930,0.431874,0.000000,434.000000,392.000000,42.000000,47.000000,0.000000,0.000000,0.569706,0.678134,0.385930,0.431874,0.000000,434.000000,392.000000,42.000000,47.000000,0.000000,0.000000:
00000000
00000000
00000000
00000000
,
00000000
00000000
00000000
00000000
,
00000000
00000000
00000000
00000000
,
00000000
00000000
00000000
00000000
,
10000000
10000000
01000000
00010000
,
00001000
00001000
00010000
00001000
,
00000100
00000100
00000001
00000010
,
00001000
00001000
00010000
00001000
,
00010000
00000100
00010000
00000000
00001000
01000000
00001000
00000000
,
00010000
00000010
00010000
00000000
00001000
00100000
00001000
00000000
,
00010000
00001000
00100000
00010000
01000000
00001000
00010000
00000100
,
00001000
00000010
00010000
00001000
00022000
00000000
00000000
00000000
,
00033000
02000000
03000000
01010000
,
01010000
00100000
00100000
10100000
,
10100000
00000000
10000000
01000000
00100000
00010000
00100000
00000000
,
00101000
00000000
00000000
00020020
00000000
00000000
00030030
00000000
,
01001000
00000000
00000000
00020200
00030300
00000000
00001100
00000000
,
00001100
00000010
00000010
00000011
,
00000011
00000100
00000100
00010100
,
00010100
00001000
00001000
01001000
,
01001000
00000000
01000000
00010000
00200000
00000000
01300000
00000000
,
11000000
10000000
10100000
00100000
,
00110000
00010000
00011000
00001000
,
00001100
00000000
00000100
00000000
00000101
00000000
00000001
00001000
,
00000001
00000010
00000100
00001000
00000010
00000000
00020010
00000000
,
00032000
00000000
00000000
00000000
,
00003200
00020300
02030000
03002000
,
00000000
00000000
00000000
00020000
,
00000000
00000000
00033000
00001000
,
00201000
00000000
00000000
00000000
,
00320000
00000000
02030000
00000000
03200000
00000000
10300000
01000000
,
00010000
00000000
00010000
00001000
00000000
00001000
00001000
00010000
,
00001000
00000000
00001000
00000010
00000000
00000010
00000001
00000000
,
00000100
00000001
00000100
00000010
,
00010000
00000010
00010000
00001000
,
00100000
00001000
00100000
01000000
,
10000000
00000000
01000000
00000000
10000000
00000000
00100000
00010000
,
00001000
00010000
00100000
00010000
00001000
00000000
00000010
00001000
,
00010000
00001000
00000010
00001000
00010000
00000000
00000100
00001000
,
00000010
00010000
00001000
01000000
00010000
00100000
00001000
00010000
,
00000010
00001000
00002002
00000000
00000000
00000000
00003003
00000000
,
00000020
00000030
00000110
00000110
,
00000200
00000000
00000301
00000010
00000001
00000100
00000010
00001000
,
00000100
00010000
00001000
00100000
00020000
00000000
01030000
00000000
,
01000000
00100000
10000000
00010000
00100000
01000000
10000000
00100000
,
01000000
01010000
00001000
00011000
,
00010000
00000100
00001000
00000001
00001000
00000100
00000010
00000001
,
00000200
00000000
00000310
00010000
00020000
00000000
00031000
00000000
,
00001000
00100000
00010000
01000000
00100000
00100000
00100000
00100000
,
20000000
30010000
00110000
11000000
,
20000000
00000000
30100000
01000000
00010000
00100000
00001000
00010000
,
00000100
00001000
00000001
00001000
00000100
00000000
00000110
00000000
,
00000010
00000020
00000000
00000031
00000002
00000000
00001003
00000010
,
00010000
00001000
00100000
00010000
02000000
00000000
03100000
00000000
,
10100000
00000000
10000000
00010000
00100000
01000000
00010000
00001000
,
00000010
00000100
00001000
00000001
00000200
00000000
00000310
00000000
,
00000010
00000010
00000000
00000100
00000100
00000000
00000001
00000010
,
00000100
00001000
00000100
00010000
00001000
00000000
02001000
00000000
,
00000000
00000000
00000000
03020000
,
00230000
00302000
00003020
00000000
,
00000000
00000000
00000200
00000000
,
00000000
00000330
00000100
00000010
,
00000001
00000100
00001000
00010000
,
00100000
10000000
01000000
01100000
,
00000000
00202000
00303000
00000000
00011000
00000000
00010010
00000000
,
00000000
00000220
00000330
00000000
00000100
00000001
00000010
00000000
,
00000010
00000001
00000100
00000000
00000100
00001000
00010000
00000000
,
00001000
00010000
01000000
00000000
01000000
10000000
00100000
00000000
,
00100000
10000000
01000000
00000000
01000000
00100000
00010000
00000000
,
00100000
00001000
00010000
00000000
00000010
00010000
00001000
00000000
,
00000100
00000010
00001000
00000000
00000100
00000010
00000001
00000000
,
00000100
00001000
00010000
00000000
00012000
00000000
01003000
00002000
,
00000000
00013000
00002000
00000000
00103000
00010000
00100000
01000000
,
10000000
00100000
00010000
00001000
00010000
00001000
00000100
00000000
,
00000001
00000010
00001000
00010000
00001000
00010000
01000000
00000000
,
10000000
00100000
01000000
00010000
00100000
01000000
00010000
00000000
,
00001000
00000010
00000100
00001000
00000010
00000100
00000001
00000000
,
00000010
00001000
00010000
00100000
10000000
01000000
00100000
00010000
,
01000000
00100000
00010000
00001000
00100000
00010000
00001000
00000100
,
00010000
00001000
00000100
00000010
00001000
00000100
00000010
00000001
,
00000100
00001000
00010000
00100000
10000000
01000000
00010000
00001000
,
00000100
00000001
00000010
00001000
00022000
00000000
00000000
00000000
,
00033000
00000000
00000000
00000000
;

//---------------dance-double - ----------------
#NOTES:
     dance-double:
     :
     Hard:
     15:
     0.694412,0.904179,0.450252,0.514573,0.179182,529.000000,480.000000,49.000000,56.000000,0.000000,0.000000,0.694412,0.904179,0.450252,0.514573,0.179182,529.000000,480.000000,49.000000,56.000000,0.000000,0.000000:
// measure 0
00000000
00000000
00000000
00000000
,  // measure 1
00000000
00000000
00000000
00000000
,  // measure 2
00000000
00000000
00000000
00000000
,  // measure 3
00000000
00000000
00000000
00000000
,  // measure 4
01002000
00010000
00010000
00013000
,  // measure 5
00020100
00000000
00001000
00000000
00001000
00000000
00031000
00100000
,  // measure 6
00102000
00010000
00010000
00013000
,  // measure 7
00020010
00000000
00001000
00000000
00001000
00000000
00031000
01000000
,  // measure 8
00010000
00100000
00010000
00100000
01000000
00010000
01000000
00010000
,  // measure 9
00001000
00000100
00001000
00000100
00000010
00001000
00000010
00001000
,  // measure 10
00000100
00000010
00000001
00000100
00001000
00010000
00100000
10000000
,  // measure 11
01000000
00000000
00010000
00000000
00001000
00010000
00001000
00000000
00022000
00000000
00000000
00000000
00000000
00000000
00000000
00000000
,  // measure 12
00033000
00000000
00000000
00000000
00010000
00001000
00010000
00000000
00001000
00010000
00001000
00000000
00011000
00000000
00000000
00000000
,  // measure 13
00011000
00000010
00000010
00001010
,  // measure 14
00001010
00000000
00001000
00001000
00001000
00001000
00000100
00000010
,  // measure 15
00000011
00000001
00000100
00002000
00000000
00000000
00003000
00000000
,  // measure 16
00011000
00010000
01000000
20000000
30000000
00000000
10100000
00000000
,  // measure 17
10100000
00010000
00010000
00110000
,  // measure 18
00110000
00000000
00000000
00000000
00100000
00000000
00000000
00000000
01000000
00010000
01000000
00010000
00001000
00000000
00000000
00000000
,  // measure 19
00011000
00011000
00001010
00001010
,  // measure 20
00000101
00000000
00000000
00000000
00000001
00000010
00000001
00000000
00002000
00000000
00000000
00000000
00003100
00000000
00000000
00000000
,  // measure 21
00010100
00010000
00010010
00001000
,  // measure 22
01001000
00000000
01000000
00000000
01010000
00010000
00100000
00000000
,  // measure 23
11000000
00000000
10100000
00000000
01010000
00000000
00010000
00100000
,  // measure 24
00001000
00000000
00010000
00000000
00000100
00001000
00000100
00001000
00000002
00000000
00000000
00000000
00000203
00000000
00000000
00000000
,  // measure 25
00000320
00000000
00000000
00000000
,  // measure 26
00020030
00000000
00032000
00000000
00103000
00010000
02000000
00000000
,  // measure 27
00000000
00000000
00000000
00200000
,  // measure 28
00000000
00000000
03300000
20000000
,  // measure 29
32000000
00000000
00000000
00000000
,  // measure 30
03020000
00000000
00032000
00000000
00003020
00000000
00000031
00000100
,  // measure 31
00000020
00000000
00001030
00000100
00000000
00000100
00000010
00001000
,  // measure 32
00020000
00000000
01030000
10000000
00000000
10000000
00200000
00000000
,  // measure 33
00010000
01000000
00310000
00020000
,  // measure 34
00001000
01000000
00031000
00002000
,  // measure 35
00000100
00010000
00003100
00000200
,  // measure 36
00000001
00000000
00000010
00000000
00000301
00000000
00000001
00000100
,  // measure 37
00001000
00010000
00000010
00001000
00010000
00100000
00001000
00010000
,  // measure 38
01000000
10000000
00100000
00010000
00001000
00000100
00000001
00000010
,  // measure 39
00000100
00001000
00010000
00100000
01000000
10000000
00100000
00010000
,  // measure 40
00001000
00010000
00001000
00000000
00022000
00000000
00000000
00000000
00000000
00000000
00000000
00000000
00033000
00000000
00000000
00000000
,  // measure 41
00010000
00001000
00010000
00000000
00001000
00010000
00001000
00000000
00011000
00000000
00000000
00000000
00011000
00000000
00000000
00000000
,  // measure 42
00100000
00010000
01000000
10000000
01000000
00010000
00100000
01000000
,  // measure 43
01000000
00010000
00001000
00000010
00000001
00000000
00001001
00000000
,  // measure 44
00001000
00000010
00001000
00000000
00000100
00000000
00000010
00000000
00000001
00000100
00000001
00000000
00000010
00000000
00000100
00000000
,  // measure 45
00001000
00001010
00011000
00011000
,  // measure 46
00010000
00001000
00100000
01000000
00100000
00001000
00010000
00100000
,  // measure 47
00100000
10000000
01000000
00100000
00020000
00000000
10030000
00000000
,  // measure 48
10000000
00100000
00100000
00010000
00001000
00100000
00100000
00100000
,  // measure 49
01000000
00010000
00001000
00000000
00101000
00000000
00101000
00000000
,  // measure 50
00100000
00001000
00010000
00000010
00000001
00000010
00010000
00001000
,  // measure 51
00001000
00000100
00000001
00000010
00000200
00000000
00001300
00000000
,  // measure 52
00001000
00000000
00001020
00000000
00000000
00000000
00010030
00000000
00012000
00000000
00000000
00000000
00103000
00010000
00100000
00000000
,  // measure 53
01000000
00000000
10000000
00000000
01000000
00100000
01000000
00000000
01100000
00000000
00000000
00000000
11000000
00000000
00000000
00000000
,  // measure 54
00110000
00000000
00010000
01000000
00001000
00010000
00100000
00010000
,  // measure 55
00001000
00000010
00000001
00000100
00000110
00000000
00000110
00000000
,  // measure 56
00000010
00000000
00020010
00000000
00000000
00000000
00031000
00000000
00201000
00000000
00000000
00000000
01300000
10000000
01000000
00000000
,  // measure 57
00010000
00000000
00001000
00000000
00000100
00000001
00000100
00000000
00000020
00000000
00000000
00000000
00020030
00000000
00000000
00000000
,  // measure 58
00000000
00000000
00000000
00230000
,  // measure 59
00302000
00000000
00000100
00000100
00003200
00000000
00000000
00000000
,  // measure 60
00000000
00000000
00020000
00000000
,  // measure 61
00000000
00000000
00030300
00000000
00010000
00001000
00000100
00000001
,  // measure 62
00001000
00000100
00000010
00001000
00100000
00010000
01000000
00001000
,  // measure 63
00010000
01000000
10000000
00010000
01000000
00100000
00110000
00010000
,  // measure 64
00001000
00001010
00000010
00000100
00002000
00000000
00003002
00000000
,  // measure 65
00000023
00000000
00002030
00000000
00013000
00010000
00100000
00000000
,  // measure 66
10000000
01000000
10000000
00000000
01000000
00000000
00100000
00000000
00010000
00000000
00100000
00000000
00001000
00000000
00000000
00000000
,  // measure 67
00010000
00001000
00010000
00000000
00000100
00000000
00001000
00000000
00000100
00000000
00000010
00000000
00000001
00000000
00000000
00000000
,  // measure 68
00000100
00000010
00000100
00000000
00001000
00000000
00010000
00000000
00100000
00000000
01000000
00000000
00010000
00000000
10000000
00000000
,  // measure 69
01000000
00000000
00100000
00000000
00010000
01000000
00010000
01000000
00010000
00000000
00100000
00000000
00001000
00000000
00000000
00000000
,  // measure 70
00010000
00001000
00010000
00000000
00000100
00000000
00001000
00000000
00000001
00000000
00000100
00000000
00000010
00000000
00000000
00000000
,  // measure 71
00010000
00001000
00010000
00000000
00001000
00000000
00100000
00000000
01000000
00000000
10000000
00000000
10100000
00000000
00020000
00000000
,  // measure 72
00030000
00110000
20000000
30000000
02000000
03020000
00032000
00003020
,  // measure 73
00000031
00000100
00000001
00000000
00001000
00000100
00001000
00000000
00000010
00000000
00000010
00000000
00000200
00000000
00000000
00000000
,  // measure 74
00000301
00000010
00000100
00000000
00001000
00000000
00000010
00000000
00010000
00000000
00001000
00000000
00200000
00000000
00000000
00000000
,  // measure 75
00310000
01000000
00100000
00000000
10000000
00000000
01000000
00000000
00100000
00000000
00010000
00000000
02000000
00000000
00000000
00000000
,  // measure 76
03001000
00010000
00000010
00000000
00001000
00000000
00000100
00000000
00000010
00000000
00000001
00000000
00000200
00000000
00000000
00000000
,  // measure 77
00001300
00000000
00001000
00010000
00001000
00010000
00001000
00000000
00100000
00000000
01000000
00000000
10000000
00000000
00100000
00000000
,  // measure 78
00010000
00001000
01000000
00010000
00001000
00000010
00010000
00001000
,  // measure 79
00000100
00000000
00000001
00000010
00000100
00000000
00000010
00000000
00000001
00000010
00000100
00000000
00000010
00000000
00000001
00000000
,  // measure 80
00000100
00001000
00000100
00000000
00001000
00000000
00010000
00000000
00001000
00010000
00001000
00000000
00010000
00000000
01000000
00000000
,  // measure 81
10000000
00100000
10000000
00100000
10000000
00100000
10000000
00100000
02000000
00000000
00000000
00000000
00000000
00000000
00000000
00000000
,  // measure 82
03000000
00000000
00000000
00000000
;
