#VERSION:0.83;
#TITLE:Umbrella Beach;
#SUBTITLE:;
#ARTIST:Owl City;
#TITLETRANSLIT:;
#SUBTITLETRANSLIT:;
#ARTISTTRANSLIT:;
#GENRE:POP CHARTS;
#ORIGIN:;
#CREDIT:MUINELIM;
#BANNER:Umbrella Beach.png;
#BACKGROUND:Umbrella Beach-bg.png;
#PREVIEWVID:;
#JACKET:Umbrella Beach-jacket.png;
#DISCIMAGE:;
#LYRICSPATH:;
#CDTITLE:;
#MUSIC:Umbrella Beach.ogg;
#OFFSET:0.333000;
#SAMPLESTART:42.786110;
#SAMPLELENGTH:14.202221;
#SELECTABLE:YES;
#DISPLAYBPM:135.000000;
#BPMS:0.000=135.000;
#STOPS:;
#DELAYS:;
#WARPS:;
#TIMESIGNATURES:0.000=4=4;
#TICKCOUNTS:0.000=4;
#COMBOS:0.000=1;
#SPEEDS:0.000=1.000=0.000=0;
#SCROLLS:0.000=1.000;
#FAKES:;
#LABELS:0.000=Song Start;
#BGCHANGES:0.000=Umbrella Beach.avi=1.000=0=0=0=StretchNoLoop====,
99999=-nosongbg-=1.000=0=0=0 // don't automatically add -songbackground-
;
#KEYSOUNDS:;
#ATTACKS:
;

//---------------dance-single - ----------------
#NOTEDATA:;
#CHARTNAME:;
#STEPSTYPE:dance-single;
#DESCRIPTION:;
#CHARTSTYLE:;
#DIFFICULTY:Beginner;
#METER:3;
#RADARVALUES:0.117153,0.162092,0.008542,0.000000,0.000000,96.000000,95.000000,1.000000,0.000000,0.000000,0.000000,0.000000,0.000000,0.000000,0.117153,0.162092,0.008542,0.000000,0.000000,96.000000,95.000000,1.000000,0.000000,0.000000,0.000000,0.000000,0.000000,0.000000;
#CREDIT:MILEN;
#DISPLAYBPM:135.000000;
#NOTES:
0000
0000
0000
0000
,
0000
0000
0000
0000
,
0000
0000
0000
0000
,
0000
0000
0000
0000
,
0000
1000
0000
1000
,
0000
1000
0000
1000
,
0000
0001
0000
0001
,
0000
0001
0000
0001
,
0000
1000
0000
0000
,
0000
0010
0000
0000
,
0000
0001
0000
0000
,
0000
0100
0000
0000
,
0000
1000
0000
0000
,
0000
0010
0000
0000
,
0000
0001
0000
0000
,
0000
0100
0000
0000
,
0000
1000
0000
1000
,
0000
0001
0000
0001
,
0000
1000
0000
0001
,
0000
1000
0000
0001
,
0000
0100
0000
0100
,
0000
0010
0000
0010
,
0000
0100
0000
0010
,
0000
0100
0000
0010
,
0000
1000
0000
0100
,
0000
1000
0000
0100
,
0000
0010
0000
0001
,
0000
0010
0000
0001
,
0000
1000
0000
0010
,
0000
1000
0000
0010
,
0000
0100
0000
0001
,
0000
0100
0000
0001
,
0001
0001
0000
0010
,
0000
0001
0000
0010
,
0000
0100
0000
1000
,
0000
0100
0000
1000
,
0000
0001
0000
0100
,
0000
0001
0000
0100
,
0000
0010
0000
1000
,
0000
0010
0000
1000
,
1000
1000
0000
0000
,
0000
0100
0000
0000
,
0000
0001
0000
0000
,
0000
0010
0000
0000
,
0000
1000
0000
0000
,
0000
0100
0000
0000
,
0000
0001
0000
0000
,
0000
0010
0000
0000
,
0000
1000
0000
1000
,
0000
0001
0000
0001
,
0000
0100
0000
0100
,
0000
0010
0000
0010
,
0000
1000
0000
0001
,
0000
0100
0000
0010
,
0000
1000
0000
0001
,
0000
0100
0000
0010
,
0000
0110
0000
0000
,
0000
0000
0000
0000
,
0000
0000
0000
0000
,
0000
0000
0000
0000
,
0000
1000
0000
0000
,
0000
0100
0000
0000
,
0000
0001
0000
0000
,
0000
0010
0000
0000
;

//---------------dance-single - ----------------
#NOTEDATA:;
#CHARTNAME:;
#STEPSTYPE:dance-single;
#DESCRIPTION:;
#CHARTSTYLE:;
#DIFFICULTY:Easy;
#METER:5;
#RADARVALUES:0.169628,0.247943,0.076882,0.111051,0.000000,139.000000,130.000000,9.000000,13.000000,0.000000,0.000000,0.000000,0.000000,0.000000,0.169628,0.247943,0.076882,0.111051,0.000000,139.000000,130.000000,9.000000,13.000000,0.000000,0.000000,0.000000,0.000000,0.000000;
#CREDIT:MILEN;
#DISPLAYBPM:135.000000;
#NOTES:
0000
0000
0000
0000
,
0000
0000
0000
0000
,
0000
0000
0000
0000
,
0000
0000
0000
0000
,
0000
1000
0000
1000
,
0000
0001
0000
0001
,
0000
1000
0000
0001
,
0000
1000
0000
0001
,
0000
1001
0000
0100
,
0000
0010
0000
0100
,
0000
1000
0000
0001
,
0000
0020
0000
0030
,
0001
0001
0000
1000
,
0000
0100
0000
0010
,
0000
0100
0000
2000
,
0000
0000
3000
0000
,
0000
1001
0000
0100
,
0000
0010
0000
0100
,
0000
0001
0000
0010
,
0000
0100
0000
1000
,
0000
0010
0000
0100
,
0000
0020
0030
1000
,
1000
0100
1000
0001
,
0000
0010
0001
1000
,
0000
1001
0000
0110
,
0000
1000
0001
0100
,
0000
0001
1000
0010
,
0000
1000
0100
0010
,
0000
0001
0010
0100
,
0000
1000
0001
0010
,
0000
0001
1000
0100
,
0000
1000
1000
0001
,
0001
1001
0000
0110
,
0000
0010
0100
0001
,
0000
0100
0010
1000
,
0000
0010
1000
0001
,
0000
0100
0001
1000
,
0000
0010
1000
0100
,
0000
0010
0001
0100
,
0000
0010
0010
0100
,
0100
0110
0000
1000
,
0000
0100
0000
0001
,
0000
0010
0000
1000
,
0000
0100
0010
0100
,
0000
1000
0000
0010
,
0000
0001
0000
0100
,
0000
1000
0000
0100
,
0000
0001
0000
0010
,
0000
2000
0000
3001
,
0000
0002
0000
0103
,
0000
0200
0000
0310
,
0000
0020
0000
1030
,
0000
2000
0000
3100
,
0000
0200
0000
0310
,
0000
0020
0000
0031
,
0000
0002
0000
1003
,
0000
1001
0000
0000
,
0000
1000
0000
0000
,
0000
0010
0000
0000
,
0000
0001
0000
0000
,
0000
0100
0000
0000
,
0000
1000
0000
0000
,
0000
0010
0000
0000
,
0000
0220
0000
0000
,
0000
0000
0330
0000
;

//---------------dance-single - ----------------
#NOTEDATA:;
#CHARTNAME:;
#STEPSTYPE:dance-single;
#DESCRIPTION:;
#CHARTSTYLE:;
#DIFFICULTY:Medium;
#METER:8;
#RADARVALUES:0.279459,0.385690,0.076882,0.384408,0.008542,229.000000,220.000000,9.000000,45.000000,0.000000,0.000000,0.000000,0.000000,0.000000,0.279459,0.385690,0.076882,0.384408,0.008542,229.000000,220.000000,9.000000,45.000000,0.000000,0.000000,0.000000,0.000000,0.000000;
#CREDIT:MILEN;
#DISPLAYBPM:135.000000;
#NOTES:
0000
0000
0000
0000
,
0000
0000
0000
0000
,
0000
0000
0000
0000
,
0000
0000
0000
0000
,
0000
1000
1000
0010
,
0010
0100
0100
0001
,
0001
0010
0100
1000
,
0001
0100
0010
1000
,
0001
0020
0030
0200
,
0300
0020
0030
0001
,
1000
0200
0300
0020
,
0030
0200
0000
0300
,
1000
0020
0030
0200
,
0300
0002
0003
0010
,
0100
1000
0001
2002
,
0000
3000
1000
0010
,
0103
2000
3010
0002
,
0013
2000
3010
0001
,
1000
0002
0103
2000
,
3100
0002
0100
1000
,
0013
0200
1300
0002
,
0013
0200
0310
0002
,
0103
0020
1030
0002
,
1003
0200
0310
2002
,
3003
0000
0110
0000
0010
0000
1000
0100
,
1000
0000
0010
0000
0100
0000
0001
0010
,
0001
0000
0100
0000
0010
0000
1000
0010
,
1000
0000
0100
0000
0010
0000
0001
0100
,
0001
0000
0010
0000
0100
0000
1000
0001
,
1000
0000
0010
0000
0100
0000
0001
1000
,
0001
0000
0100
0000
0010
0000
1000
0001
,
0100
0000
0000
0000
0110
0000
0000
0000
0110
0000
0000
0000
0010
0000
0000
1000
,
0000
0001
1001
0000
1000
0000
0100
1000
,
0100
0000
1000
0000
0001
0000
0010
0001
,
0010
0000
0001
0000
1000
0000
0010
1000
,
0010
0000
1000
0000
0001
0000
0100
0001
,
0100
0000
0001
0000
1000
0000
0010
0100
,
0010
0000
1000
0000
0001
0000
0100
0010
,
0100
0000
0001
0000
1000
0000
0100
0010
,
0100
2000
0010
3002
,
0100
1003
0010
0001
,
0100
1000
0010
0001
,
0100
1000
0010
0001
,
0100
0000
0000
0000
1000
0000
0000
0001
0000
0000
1000
0000
1001
0000
0000
0000
,
0010
0100
0110
0000
0001
0000
0010
0000
,
1000
0100
0001
0010
,
1000
0100
0001
0010
,
1000
0100
0001
0010
,
1000
0200
0310
0001
,
1000
0020
0130
0001
,
1000
0200
0301
1000
,
0001
0020
1030
0001
,
1000
0020
0031
1000
,
0001
0200
1300
0001
,
1000
0200
0310
0001
,
1000
0020
0130
0001
,
1000
2200
0000
3000
,
0000
0020
0000
0300
,
0000
0002
0000
0030
,
0000
2000
0000
0003
,
0000
0020
0000
3000
,
0000
0200
0000
0030
,
0000
0002
0000
0300
,
0000
2000
0000
0000
,
0000
0000
3003
0000
;

//---------------dance-single - ----------------
#NOTEDATA:;
#CHARTNAME:;
#STEPSTYPE:dance-single;
#DESCRIPTION:;
#CHARTSTYLE:;
#DIFFICULTY:Hard;
#METER:12;
#RADARVALUES:0.455188,0.633633,0.546714,0.205018,0.175119,373.000000,309.000000,64.000000,24.000000,0.000000,0.000000,0.000000,0.000000,0.000000,0.455188,0.633633,0.546714,0.205018,0.175119,373.000000,309.000000,64.000000,24.000000,0.000000,0.000000,0.000000,0.000000,0.000000;
#CREDIT:MILEN;
#DISPLAYBPM:135.000000;
#NOTES:
0000
0000
0000
0000
,
0000
0000
0000
0000
,
0000
0000
0000
0000
,
0000
0000
0000
0000
,
0000
0000
0000
0000
1000
0000
0100
1000
0000
0100
1000
0000
0010
1000
0000
0010
,
1000
0000
0100
1000
0100
0000
0010
0001
0000
0010
0001
0000
0100
0001
0000
0100
,
0001
0000
0010
0001
0010
0000
0100
0010
0000
0100
0010
0000
0100
1000
0000
0100
,
1000
0000
0010
0100
0010
0000
0100
0001
0000
0100
0001
0000
0010
0100
0000
0010
,
0100
0000
1000
0001
1000
0000
0000
0000
0010
0000
0000
0000
0001
0000
0000
0000
,
0100
1000
0010
0001
,
0100
1000
0100
0001
,
0010
1000
0100
0001
,
0100
1000
0010
0001
,
0100
1000
0100
0001
,
0010
1000
0010
0001
,
0100
1000
0100
0001
,
0010
1000
1001
0001
,
0101
0100
0110
0010
,
1010
1000
1100
0100
,
0110
0010
0011
0001
,
1001
1000
1010
0010
,
0011
0001
0101
0100
,
1100
1001
0110
1001
,
0011
1010
1100
0101
,
0110
0000
0000
0000
0010
0000
1000
0000
0100
0000
0000
1000
0000
0000
0001
0000
,
0011
0000
0000
0000
0010
0000
0001
0000
0100
0000
0000
0001
0000
0000
1000
0000
,
1010
0000
0000
0000
0010
0000
0100
0000
0001
0000
0000
0010
0000
0000
0100
0000
,
1100
0000
0000
0000
1000
0000
0100
0000
0010
0000
0000
0001
0000
0000
0100
0000
,
0101
0000
0000
0000
0001
0000
0010
0000
1000
0000
0000
0010
0000
0000
0001
0000
,
0101
0000
0000
0000
1000
0000
0100
0000
0001
0000
0000
0100
0000
0000
1000
0000
,
1010
0000
0000
0000
0001
0000
0010
0000
1000
0000
0000
0100
0000
0000
0010
0000
,
0110
0000
0000
0000
1000
0000
0100
0000
0010
0000
0001
0000
0100
0000
0010
1000
,
0000
0010
0001
0000
0010
0000
1000
0000
0100
0000
0000
0001
0000
0000
0100
0000
,
1100
0000
1000
0000
0010
0000
0100
0000
0001
0000
0000
1000
0000
0000
0001
0000
,
0101
0000
0100
0000
0010
0000
1000
0000
0001
0000
0000
0100
0000
0000
0010
0000
,
1010
0000
1000
0000
0100
0000
0001
0000
0100
0000
0000
1000
0000
0000
0010
0000
,
0110
0000
0100
0000
0001
0000
0010
0000
1000
0000
0000
0001
0000
0000
0100
0000
,
1100
0000
1000
0000
0010
0000
0001
0000
1000
0000
0000
0100
0000
0000
0001
0000
,
0011
0000
0010
0000
0100
0000
1000
0000
0010
0000
0000
0001
0000
0000
0100
0000
,
0110
0000
0010
0000
0001
0000
1000
0000
0100
0000
0010
0000
0001
0000
0100
1000
,
0000
0100
0001
0000
0021
0000
0000
0000
0130
0000
0000
0000
1020
0000
0000
0000
,
0130
0021
0130
1020
,
0130
0021
0130
1020
,
0130
0000
0101
0000
0000
0000
0011
0000
0000
1010
0000
0000
1100
0000
0000
0101
,
0000
1001
1200
0000
0310
0000
0201
0000
,
0310
1200
0310
0201
,
0310
1200
0310
0201
,
0310
1200
0310
0201
,
0310
0000
0110
0000
0010
1000
0100
0001
,
0100
0000
1010
0000
0100
0001
0010
1000
,
0010
0000
0101
0000
1000
0100
0001
0010
,
0100
0000
1100
0000
0001
0010
1000
0100
,
0010
0000
0011
0000
1000
0010
0001
0100
,
0010
0000
0101
0000
0001
0100
1000
0010
,
0100
0000
1010
0000
0001
0010
1000
0100
,
0001
0000
0110
0000
1000
0010
0001
0100
,
1000
0001
1000
0000
0220
0000
0000
0000
0000
0000
0000
0000
0030
0000
0000
0000
,
0000
0002
0000
0300
,
0000
0020
0000
0003
,
0000
2000
0000
0030
,
0000
0200
0000
3000
,
0000
0002
0000
0300
,
0000
2000
0000
0000
,
3003
0220
0000
0000
,
0000
0000
0330
0000
;

//---------------dance-double - ----------------
#NOTEDATA:;
#CHARTNAME:;
#STEPSTYPE:dance-double;
#DESCRIPTION:;
#CHARTSTYLE:;
#DIFFICULTY:Easy;
#METER:5;
#RADARVALUES:0.168407,0.247943,0.076882,0.111051,0.000000,138.000000,129.000000,9.000000,13.000000,0.000000,0.000000,0.000000,0.000000,0.000000,0.168407,0.247943,0.076882,0.111051,0.000000,138.000000,129.000000,9.000000,13.000000,0.000000,0.000000,0.000000,0.000000,0.000000;
#CREDIT:MILEN;
#DISPLAYBPM:135.000000;
#NOTES:
00000000
00000000
00000000
00000000
,
00000000
00000000
00000000
00000000
,
00000000
00000000
00000000
00000000
,
00000000
00000000
00000000
00000000
,
00000000
00001000
00000000
00001000
,
00000000
00010000
00000000
00010000
,
00000000
00001000
00000000
00010000
,
00000000
00001000
00000000
00010000
,
00000000
00011000
00000000
00001000
,
00000000
00100000
00000000
00010000
,
00000000
01000000
00000000
00100000
,
00000000
20000000
00000000
30000000
,
01000000
01000000
00000000
00100000
,
00000000
00010000
00000000
01000000
,
00000000
00001000
00000000
00020000
,
00000000
00030000
00000000
00000000
,
00000000
00011000
00000000
00010000
,
00000000
00000010
00000000
00001000
,
00000000
00000100
00000000
00000010
,
00000000
00000001
00000000
00000100
,
00000000
00000010
00000000
00001000
,
00000000
00000200
00000300
00010000
,
00010000
00001000
00010000
00000010
,
00000000
00010000
00001000
01000000
,
00000000
01100000
00000000
10010000
,
00000000
10000000
00100000
10000000
,
00000000
00010000
00100000
00010000
,
00000000
00100000
00001000
00100000
,
00000000
00001000
00010000
00001000
,
00000000
00010000
00000010
00010000
,
00000000
00000010
00001000
00000010
,
00000000
00001000
00000100
00000010
,
00000001
00001001
00000000
00000110
,
00000000
00000100
00000001
00000100
,
00000000
00000010
00001000
00000010
,
00000000
00010000
00000100
00010000
,
00000000
00001000
00100000
00001000
,
00000000
00100000
00010000
00100000
,
00000000
01000000
10000000
01000000
,
00000000
10000000
00100000
01000000
,
00010000
10010000
00000000
10000000
,
00000000
00100000
00000000
00010000
,
00000000
00001000
00000000
00000100
,
00000000
00000001
00000000
00000010
,
00000000
00001000
00000000
00010000
,
00000000
01000000
00000000
10000000
,
00000000
00100000
00000000
00010000
,
00000000
00001000
00000000
00000100
,
00000000
00000002
00000000
00000013
,
00000000
00000020
00000000
00000130
,
00000000
00000200
00000000
00001300
,
00000000
00002000
00000000
00013000
,
00000000
00020000
00000000
00130000
,
00000000
00200000
00000000
01300000
,
00000000
02000000
00000000
13000000
,
00000000
20000000
00000000
30010000
,
00000000
10010000
00000000
00000000
,
00000000
01000000
00000000
00000000
,
00000000
00100000
00000000
00000000
,
00000000
00010000
00000000
00000000
,
00000000
00001000
00000000
00000000
,
00000000
00000100
00000000
00000000
,
00000000
00000010
00000000
00000000
,
00000000
00002002
00000000
00000000
,
00000000
00000000
00003003
00000000
;

//---------------dance-double - ----------------
#NOTEDATA:;
#CHARTNAME:;
#STEPSTYPE:dance-double;
#DESCRIPTION:;
#CHARTSTYLE:;
#DIFFICULTY:Medium;
#METER:8;
#RADARVALUES:0.288001,0.358140,0.136679,0.256272,0.008542,236.000000,220.000000,16.000000,30.000000,0.000000,0.000000,0.000000,0.000000,0.000000,0.288001,0.358140,0.136679,0.256272,0.008542,236.000000,220.000000,16.000000,30.000000,0.000000,0.000000,0.000000,0.000000,0.000000;
#CREDIT:MILEN;
#DISPLAYBPM:135.000000;
#NOTES:
00000000
00000000
00000000
00000000
,
00000000
00000000
00000000
00000000
,
00000000
00000000
00000000
00000000
,
00000000
00000000
00000000
00000000
,
00000000
00001000
00001000
00100000
,
00100000
01000000
01000000
00010000
,
00010000
00001000
00001000
00000010
,
00000010
00000100
00000100
00010000
,
00001000
02000000
03000000
00200000
,
00300000
02000000
03000000
00001000
,
00010000
00000020
00000030
00000200
,
00000300
00000020
00000000
00000030
,
00010000
00002000
00003000
02000000
,
03000000
00002000
00003000
00010000
,
00000010
00010000
00001000
00022000
,
00000000
00003000
00001000
00001000
,
00031000
00002000
00103000
00020000
,
00030010
00002000
00103000
00100000
,
00001000
00020000
00030100
00002000
,
01003000
00020000
00000100
00000100
,
00030100
00010000
00001000
00100000
,
01000000
10000000
00100000
00010000
,
00001000
00000100
00000001
00000010
,
00000100
00010000
00001000
00022000
,
00033000
00000000
00011000
00000000
00010000
00000000
00100000
10000000
,
00100000
00000000
10000000
00000000
01000000
00000000
00010000
01000000
,
00010000
00000000
01000000
00000000
00010000
00000000
00001000
00010000
,
00001000
00000000
00010000
00000000
00001000
00000000
00000100
00000001
,
00000100
00000000
00000001
00000000
00000010
00000000
00001000
00010000
,
00001000
00000000
00000010
00000000
00001000
00000000
00010000
00001000
,
00010000
00000000
00001000
00000000
00010000
00000000
01000000
10000000
,
01000000
00000000
00000000
00000000
10000000
00000000
00000000
00000000
10100000
00000000
00000000
00000000
00100000
00000000
00000000
00010000
,
00000000
00001000
00011000
00000000
00010000
00000000
00001000
00000100
,
00001000
00000000
00000100
00000000
00000001
00000000
00000010
00001000
,
00000010
00000000
00001000
00000000
00010000
00000000
00100000
10000000
,
00100000
00000000
10000000
00000000
01000000
00000000
00010000
00001000
,
00010000
00000000
00001000
00000000
00000010
00000000
00000001
00000100
,
00000001
00000000
00000100
00000000
00001000
00000000
00010000
00001000
,
00010000
00000000
00100000
00000000
10000000
00000000
01000000
00100000
,
01000000
00020000
00030100
00002000
,
01003000
00011000
00010000
00000100
,
00000010
00000001
00000100
00001000
,
00010000
00100000
10000000
01000000
,
00100000
00000000
00000000
00000000
00001000
00000000
00000000
00010000
00000000
00000000
00001000
00000000
00011000
00000000
00000000
00000000
,
00010000
00001000
00000100
00000000
00000001
00000000
00000010
00000000
,
00000100
00010000
00001000
00100000
,
01000000
10000000
00100000
00010000
,
00001000
00000100
00000001
00000010
,
00001000
00011000
00100000
00010000
,
01000000
01010000
00100000
10000000
,
01000000
11000000
00100000
00001000
,
00010000
00011000
00000100
00001000
,
00000010
00001010
00000100
00000001
,
00000010
00000011
00000100
00010000
,
00001000
00011000
00100000
01000000
,
10000000
10100000
00010000
00001000
,
00000100
00000202
00000000
00000300
,
00000000
00000020
00000000
00000003
,
00000000
00000200
00000000
00000030
,
00000000
00020000
00000000
00000300
,
00000000
00002000
00000000
00030000
,
00000000
00200000
00000000
00003000
,
00000000
00000000
02000000
00000000
00000000
00000000
00000000
00300000
,
00000000
20000000
00000000
00000000
,
00000000
00000000
33000000
00000000
;

//---------------dance-double - ----------------
#NOTEDATA:;
#CHARTNAME:;
#STEPSTYPE:dance-double;
#DESCRIPTION:;
#CHARTSTYLE:;
#DIFFICULTY:Hard;
#METER:12;
#RADARVALUES:0.410036,0.578535,0.273357,0.307527,0.153763,336.000000,304.000000,32.000000,36.000000,0.000000,0.000000,0.000000,0.000000,0.000000,0.410036,0.578535,0.273357,0.307527,0.153763,336.000000,304.000000,32.000000,36.000000,0.000000,0.000000,0.000000,0.000000,0.000000;
#CREDIT:MILEN;
#DISPLAYBPM:135.000000;
#NOTES:
// measure 0
00000000
00000000
00000000
00000000
,  // measure 1
00000000
00000000
00000000
00000000
,  // measure 2
00000000
00000000
00000000
00000000
,  // measure 3
00000000
00000000
00000000
00000000
,  // measure 4
00000000
00000000
00000000
00000000
00010000
00000000
01000000
00100000
00000000
00100000
01000000
00000000
01000000
00010000
00000000
00010000
,  // measure 5
00100000
00000000
00001000
00000000
00010000
00000000
00000010
00000100
00000000
00000100
00000010
00000000
00000010
00001000
00000000
00001000
,  // measure 6
00000100
00000000
00010000
00000000
00001000
00000000
00100000
01000000
00000000
01000000
00100000
00000000
00100000
00010000
00000000
00010000
,  // measure 7
10000000
00000000
00100000
00000000
00010000
00000000
00000010
00000100
00000000
00000100
00000010
00000000
00000010
00001000
00000000
00001000
,  // measure 8
00000001
00000100
00001000
00000000
01000000
00000000
00010000
00000000
,  // measure 9
00100000
01000000
10000000
00100000
,  // measure 10
00010000
00000010
00001000
00000100
,  // measure 11
00000010
00000001
00000100
00001000
,  // measure 12
01000000
00100000
00010000
00001000
,  // measure 13
00000100
00000001
00000010
00000100
,  // measure 14
00001000
00010000
01000000
00100000
,  // measure 15
10000000
01000000
00010000
00001000
,  // measure 16
00000010
00000001
00001001
00001000
,  // measure 17
00001010
00000010
00010010
00010000
,  // measure 18
00011000
00001000
00101000
00100000
,  // measure 19
01100000
01000000
01010000
00010000
,  // measure 20
00011000
00001000
00001100
00000100
,  // measure 21
00000110
00000010
00010010
00010000
,  // measure 22
00011000
00001000
00101000
00100000
,  // measure 23
01100000
01000000
11000000
10000000
,  // measure 24
10010000
00000000
00000000
00000000
00010000
00000000
01000000
00000000
00001000
00000000
00000000
00010000
00000000
00000000
00100000
00000000
,  // measure 25
00001000
00000000
00000000
00000000
00000010
00000000
00010000
00000000
00001000
00000000
00000000
00000100
00000000
00000000
00000001
00000000
,  // measure 26
00001000
00000000
00000000
00000000
00000100
00000000
00000010
00000000
00000001
00000000
00000000
00000100
00000000
00000000
00001000
00000000
,  // measure 27
00010000
00000000
00000000
00000000
01000000
00000000
00100000
00000000
00010000
00000000
00000000
10000000
00000000
00000000
00100000
00000000
,  // measure 28
00010000
00000000
00000000
00000000
00001000
00000000
00100000
00000000
01000000
00000000
00000000
00010000
00000000
00000000
00001000
00000000
,  // measure 29
00000010
00000000
00000000
00000000
00000001
00000000
00001000
00000000
00000010
00000000
00000000
00010000
00000000
00000000
00100000
00000000
,  // measure 30
10000000
00000000
00000000
00000000
01000000
00000000
00100000
00000000
00010000
00000000
00000000
01000000
00000000
00000000
00001000
00000000
,  // measure 31
00010000
00000000
00000000
00000000
00001000
00000000
00000100
00000000
00000001
00000000
00000010
00000000
00000100
00000000
00001000
00000010
,  // measure 32
00000000
00000010
00001000
00000000
00000001
00000000
00000100
00000000
00001000
00000000
00000000
00010000
00000000
00000000
00100000
00000000
,  // measure 33
10000000
00000000
01000000
00000000
00100000
00000000
10000000
00000000
00100000
00000000
00000000
00010000
00000000
00000000
01000000
00000000
,  // measure 34
00001000
00000000
00010000
00000000
00100000
00000000
00001000
00000000
00000010
00000000
00000000
00010000
00000000
00000000
00001000
00000000
,  // measure 35
00000100
00000000
00000001
00000000
00000010
00000000
00000100
00000000
00000001
00000000
00000000
00000100
00000000
00000000
00001000
00000000
,  // measure 36
00000010
00000000
00010000
00000000
00100000
00000000
10000000
00000000
01000000
00000000
00000000
00100000
00000000
00000000
00010000
00000000
,  // measure 37
00001000
00000000
00000010
00000000
00000100
00000000
00001000
00000000
00000100
00000000
00000000
00000001
00000000
00000000
00000010
00000000
,  // measure 38
00000100
00000000
00001000
00000000
00010000
00000000
01000000
00000000
00100000
00000000
00000000
00010000
00000000
00000000
00100000
00000000
,  // measure 39
10000000
00000000
01000000
00000000
00100000
00000000
00010000
00000000
10000000
00000000
00100000
00000000
01000000
00000000
00001000
00010000
,  // measure 40
00000000
00010000
00001000
00000000
00000200
00000000
00000000
00000000
00000302
00000000
00000000
00000000
00000023
00000000
00000000
00000000
,  // measure 41
00002030
00023000
02030000
23000000
,  // measure 42
30200000
00320000
00032000
00003200
,  // measure 43
00000301
00000000
00000011
00000000
00000000
00000000
00001100
00000000
00000000
00010010
00000000
00000000
00011000
00000000
00000000
00101000
,  // measure 44
00000000
01010000
02000000
00000000
03002000
00000000
00023000
00000000
,  // measure 45
00230000
00302000
00003020
00020030
,  // measure 46
00032000
00003200
00020300
02030000
,  // measure 47
03200000
00320000
00032000
00003200
,  // measure 48
00000310
00000000
00001001
00000000
00000001
00000100
00001000
00010000
,  // measure 49
00100000
00000000
10010000
00000000
10000000
01000000
00010000
00001000
,  // measure 50
00000100
00000000
00000011
00000000
00000001
00000100
00001000
01000000
,  // measure 51
00010000
00000000
11000000
00000000
10000000
00100000
00010000
00000010
,  // measure 52
00001000
00000000
00000101
00000000
00000001
00000010
00000100
00001000
,  // measure 53
00010000
00000000
10100000
00000000
10000000
01000000
00100000
00010000
,  // measure 54
00001000
00000000
00000110
00000000
00000001
00000100
00001000
01000000
,  // measure 55
10000000
00000000
01100000
00000000
10000000
00100000
00010000
00000010
,  // measure 56
00000001
00001000
00002002
00000000
00000000
00000000
00003000
00000000
,  // measure 57
00000000
00000020
00000000
00000003
,  // measure 58
00000000
00000200
00000000
00000030
,  // measure 59
00000000
00002000
00000000
00000300
,  // measure 60
00000000
00020000
00000000
00003000
,  // measure 61
00000000
00200000
00000000
00030000
,  // measure 62
00000000
02000000
00000000
00000000
,  // measure 63
03300000
20020000
00000000
00000000
,  // measure 64
00000000
00000000
30030000
00000000
;
