#TITLE:Ultra Synergy Matrix;
#SUBTITLE:;
#ARTIST:Tanchiky;
#TITLETRANSLIT:;
#SUBTITLETRANSLIT:;
#ARTISTTRANSLIT:;
#GENRE:VARIETY;
#CREDIT:MUINELIM;
#BANNER:Ultra Synergy Matrix.png;
#BACKGROUND:Ultra Synergy Matrix-bg.png;
#LYRICSPATH:;
#CDTITLE:;
#MUSIC:Ultra Synergy Matrix.ogg;
#OFFSET:0.000000;
#SAMPLESTART:73.500000;
#SAMPLELENGTH:11.980000;
#SELECTABLE:YES;
#BPMS:0.000000=160.000000
;
#STOPS:
;
#BGCHANGES:0.000=Ultra Synergy Matrix.mp4=1.000=1=0=1===CrossFade==,
99999=-nosongbg-=1.000=0=0=0 // don't automatically add -songbackground-
;
#KEYSOUNDS:;
#ATTACKS:;

//---------------dance-single - ----------------
#NOTES:
     dance-single:
     :
     Beginner:
     4:
     0.163925,0.231919,0.032323,0.000000,0.000000,142.000000,138.000000,4.000000,0.000000,0.000000,0.000000,0.163925,0.231919,0.032323,0.000000,0.000000,142.000000,138.000000,4.000000,0.000000,0.000000,0.000000:
0000
0000
0000
0000
,
0000
0000
0000
0000
,
0000
0000
0000
0000
,
0000
0000
0000
0000
,
0000
0000
0000
0000
,
0100
0000
0000
0000
,
0010
0000
0000
0000
,
0100
0000
0010
0000
,
0100
0100
0100
0000
,
0001
0000
1000
0000
,
0001
0000
1000
1000
,
1000
0000
0001
0000
,
1000
0000
0001
0001
,
0001
0000
1000
0000
,
0100
0000
0010
0000
,
0001
0000
1000
0000
,
0100
0100
0100
0000
,
0010
0000
0000
0000
,
0001
0000
0000
0000
,
0010
0000
0000
0000
,
0001
0000
0001
0000
,
1000
0000
0000
0000
,
0100
0000
0000
0000
,
1000
0000
1000
0000
,
0100
0100
0100
0000
,
1000
0000
0000
0000
,
0010
0000
0000
0000
,
0001
0000
0000
0000
,
0100
0000
0100
0000
,
1000
0000
0000
0000
,
0010
0000
0000
0000
,
0001
0000
0000
0000
,
0100
0100
0100
0000
,
1001
0000
0000
0000
,
0000
0000
0000
0000
,
0000
0000
0000
0000
,
0000
0000
0000
0000
,
0001
0000
0000
0000
,
1000
0000
0000
0000
,
0001
0000
0001
0000
,
1000
1000
1000
0000
,
0001
0000
0000
0000
,
0010
0000
0000
0000
,
0100
0000
0000
0000
,
1000
0000
0000
0000
,
0001
0000
0010
0000
,
0100
0000
1000
0000
,
0001
0000
0010
0000
,
0100
0100
0100
0000
,
1000
0000
0010
0000
,
0001
0000
0000
0000
,
0001
0000
0010
0000
,
1000
0000
0000
0000
,
0001
0000
0100
0000
,
1000
0000
0000
0000
,
1000
0000
0100
0000
,
0001
0000
1001
0000
,
1000
0000
0010
0000
,
1000
0000
0100
0000
,
0010
0000
0001
0000
,
0100
0000
0001
0000
,
1000
0000
0010
0000
,
0100
0000
0001
0000
,
0010
0000
0100
0000
,
1000
1000
1000
0000
,
0010
0000
0100
0000
,
0010
0000
0100
0100
,
0100
0000
0010
0000
,
0100
0000
0010
0010
,
0010
0000
1000
0000
,
0001
0000
0100
0000
,
0010
0000
1000
0000
,
0001
0000
1001
0000
,
1000
0000
0001
0000
,
1000
1000
1000
0000
,
0010
0000
0100
0000
,
0001
0000
1000
0000
,
0100
0000
0010
0000
,
0001
0000
1000
0000
,
0010
0000
0001
0000
,
0100
0000
1000
0000
,
0010
0000
0100
0000
,
0110
0000
0000
0000
;

//---------------dance-single - ----------------
#NOTES:
     dance-single:
     :
     Easy:
     8:
     0.300144,0.430707,0.210101,0.129293,0.000000,260.000000,234.000000,26.000000,16.000000,0.000000,0.000000,0.300144,0.430707,0.210101,0.129293,0.000000,260.000000,234.000000,26.000000,16.000000,0.000000,0.000000:
0000
0000
0000
0000
,
0000
0000
0000
0000
,
0000
0000
0000
0000
,
0000
0000
0000
0000
,
0000
0000
0000
0000
,
1000
0000
1000
0000
,
0001
0000
0001
0000
,
1000
1000
0001
0001
,
1001
0100
0020
0030
,
0110
1000
0100
0000
,
0010
0001
0100
0100
,
0110
0001
0100
0000
,
0010
1000
0200
0300
,
1000
0001
0010
0001
,
1000
0100
1000
0000
,
0001
0100
0010
1000
,
0001
1000
2002
3003
,
0001
0000
0100
0000
,
1000
0000
0010
0000
,
0001
0000
0100
0000
,
0110
0001
1000
0001
,
1000
0000
0100
0000
,
0001
0000
0010
0000
,
1000
0000
0001
0000
,
1001
0110
2002
3003
,
0001
0000
0010
0000
,
0100
0000
1000
0000
,
0001
0000
0010
0000
,
0100
0000
0100
0000
,
1000
0000
0010
0000
,
0100
0000
0001
0000
,
1000
0000
0010
0000
,
0100
0100
0200
0300
,
0020
0000
0000
0000
,
0000
0000
0000
0000
,
0030
0000
0000
0000
,
0000
0000
0000
0000
,
1000
0000
1000
0000
,
0010
0000
0010
0000
,
0001
0000
0001
0000
,
0100
0100
0200
0300
,
1000
0001
0010
0000
,
0001
1000
0100
0000
,
1000
0001
0100
0000
,
0001
1000
0010
0000
,
0110
0000
0101
0000
,
0011
0000
1100
0000
,
1010
0000
0110
0000
,
1001
0001
1000
0020
,
0130
0001
0100
1000
,
0100
0000
0001
0000
0100
0010
0100
0000
,
0010
1000
0010
0001
,
0010
0000
1000
0000
0010
0100
0010
0000
,
1000
0100
0010
0001
,
1000
0000
0100
0000
0010
0100
0010
0000
,
0001
0010
0100
1000
,
0001
0010
0100
1001
,
0001
0100
0001
0010
,
0001
0000
0100
0000
0001
1000
0001
0000
,
1000
0100
1000
0010
,
1000
0000
0100
0000
1000
0001
1000
0000
,
0001
0100
0010
1000
,
0100
0000
0010
0000
0001
1000
0001
0000
,
1001
0000
0110
0000
,
1001
0110
2002
3003
,
1000
0010
0001
1000
,
0010
0001
1000
1000
,
0001
0100
1000
0001
,
0100
0100
2000
3001
,
0001
0100
0010
1000
,
0100
0010
0001
1000
,
0010
0100
0010
0000
0100
0010
0100
0000
,
0020
0000
0130
0110
,
1000
0000
0001
0000
,
1000
0001
2002
3003
,
1000
0100
0010
0000
,
1000
0100
0010
0000
,
0001
0010
0100
0000
,
0001
0010
0100
0000
,
1000
0010
0001
0000
,
0001
0100
1000
0000
,
1010
0010
0101
0100
,
1001
0000
0000
0000
;

//---------------dance-single - ----------------
#NOTES:
     dance-single:
     :
     Medium:
     12:
     0.518326,0.563232,0.371717,0.193939,0.117172,449.000000,403.000000,46.000000,24.000000,0.000000,0.000000,0.518326,0.563232,0.371717,0.193939,0.117172,449.000000,403.000000,46.000000,24.000000,0.000000,0.000000:
0000
0000
0000
0000
,
0000
0000
0000
0000
,
0000
0000
0000
0000
,
0000
0000
0000
0000
,
0000
0000
0000
0000
,
1000
1000
0010
0010
,
0100
0100
0001
0001
,
1000
0100
0010
0001
1000
0100
0010
0001
,
0100
0000
0000
0010
0100
0010
0100
0000
0000
1001
0000
0000
,
0001
0100
1000
0010
,
0001
1000
1001
1001
,
1000
0100
0001
0010
,
2000
0000
0000
0000
3001
0000
0000
0000
0001
0000
0000
0001
0000
0000
0001
0000
,
0101
0000
0100
0010
1000
0001
0100
0010
,
1000
0000
0000
0000
0010
0000
0100
0000
0001
0000
0000
1000
0000
0000
0001
0000
,
1001
0000
1000
0010
0100
0001
1000
0010
,
0100
0000
0000
0000
0010
0000
0000
0000
0100
0000
0000
0100
0000
0000
0100
0000
,
0110
0000
0000
0000
0010
0000
0000
1000
0000
0000
0010
0000
1000
0000
0001
0000
,
0100
0000
0000
0000
0100
0000
0000
0001
0000
0000
0100
0000
0001
0000
1000
0000
,
0010
0000
0000
0000
0010
0000
0000
0100
0000
0000
0010
0000
1000
0000
0001
0000
,
0100
0000
0001
0010
0100
1000
1010
0000
,
0101
0000
0000
0000
0001
0000
0000
0010
0000
0000
0001
0000
0100
0000
0010
0000
,
1000
0000
0000
0000
1000
0000
0000
0100
0000
0000
1000
0000
0010
0000
0100
0000
,
0101
0000
1010
0000
,
1100
0000
0011
0000
0110
0000
2002
3003
,
0001
0000
0000
0001
0000
0000
0100
0000
0000
0100
0000
0000
1000
0000
0000
0000
,
1000
0000
0000
1000
0000
0000
0010
0000
0000
0010
0000
0000
0001
0000
0000
0000
,
0001
0000
0000
0001
0000
0000
0100
0000
0000
0100
0000
0000
1000
0000
0000
0000
,
0002
0103
2000
3010
,
1000
0000
0000
1000
0000
0000
0100
0000
0000
0001
0000
0000
0010
0000
0000
0000
,
0001
0000
0000
0001
0000
0000
0010
0000
0000
1000
0000
0000
0100
0000
0000
0000
,
0010
0100
0010
0100
1000
0001
1000
0001
,
0010
0100
1100
0011
,
2002
0000
0000
0000
,
0000
0000
0000
0000
,
3003
0000
0000
0000
,
0000
0000
0000
0000
,
0001
0001
0100
0100
,
0010
0010
1000
1000
,
0001
0010
0100
1000
,
0010
0100
0010
0110
,
2000
0100
0100
3100
,
0002
0010
0010
0013
,
2000
0010
0010
3010
,
0002
0100
0100
0103
,
2000
3100
0020
0031
,
2000
3010
0200
0301
,
0020
0130
2000
3001
,
1001
0110
1001
0110
,
0200
0000
0301
0010
0001
1000
0100
1000
,
0010
0100
0001
0010
0100
1000
0010
0100
,
0020
0000
1030
0100
1000
0001
0010
0001
,
0100
0010
1000
0100
0010
0001
0100
0010
,
0200
0000
0301
1000
0001
0100
0010
0100
,
0001
0010
0100
1000
0010
0100
0001
1000
,
0020
0000
0130
0001
1001
0000
0010
1000
,
1001
0000
0011
0000
1100
0000
0220
0330
,
0010
0001
0100
0010
1000
0100
0010
0001
,
0100
0010
1000
0010
0100
0001
1000
0000
,
0100
1000
0010
0100
0001
0010
0100
1000
,
0010
0100
0001
0100
0010
1000
0001
0000
,
0010
0001
0100
0010
1000
0100
1000
0100
,
0001
0100
1000
0010
0001
0010
1000
0100
,
0010
0011
0100
1100
,
1010
0000
0101
0000
0001
1000
0010
0100
,
0110
0001
0100
1000
,
0010
0001
0101
1010
,
1000
0100
0001
0010
,
2000
0000
0000
0000
3001
0000
0000
0000
0100
0000
0000
0100
0000
0000
0100
0000
,
0110
0000
0010
1000
0100
0001
0100
1000
,
0010
0000
0000
0000
0000
0000
0010
0000
0000
0100
0000
0000
0010
0000
0000
0000
1000
0000
0000
0000
0001
0000
0000
0000
,
1001
0000
1000
0001
0100
1000
0100
0001
,
0010
0000
0100
0000
1000
0000
0010
0000
0100
0000
0000
0100
0000
0000
0100
0000
,
0101
0000
1010
0000
,
1100
0011
0110
1001
,
0110
0000
0000
0000
0010
0000
0000
0001
0000
0000
0010
0000
0100
0000
0001
0000
,
0100
0000
0000
0000
0100
0000
0000
1000
0000
0000
0100
0000
0010
0000
1000
0000
,
0010
0000
0000
0000
0010
0000
0000
0001
0000
0000
0010
0000
0100
0000
1000
0000
,
1001
0000
0001
0100
0010
1000
0001
0010
,
0100
0000
0000
0000
1000
0000
0000
0010
0000
0000
0001
0000
0010
0000
0100
0000
,
0001
0000
0000
0000
0001
0000
0000
0100
0000
0000
1000
0000
0100
0000
0010
0000
,
1010
1000
0100
0001
1000
0010
0001
0100
,
0101
0000
0000
0000
;

//---------------dance-single - ----------------
#NOTES:
     dance-single:
     :
     Hard:
     14:
     0.697258,0.795152,0.565657,0.387879,0.557576,604.000000,534.000000,70.000000,48.000000,0.000000,0.000000,0.697258,0.795152,0.565657,0.387879,0.557576,604.000000,534.000000,70.000000,48.000000,0.000000,0.000000:
0000
0000
0000
0000
,
0000
0000
0000
0000
,
0000
0000
0000
0000
,
0000
0000
0000
0000
,
0000
0000
0000
0000
,
1000
0000
1000
0000
1000
0000
2000
0001
,
3001
0000
0001
0000
0001
0000
0002
1000
,
1003
0100
0100
0010
0010
0001
0001
0100
,
0110
0000
0000
0000
0000
0000
0001
0000
0010
0000
0100
0000
1000
0000
0000
0000
0000
0000
2002
0000
0000
3003
0000
0000
,
1001
0000
0000
0000
0001
0100
0001
0100
0000
0001
0000
0000
0010
0000
0001
0000
,
1000
0000
0000
0000
0100
1000
0100
1000
0010
0000
0000
0000
0100
0000
0000
0000
,
0110
0000
0000
0000
1000
0100
1000
0100
0000
1000
0000
0000
0100
0000
1000
0000
,
0001
0000
0000
0000
0011
0000
0000
0000
0010
0100
0000
0010
0100
0000
1000
0000
,
1001
0000
0001
0100
0010
1000
0001
0010
,
0100
0000
0000
1000
0000
0000
0001
0000
0000
0100
0000
0000
0110
0000
0000
0000
1010
0000
0000
0000
0101
0000
0000
0000
,
1001
0000
0000
0000
1000
0100
1000
0000
0010
0000
0100
0000
0001
0010
0001
0000
,
0100
0000
0010
0100
0010
0000
1000
0000
0100
0010
0000
0100
0010
0000
0001
0000
,
1001
0000
0000
0000
2000
0000
0000
3010
0000
0010
0000
0100
0001
0000
0010
0000
,
0110
0000
0000
0000
0200
0000
0000
0310
0000
0010
0000
0001
1000
0000
0100
0000
,
0110
0000
0000
0000
0020
0000
0000
0031
0000
0001
0000
0100
0010
0000
1000
0000
,
1100
0000
0011
0010
0001
1000
0200
0300
,
1001
0000
0000
0000
0002
0000
0000
0103
0000
0100
0000
0010
1000
0000
0001
0000
,
0011
0000
0000
0000
0020
0000
0000
0130
0000
0100
0000
1000
0010
0000
0100
0000
,
0110
0000
0000
0000
0010
1000
0010
1000
0010
0000
0000
0000
0100
0001
0100
0001
,
0100
0000
1100
0000
0011
0000
2002
3003
,
0001
0000
0000
0100
0000
0000
1000
0000
0000
0100
0000
0000
0001
0000
0001
0000
,
1000
0000
0000
0010
0000
0000
0001
0000
0000
0010
0000
0000
1000
0000
1000
0000
,
0001
0000
0000
0100
0000
0000
1000
0000
0000
0010
0000
0000
0001
0000
0001
0000
,
0100
0000
0010
0000
1000
0100
0000
0010
0001
0000
0100
0000
0010
0100
0010
0100
,
0010
0000
0000
1000
0000
0000
0100
0000
0000
0001
0000
0000
1000
0000
1000
0000
,
0010
0000
0000
0001
0000
0000
0100
0000
0000
1000
0000
0000
0001
0000
0001
0000
,
0010
0000
0000
1000
0000
0000
0100
0000
0000
0001
0000
0000
1000
0000
1000
0000
,
0010
0100
0010
0000
0001
1000
0001
0000
0110
0000
0000
0000
0220
0000
0330
0000
,
2002
0000
0000
0000
,
0000
0000
0000
0000
,
3003
0000
0000
0000
,
0000
0000
0000
0000
,
1000
0000
0000
0000
0010
0000
0000
0001
0000
0000
0100
0000
0101
0000
0000
0000
,
0001
0000
0000
0000
0100
0000
0000
1000
0000
0000
0010
0000
1010
0000
0000
0000
,
1000
0100
0001
0100
1000
0010
0001
0010
,
1000
0000
0100
0010
0100
0000
0010
0000
0002
0000
0000
0000
0013
0100
0010
0100
,
2000
0010
0001
3100
,
0002
0010
1000
0103
,
0020
0001
0100
1030
,
0200
1000
0010
0301
,
0021
0130
1200
0310
,
0201
0310
1020
0130
,
0102
0013
2010
3100
,
0101
0000
1010
0000
0110
0000
2002
3003
,
1001
0000
0000
0000
0001
0100
0000
0010
0000
0100
0000
0001
0010
0000
0100
0000
,
1000
0000
0010
0100
0010
0100
0000
0001
0000
1000
0100
0000
0010
0000
0001
0000
,
1001
0000
1000
0000
0010
0100
0000
0001
0000
0100
0000
0010
1000
0000
0100
0000
,
0010
0000
0001
0000
1000
0010
0000
0100
0000
0001
0000
0010
0100
0010
0100
0000
,
0110
0000
0000
0000
0010
0001
0000
0100
0000
0010
0000
1000
0100
0000
1000
0000
,
0001
0000
0010
0100
0010
0100
0000
1000
0000
0010
0100
0000
0001
0000
1000
0000
,
1010
0010
0100
0001
0101
0100
0010
1000
,
1100
0000
0011
0000
1001
0000
0220
0330
,
0010
0000
1000
0000
0100
0010
0100
0000
0010
0000
0001
0000
0100
0010
0100
0000
,
0010
0000
1000
0000
0100
0010
0100
0000
0020
0000
0000
0031
0100
0001
0100
0001
,
1000
0000
0010
0000
0100
0001
0100
0000
0001
0000
0010
0000
0100
1000
0100
0000
,
1000
0000
0010
0000
0100
0001
0100
0000
0001
0000
0010
0000
0100
1000
0100
1000
,
0100
0000
1000
0000
0001
0100
0010
0000
0100
0000
0001
0000
1000
0010
0100
0000
,
0010
0000
1000
0000
0100
0010
0001
0000
0020
0000
0000
0130
1000
0100
1000
0100
,
0010
0001
0100
1000
,
1001
0000
0220
0330
0001
0100
1000
0010
,
0001
1000
0100
0100
0100
0001
0010
0010
,
0010
1000
0100
0100
0110
0000
2002
3003
,
0001
0100
1000
1000
1000
0010
0001
0001
,
1001
0000
0000
0000
0220
0000
0330
0000
1000
0010
0000
0100
0001
0000
0010
0000
,
0110
0000
0100
0000
1000
0010
0100
0000
0001
0000
1000
0000
0001
0100
0010
0000
,
1000
0000
0000
0000
0000
0000
0001
0000
0000
0000
0000
0000
0100
0000
0000
0010
0000
0000
1000
0000
0000
0000
0000
0000
1100
0000
0000
0000
0000
0000
0000
0000
0101
0000
0000
0000
0000
0000
0000
0000
0011
0000
0000
0000
0000
0000
0000
0000
,
1010
0000
1000
0000
0100
0010
0001
0000
0100
0000
0010
0000
1000
0100
0010
0000
,
0001
0000
1000
0010
0100
0000
0001
0000
0010
1000
0000
0001
0100
0000
1000
0000
,
1001
0000
0000
0000
0001
0100
0001
0100
0001
0000
0000
0000
1000
0010
1000
0010
,
1000
0000
1100
0000
0101
0000
2002
3003
,
1001
0000
0000
0000
0200
0000
0000
0301
0000
0010
0000
0100
1000
0000
0001
0000
,
0011
0000
0000
0000
0020
0000
0000
0031
0000
0100
0000
0010
1000
0000
0001
0000
,
0101
0000
0000
0000
2000
0000
0000
3100
0000
0010
0000
0001
0100
0000
0010
0000
,
1010
0100
0101
1000
1100
0001
0022
0033
,
0110
0000
0000
0000
0200
0000
0000
1300
0000
0010
0000
0001
0010
0000
1000
0000
,
1100
0000
0000
0000
0020
0000
0000
0031
0000
0100
0000
1000
0100
0000
0001
0000
,
0010
0100
1000
0000
0001
0010
0100
0000
1000
0010
0100
0000
0001
0100
0010
0000
,
1001
0000
0000
0000
;

//---------------dance-double - ----------------
#NOTES:
     dance-double:
     :
     Hard:
     15:
     0.681097,0.762020,0.533333,0.315152,0.577778,590.000000,524.000000,66.000000,39.000000,0.000000,0.000000,0.681097,0.762020,0.533333,0.315152,0.577778,590.000000,524.000000,66.000000,39.000000,0.000000,0.000000:
00000000
00000000
00000000
00000000
,
00000000
00000000
00000000
00000000
,
00000000
00000000
00000000
00000000
,
00000000
00000000
00000000
00000000
,
00000000
00000000
00000000
00000000
,
00001000
00000000
00001000
00000000
00001000
00000000
00002000
00010000
,
00013000
00000000
00010000
00000000
00010000
00000000
00020000
00001000
,
00031000
00100000
01000000
00010000
00001000
00000010
00000100
00010000
,
00011000
00000000
00000000
00000000
00000000
00000000
00001000
00000000
00000100
00000000
00000010
00000000
00001000
00000000
00000000
00000000
00000000
00000000
00002002
00000000
00000000
00003003
00000000
00000000
,
00001001
00000000
00000000
00000000
00000001
00000010
00000001
00000010
00000000
00000100
00000000
00000000
00001000
00000000
00000100
00000000
,
00010000
00000000
00000000
00000000
00001000
00010000
00001000
00010000
00100000
00000000
00000000
00000000
10100000
00000000
00000000
00000000
,
01010000
00000000
00000000
00000000
10000000
00100000
10000000
00100000
00000000
01000000
00000000
00000000
00010000
00000000
01000000
00000000
,
00001000
00000000
00000000
00000000
00011000
00000000
00000000
00000000
00010000
00000100
00000000
00001000
00000100
00000000
00000010
00000000
,
00000011
00000000
00000001
00000100
00001000
00010000
00100000
10000000
,
01000000
00000000
00000000
00010000
00000000
00000000
00001000
00000000
00000000
00000010
00000000
00000000
00000110
00000000
00000000
00000000
00001100
00000000
00000000
00000000
00000011
00000000
00000000
00000000
,
00001001
00000000
00000001
00000010
00000100
00001000
00010000
00100000
,
01000000
00000000
10000000
00010000
10000000
00000000
00100000
00000000
00010000
00001000
00000000
00010000
00000010
00000000
00000100
00000000
,
00000110
00000000
00000000
00000000
00000002
00000000
00000000
00001003
00000000
00000100
00000000
00010000
00001000
00000000
00100000
00000000
,
00110000
00000000
00000000
00000000
20000000
00000000
00000000
30010000
00000000
00100000
00000000
00001000
00010000
00000000
00000100
00000000
,
00001100
00000000
00000000
00000000
00000002
00000000
00000000
00000103
00000000
00000010
00000000
00010000
00001000
00000000
01000000
00000000
,
01100000
00000000
10010000
00010000
01000000
00100000
01100000
00000000
,
10010000
00000000
00000000
00000000
20000000
00000000
00000000
30010000
00000000
01000000
00000000
00001000
00010000
00000000
00000010
00000000
,
00001010
00000000
00000000
00000000
00000002
00000000
00000000
00001003
00000000
00000010
00000000
00010000
00001000
00000000
01000000
00000000
,
01010000
00000000
00000000
00000000
00010000
00100000
00010000
00100000
01000000
00000000
00000000
00000000
10000000
01000000
10000000
01000000
,
00100000
00000000
00110000
00000000
00011000
00000000
00002002
00003003
,
00000001
00000000
00000000
00000100
00000000
00000000
00001000
00000000
00000000
00010000
00000000
00000000
00100000
00000000
00100000
00000000
,
10000000
00000000
00000000
01000000
00000000
00000000
00010000
00000000
00000000
00001000
00000000
00000000
00000010
00000000
00000010
00000000
,
00000001
00000000
00000000
00000100
00000000
00000000
00001000
00000000
00000000
00010000
00000000
00000000
00100000
00000000
00100000
00000000
,
10000000
00000000
01000000
00000000
00100000
00001000
00000000
00010000
00001000
00000000
00000100
00000000
00000001
00001000
00000001
00001000
,
00000001
00000000
00000000
00000010
00000000
00000000
00001000
00000000
00000000
00010000
00000000
00000000
00100000
00000000
00100000
00000000
,
10000000
00000000
00000000
01000000
00000000
00000000
00010000
00000000
00000000
00001000
00000000
00000000
00000100
00000000
00000100
00000000
,
00000001
00000000
00000000
00000010
00000000
00000000
00001000
00000000
00000000
00010000
00000000
00000000
01000000
00000000
01000000
00000000
,
10000000
00000000
00100000
00000000
00010000
00001000
00010000
00001000
00020000
00000000
00000000
00000000
00002000
00000000
00033000
00000000
,
00022000
00000000
00000000
00000000
,
00000000
00000000
00000000
00000000
,
00033000
00000000
00000000
00000000
,
00000000
00000000
00000000
00000000
,
00000001
00000000
00000000
00000000
00000010
00000000
00000000
00000100
00000000
00000000
00010000
00000000
00011000
00000000
00000000
00000000
,
10000000
00000000
00000000
00000000
01000000
00000000
00000000
00100000
00000000
00000000
00001000
00000000
00011000
00000000
00000000
00000000
,
00000001
00000100
00000010
00001000
00010000
01000000
00100000
10000000
,
01000000
00000000
00100000
01000000
00100000
00000000
00010000
00000000
00002000
00000000
00000000
00000000
00003010
00000100
00000010
00000100
,
00000002
00000010
00001000
00000103
,
00020000
00000010
00001000
00030100
,
00002000
00100000
00010000
01003000
,
20000000
00100000
00010000
31000000
,
01100000
00010000
00011000
00000100
,
00000110
00000001
00001001
00010000
,
00011000
10000000
10010000
00100000
,
01100000
00000000
00011000
00000000
00000110
00000000
00002002
00003003
,
00001001
00000000
00000000
00000000
00000001
00000010
00000000
00000001
00000000
00000100
00000000
00001000
00010000
00000000
00100000
00000000
,
10000000
00000000
01000000
00100000
01000000
00100000
00000000
00010000
00000000
10000000
00100000
00000000
01000000
00000000
00010000
00000000
,
10010000
00000000
10000000
00000000
00100000
01000000
00000000
00010000
00000000
00100000
00000000
01000000
00010000
00000000
00001000
00000000
,
00000010
00000000
00000001
00000000
00001000
00000010
00000000
00000100
00000000
00000001
00000000
00000010
00000100
00000010
00000100
00000000
,
00000110
00000000
00000000
00000000
00000001
00000010
00000000
00001000
00000000
00010000
00000000
01000000
10000000
00000000
00100000
00000000
,
01000000
00000000
00010000
10000000
00010000
10000000
00000000
00100000
00000000
00010000
00001000
00000000
00000100
00000000
00000001
00000000
,
00000011
00000010
00000100
00001000
00001100
00000100
00010000
00001000
,
01001000
00000000
00010010
00000000
00101000
00000000
00020200
00030300
,
00010000
00000000
00001000
00000000
00000100
00000001
00000000
00000010
00000000
00001000
00000000
00000010
00000001
00000000
00000100
00000000
,
00001000
00000000
00010000
00000000
00100000
10000000
00000000
01000000
00000000
00100000
01000000
00000000
00100000
00010000
00100000
00010000
,
10000000
00000000
01000000
00000000
00010000
01000000
00000000
10000000
00000000
00100000
00000000
00010000
00100000
00000000
10000000
00000000
,
01000000
00000000
00100000
00000000
01000000
00010000
00000000
00001000
00000000
00000100
00000000
00000000
00000001
00000010
00000001
00000010
,
00000100
00000000
00000010
00000000
00000001
00001000
00000000
00000010
00000000
00010000
00000000
00100000
01000000
00000000
00100000
00000000
,
10000000
00000000
01000000
00000000
00100000
01000000
00000000
00010000
00000000
00001000
00000100
00000000
00000001
00001000
00000001
00001000
,
00000010
00000001
00000100
00001000
,
00020000
00000000
00002000
00033000
00001000
00010000
01000000
10000000
,
00100000
00010000
00001000
00001000
00001000
00010000
00001000
00001000
,
00001000
00000100
00000001
00001000
00001001
00000000
00000220
00000330
,
00000001
00000100
00001000
00001000
00001000
00010000
01000000
10000000
,
10010000
00000000
00000000
00000000
02200000
00000000
03300000
00000000
00100000
10000000
00000000
00010000
01000000
00000000
00001000
00000000
,
00011000
00010000
00100000
00001000
00000010
00010000
00001000
00000100
,
00010000
00000000
00000000
01000000
00000000
00000000
00100000
00000000
00000000
10000000
00000000
00000000
11000000
00000000
00000000
00000000
00110000
00000000
00000000
00000000
01010000
00000000
00000000
00000000
,
10100000
00000000
10000000
00000000
01000000
00100000
00010000
00000000
00100000
00000000
00001000
00000000
00010000
00001000
00000100
00000000
,
00000001
00000000
00000010
00000100
00000010
00000000
00000001
00000000
00000100
00001000
00000000
00010000
01000000
00000000
10000000
00000000
,
10010000
00000000
00000000
00000000
00010000
01000000
00010000
01000000
00001000
00000000
00000000
00000000
00010000
00000100
00010000
00000100
,
00001000
00000000
00001010
00000000
00000101
00000000
00002002
00003003
,
00001001
00000000
00000000
00000000
00000020
00000000
00000000
00000130
00000000
00001000
00000000
00010000
00100000
00000000
01000000
00000000
,
10010000
00000000
00000000
00000000
00200000
00000000
00000000
01300000
00000000
00100000
00000000
00010000
00001000
00000000
00000100
00000000
,
00001001
00000000
00000000
00000000
00000020
00000000
00000000
00000130
00000000
00001000
00000000
00010000
00100000
00000000
10000000
00000000
,
11000000
00000000
01000000
00010000
00001000
00000010
00000022
00000033
,
00001100
00000000
00000000
00000000
00000002
00000000
00000000
00000013
00000000
00001000
00000000
00010000
01000000
00000000
10000000
00000000
,
01100000
00000000
00000000
00000000
20000000
00000000
00000000
30100000
00000000
00010000
00000000
00001000
00000100
00000000
00000001
00000000
,
00000110
00000000
00000010
00000000
00001000
00000000
00010000
00000000
01000000
10000000
01000000
10000000
00100000
01000000
00010000
00100000
,
00001000
00000000
00000000
00000000
;

//---------------dance-double - ----------------
#NOTES:
     dance-double:
     :
     Easy:
     8:
     0.289755,0.397576,0.226263,0.137374,0.000000,251.000000,223.000000,28.000000,17.000000,0.000000,0.000000,0.289755,0.397576,0.226263,0.137374,0.000000,251.000000,223.000000,28.000000,17.000000,0.000000,0.000000:
00000000
00000000
00000000
00000000
,
00000000
00000000
00000000
00000000
,
00000000
00000000
00000000
00000000
,
00000000
00000000
00000000
00000000
,
00000000
00000000
00000000
00000000
,
01000000
00000000
01000000
00000000
,
00010000
00000000
00010000
00000000
,
00001000
00001000
00000010
00000010
,
00000110
00000001
00002000
00003000
,
00001001
00000000
00000010
00000000
,
00001000
00000000
00010000
01000000
,
10010000
00000000
00100000
00000000
,
01000000
01000000
02000000
03000000
,
00100000
10000000
01000000
10000000
,
01000000
00010000
00001000
00000000
,
00010000
00001000
00000010
00000001
,
00000010
00000001
00002002
00003003
,
00001000
00000000
00000010
00000000
,
00010000
00000000
00100000
00000000
,
00001000
00000000
00000010
00000000
,
00011000
00000000
01000000
00100000
,
00010000
00000000
01000000
00000000
,
00001000
00000000
00000100
00000000
,
00010000
00000000
01000000
00000000
,
00011000
00010000
00002000
00003000
,
00000100
00000000
00000001
00000000
,
00000010
00000000
00001000
00000000
,
00010000
00000000
01000000
00000000
,
10000000
00000000
10000000
00000000
,
00100000
00000000
00010000
00000000
,
00001000
00000000
00000100
00000000
,
00000001
00000000
00000010
00000000
,
00001000
00001000
00002000
00003000
,
00022000
00000000
00000000
00000000
,
00000000
00000000
00000000
00000000
,
00033000
00000000
00000000
00000000
,
00000000
00000000
00000000
00000000
,
00000010
00000000
00000010
00000000
,
00001000
00000000
00001000
00000000
,
00010000
00000000
00010000
00000000
,
01000000
01000000
02000000
03000000
,
10000000
00100000
01000000
00000000
,
00100000
10000000
01000000
00000000
,
00100000
00010000
01000000
00000000
,
00100000
01000000
00010000
00000000
,
00110000
00000000
00101000
00000000
,
00011000
00000000
00010010
00000000
,
00001010
00000000
00001100
00000000
,
00001001
00000001
00000100
00002000
,
00013000
00100000
10000000
01000000
,
10000000
00100000
00010000
00011000
,
00001000
00000100
00000001
00000010
,
00000001
00000100
00001000
00011000
,
00010000
01000000
10000000
00100000
,
10000000
01000000
00010000
00011000
,
00001000
00000010
00000001
00000100
,
00000001
00000010
00001000
00011000
,
00010000
00100000
10000000
01000000
,
00010000
00100000
00010000
00011000
,
00001000
00000100
00000001
00000010
,
00001000
00000100
00001000
00011000
,
00010000
01000000
10000000
00100000
,
00010000
01000000
00010000
00011000
,
00001000
00000000
00000100
00000000
,
00000001
00001000
00000220
00000330
,
00000010
00010000
00001000
00000100
,
00010000
01000000
00001000
00001000
,
00010000
00100000
00001000
00000010
,
00010000
00010000
00002000
00013000
,
00010000
01000000
10000000
00100000
,
00010000
00001000
00000100
00000001
,
00000010
00000000
00001000
00000000
00010000
00001000
00010000
00000000
,
00022000
00033000
01001000
00010100
,
00010000
00000000
00100000
00000000
,
10000000
00010000
02200000
03300000
,
01000000
00100000
00010000
00000000
,
00100000
00010000
00001000
00000000
,
00010000
00001000
00000100
00000000
,
00001000
00000100
00000010
00000000
,
00000001
00000010
00001000
00000000
,
00010000
01000000
10000000
00000000
,
10100000
00010000
00001000
00000100
,
00000011
00000000
00000000
00000000
;

//---------------dance-double - ----------------
#NOTES:
     dance-double:
     :
     Medium:
     12:
     0.519481,0.596364,0.387879,0.193939,0.117172,450.000000,402.000000,48.000000,24.000000,0.000000,0.000000,0.519481,0.596364,0.387879,0.193939,0.117172,450.000000,402.000000,48.000000,24.000000,0.000000,0.000000:
// measure 0
00000000
00000000
00000000
00000000
,  // measure 1
00000000
00000000
00000000
00000000
,  // measure 2
00000000
00000000
00000000
00000000
,  // measure 3
00000000
00000000
00000000
00000000
,  // measure 4
00000000
00000000
00000000
00000000
,  // measure 5
00000100
00000100
00001000
00001000
,  // measure 6
00010000
00010000
00100000
00100000
,  // measure 7
10000000
01000000
10000000
01000000
00100000
00010000
00100000
00010000
,  // measure 8
01000000
00000000
00000000
00001000
00010000
00001000
00010000
00000000
00000000
00011000
00000000
00000000
,  // measure 9
00001000
00000100
00000001
00000010
,  // measure 10
00001000
00010000
00011000
00011000
,  // measure 11
00001000
00010000
01000000
10000000
,  // measure 12
00200000
00000000
00000000
00000000
01300000
00000000
00000000
00000000
01000000
00000000
00000000
00100000
00000000
00000000
10000000
00000000
,  // measure 13
10010000
00000000
00010000
01000000
00001000
00010000
00000010
00001000
,  // measure 14
00000001
00000000
00000000
00000000
00000100
00000000
00000010
00000000
00000100
00000000
00000000
00000001
00000000
00000000
00001000
00000000
,  // measure 15
00001001
00000000
00000001
00000100
00000010
00010000
00000000
01000000
,  // measure 16
00100000
00000000
00000000
00000000
10000000
00000000
00000000
00000000
00010000
00000000
00000000
01000000
00000000
00000000
00100000
00000000
,  // measure 17
01100000
00000000
00000000
00000000
01000000
00000000
00000000
00010000
00000000
00000000
01000000
00000000
00001000
00000000
00010000
00000000
,  // measure 18
00011000
00000000
00000000
00000000
00000010
00000000
00000000
00001000
00000000
00000000
00000010
00000000
00010000
00000000
00001000
00000000
,  // measure 19
00011000
00000000
00000000
00000000
00100000
00000000
00000000
00010000
00000000
00000000
00100000
00000000
00001000
00000000
00010000
00000000
,  // measure 20
00011000
00000000
00000100
00001000
00000100
00000010
00000001
00000000
,  // measure 21
00001001
00000000
00000000
00000000
00000010
00000000
00000000
00000100
00000000
00000000
00001000
00000000
00010000
00000000
00100000
00000000
,  // measure 22
01100000
00000000
00000000
00000000
01000000
00000000
00000000
00100000
00000000
00000000
00010000
00000000
00001000
00000000
00000100
00000000
,  // measure 23
00000110
00000000
00001001
00000000
,  // measure 24
00000101
00000000
00001010
00000000
00010100
00000000
00022000
00033000
,  // measure 25
00001000
00000000
00000000
00010000
00000000
00000000
01000000
00000000
00000000
10000000
00000000
00000000
01000000
00000000
00000000
00000000
,  // measure 26
00010000
00000000
00000000
00001000
00000000
00000000
00000010
00000000
00000000
00000001
00000000
00000000
00000010
00000000
00000000
00000000
,  // measure 27
00001000
00000000
00000000
00010000
00000000
00000000
00100000
00000000
00000000
10000000
00000000
00000000
00100000
00000000
00000000
00000000
,  // measure 28
00020000
00030010
00002000
01003000
,  // measure 29
00001000
00000000
00000000
00010000
00000000
00000000
00100000
00000000
00000000
10000000
00000000
00000000
01000000
00000000
00000000
00000000
,  // measure 30
00010000
00000000
00000000
00001000
00000000
00000000
00000100
00000000
00000000
00000001
00000000
00000000
00000010
00000000
00000000
00000000
,  // measure 31
00000001
00000100
00000001
00000100
00000010
00001000
00000010
00001000
,  // measure 32
00000100
00010000
00010010
00101000
,  // measure 33
00022000
00000000
00000000
00000000
,  // measure 34
00000000
00000000
00000000
00000000
,  // measure 35
00033000
00000000
00000000
00000000
,  // measure 36
00000000
00000000
00000000
00000000
,  // measure 37
00100000
00100000
00010000
00010000
,  // measure 38
00001000
00001000
00000100
00000100
,  // measure 39
00000001
00000010
00001000
00010000
,  // measure 40
01000000
10000000
00100000
01100000
,  // measure 41
02000000
00001000
00001000
03001000
,  // measure 42
00002000
00100000
00100000
00103000
,  // measure 43
00020000
00000010
00000010
00030010
,  // measure 44
00000020
00001000
00001000
00001030
,  // measure 45
00000002
00000103
00002000
00013000
,  // measure 46
00200000
10300000
02000000
03010000
,  // measure 47
00002000
00003010
00000002
00001003
,  // measure 48
00001010
00011000
00110000
10010000
,  // measure 49
02000000
00000000
03100000
10000000
00100000
01000000
00010000
00100000
,  // measure 50
00001000
00010000
00000100
00001000
00000001
00000100
00000010
00001000
,  // measure 51
00000020
00000000
00000130
00000001
00000100
00000010
00001000
00000100
,  // measure 52
00010000
00001000
00100000
00010000
10000000
00100000
01000000
00010000
,  // measure 53
02000000
00000000
03100000
10000000
00100000
01000000
00001000
00010000
,  // measure 54
00000010
00001000
00000100
00000010
00000001
00000100
00000010
00001000
,  // measure 55
00000200
00000000
00010300
00001000
01000000
00000000
00001000
00010000
,  // measure 56
00000100
00000000
00000110
00000000
00011000
00000000
02200000
03300000
,  // measure 57
00100000
01000000
10000000
00100000
01000000
00010000
00100000
01000000
,  // measure 58
10000000
00100000
00010000
00001000
00000100
00000001
00001001
00000000
,  // measure 59
00000100
00000010
00000001
00000100
00000010
00001000
00000100
00000010
,  // measure 60
00000001
00000100
00001000
00010000
00100000
10000000
10010000
00000000
,  // measure 61
00100000
01000000
10000000
00010000
00100000
01000000
00010000
00001000
,  // measure 62
00000010
00000100
00001000
00000001
00000010
00000100
00001000
00000001
,  // measure 63
00000100
00000110
00001000
00011000
,  // measure 64
01100000
00000000
10100000
00000000
10000000
01000000
00010000
00001000
,  // measure 65
00011000
00100000
01000000
00010000
,  // measure 66
00001000
00000010
00000110
00001001
,  // measure 67
00000001
00000100
00001000
00010000
,  // measure 68
00200000
00000000
00000000
00000000
10300000
00000000
00000000
00000000
01000000
00000000
00000000
00100000
00000000
00000000
00010000
00000000
,  // measure 69
10010000
00000000
10000000
00100000
00010000
00001000
00000100
00000001
,  // measure 70
00000010
00000000
00000000
00000000
00000000
00000000
00000010
00000000
00000000
00000100
00000000
00000000
00000010
00000000
00000000
00000000
00000001
00000000
00000000
00000000
00001000
00000000
00000000
00000000
,  // measure 71
00000100
00000000
00010000
00001000
00000100
00001000
00010000
00100000
,  // measure 72
01000000
00000000
00100000
00000000
10000000
00000000
01000000
00000000
00010000
00000000
00000000
00001000
00000000
00000000
00000010
00000000
,  // measure 73
00000011
00000000
00001100
00000000
,  // measure 74
00010010
00101000
00010100
01001000
,  // measure 75
00011000
00000000
00000000
00000000
00010000
00000000
00000000
00100000
00000000
00000000
10000000
00000000
00100000
00000000
00010000
00000000
,  // measure 76
00100000
00000000
00000000
00000000
00001000
00000000
00000000
00000010
00000000
00000000
00000001
00000000
00000010
00000000
00001000
00000000
,  // measure 77
00000010
00000000
00000000
00000000
00010000
00000000
00000000
00100000
00000000
00000000
00001000
00000000
00000010
00000000
00000100
00000000
,  // measure 78
00000110
00000000
00000001
00000100
00001000
00010000
00100000
10000000
,  // measure 79
10010000
00000000
00000000
00000000
00010000
00000000
00000000
01000000
00000000
00000000
10000000
00000000
01000000
00000000
00100000
00000000
,  // measure 80
00010000
00000000
00000000
00000000
00001000
00000000
00000000
00000010
00000000
00000000
00000001
00000000
00000010
00000000
00000100
00000000
,  // measure 81
00001000
00010000
01000000
00100000
10000000
01000000
00010000
00001000
,  // measure 82
00011000
00000000
00000000
00000000
;
