#VERSION:0.83;
#TITLE:Ultra B+K;
#SUBTITLE:;
#ARTIST:nora2r;
#TITLETRANSLIT:;
#SUBTITLETRANSLIT:;
#ARTISTTRANSLIT:;
#GENRE:VARIETY;
#ORIGIN:;
#CREDIT:MUINELIM;
#BANNER:Ultra B+K.png;
#BACKGROUND:Ultra B+K-bg.png;
#PREVIEWVID:;
#JACKET:Ultra B+K-jacket.png;
#CDIMAGE:;
#DISCIMAGE:;
#LYRICSPATH:;
#CDTITLE:;
#MUSIC:Ultra B+K.ogg;
#OFFSET:-0.021000;
#SAMPLESTART:98.729858;
#SAMPLELENGTH:15.085716;
#SELECTABLE:YES;
#BPMS:0.000=175.000;
#STOPS:;
#DELAYS:;
#WARPS:;
#TIMESIGNATURES:0.000=4=4;
#TICKCOUNTS:0.000=4;
#COMBOS:0.000=1;
#SPEEDS:0.000=1.000=0.000=0;
#SCROLLS:0.000=1.000;
#FAKES:;
#LABELS:0.000=Song Start;
#BGCHANGES:0.000=Ultra B+K.avi=1.000=0=0=0=StretchNoLoop====,
99999=-nosongbg-=1.000=0=0=0 // don't automatically add -songbackground-
;
#KEYSOUNDS:;
#ATTACKS:
;

//---------------dance-single - ----------------
#NOTEDATA:;
#CHARTNAME:;
#STEPSTYPE:dance-single;
#DESCRIPTION:;
#CHARTSTYLE:;
#DIFFICULTY:Beginner;
#METER:4;
#RADARVALUES:0.172533,0.280737,0.047989,0.007998,0.000000,151.000000,145.000000,6.000000,1.000000,0.000000,0.000000,0.000000,0.000000,0.000000,0.172533,0.280737,0.047989,0.007998,0.000000,151.000000,145.000000,6.000000,1.000000,0.000000,0.000000,0.000000,0.000000,0.000000;
#CREDIT:MILEN;
#NOTES:
0000
0000
0000
0000
,
0000
0000
0000
0000
,
0000
0000
0000
0000
,
0000
0000
0000
0000
,
1000
0000
1000
0000
,
0001
0000
0001
0000
,
1000
0000
0001
0000
,
1001
0000
0000
0000
,
0100
0000
0100
0000
,
0100
0000
0100
0000
,
0010
0000
0010
0000
,
0010
0000
0010
0000
,
1000
0000
1000
0000
,
0001
0000
0001
0000
,
0100
0000
0010
0000
,
0110
0000
0000
0000
,
1000
0000
0000
0000
,
1000
0000
0000
0000
,
0100
0000
0000
0000
,
0100
0000
0000
0000
,
0001
0000
0000
0000
,
0001
0000
0000
0000
,
0010
0000
0000
0000
,
0010
0000
0000
0000
,
1000
0000
1000
0000
,
0001
0000
0001
0000
,
1000
0000
0100
0000
,
0010
0000
0001
0000
,
0001
0000
0001
0000
,
1000
0000
1000
0000
,
0001
0000
0010
0000
,
0100
0000
1000
0000
,
1001
0000
0000
0000
,
0000
0000
0000
0000
,
0001
0000
0000
0000
,
0000
0000
0000
0000
,
1000
0000
0000
0000
,
0000
0000
0000
0000
,
0001
0000
0000
0000
,
0000
0000
0000
0000
,
0100
0000
0100
0000
,
0100
0000
0000
0000
,
0010
0000
0010
0000
,
0010
0000
0000
0000
,
1000
0000
1000
0000
,
1000
0000
0000
0000
,
0001
0000
0001
0000
,
0001
0000
0000
0000
,
1000
0000
0100
0000
,
0010
0000
0001
0000
,
1000
0000
0100
0000
,
0010
0000
0001
0000
,
1000
0000
1000
0000
,
0001
0000
0001
0000
,
0100
0000
0010
0000
,
0110
0000
0000
0000
,
1000
0000
1000
0000
,
1000
0000
1000
0000
,
0010
0000
0010
0000
,
0010
0000
0010
0000
,
0001
0000
0001
0000
,
0001
0000
0001
0000
,
0100
0000
0100
0000
,
0100
0000
0100
0000
,
1000
0000
1000
0000
,
0100
0000
0100
0000
,
0001
0000
0001
0000
,
0010
0000
0010
0000
,
1000
0000
0010
0000
,
0001
0000
0100
0000
,
0001
0000
0010
0000
,
2000
0000
3000
0000
,
0001
0000
0010
0000
,
0001
0000
0010
0000
,
0100
0000
1000
0000
,
0100
0000
1000
0000
,
0010
0000
0100
0000
,
0010
0000
0100
0000
,
0001
0000
1000
0000
,
0001
0000
1000
0000
,
0001
0001
0001
0000
,
0100
0000
0100
0000
,
1000
1000
1000
0000
,
0100
0000
0100
0000
,
0001
0001
0001
0000
,
1000
1000
1000
0000
,
0010
0010
0010
0000
,
0110
0000
0000
0110
;

//---------------dance-single - ----------------
#NOTEDATA:;
#CHARTNAME:;
#STEPSTYPE:dance-single;
#DESCRIPTION:;
#CHARTSTYLE:;
#DIFFICULTY:Easy;
#METER:7;
#RADARVALUES:0.277652,0.351921,0.047989,0.135970,0.000000,243.000000,237.000000,6.000000,17.000000,0.000000,0.000000,0.000000,0.000000,0.000000,0.277652,0.351921,0.047989,0.135970,0.000000,243.000000,237.000000,6.000000,17.000000,0.000000,0.000000,0.000000,0.000000,0.000000;
#CREDIT:MILEN;
#NOTES:
0000
0000
0000
0000
,
0000
0000
0000
0000
,
0000
0000
0000
0000
,
0000
0000
0000
0000
,
1000
0000
1000
0000
,
0001
0000
0001
0000
,
1000
0000
0001
0000
,
2002
0000
0000
3003
,
0100
0100
0100
0010
,
0010
0010
0100
0000
,
0010
0010
0010
0100
,
0100
0100
0010
0000
,
1000
0000
0001
0000
,
1000
0000
0001
0000
,
1000
0001
1000
0001
,
2002
0000
0000
3003
,
1000
0010
0100
0000
,
0010
1000
0100
0000
,
0010
0001
0100
0000
,
0010
0100
0001
0000
,
1000
0100
0010
0000
,
0001
0010
0100
0000
,
1000
0001
1000
0000
,
2002
0000
3003
0000
,
0001
0000
0100
0000
,
1000
0000
0010
0000
,
0001
0000
0100
0000
,
1000
0000
0010
0100
,
0010
0001
0100
0000
,
0010
1000
0100
0000
,
0010
0001
1000
0100
,
0020
0000
0031
0001
,
2000
0000
3000
0000
,
0001
1000
0100
0000
,
2000
0000
3000
0000
,
0001
1000
0100
0000
,
0002
0000
0003
0000
,
1000
0001
0010
0000
,
0002
0000
0003
0000
,
1000
0001
0010
0000
,
1000
0000
1000
0000
,
0100
0000
0100
0000
,
0001
0000
0001
0000
,
0010
0000
0010
0000
,
1000
0000
0100
0000
,
0001
0000
0010
0000
,
1000
0000
0100
0000
,
0001
0000
0010
0000
,
0100
0010
0100
0000
,
0010
0100
0010
0000
,
1000
0001
1000
0000
,
0001
1000
0001
0000
,
0100
0010
0100
0010
,
1000
0001
1000
0001
,
1000
0100
0010
0001
,
2002
0000
0000
3003
,
1000
0100
0001
0000
,
0001
0100
1000
0000
,
0001
0010
1000
0000
,
1000
0010
0001
0000
,
1000
0010
0100
0000
,
0010
1000
0100
0000
,
0010
0001
0100
0000
,
0010
0100
0001
0000
,
1000
0010
0001
0000
,
0001
0100
1000
0000
,
0001
0010
1000
0000
,
1000
0100
0001
0000
,
1000
0010
0100
0001
,
0100
0010
1000
0010
,
0100
0001
1000
0001
,
2002
0000
0000
3003
,
1000
0010
1000
0100
,
1000
0010
1000
0000
,
0001
0010
0001
0100
,
0001
0010
0001
0000
,
1000
0100
0010
0100
,
1000
0100
0010
0000
,
0001
0010
0100
0010
,
0001
0010
0100
0000
,
1000
0010
0001
0010
,
1000
0010
0001
0000
,
0001
0100
1000
0100
,
0001
0100
1000
0000
,
1000
0010
0001
0010
,
0001
0100
1000
0100
,
1000
0010
0001
0100
,
2000
0000
0002
3003
,
1001
0000
0000
0000
;

//---------------dance-single - ----------------
#NOTEDATA:;
#CHARTNAME:;
#STEPSTYPE:dance-single;
#DESCRIPTION:;
#CHARTSTYLE:;
#DIFFICULTY:Medium;
#METER:10;
#RADARVALUES:0.484463,0.563074,0.207953,0.247944,0.075983,424.000000,398.000000,26.000000,31.000000,0.000000,0.000000,0.000000,0.000000,0.000000,0.484463,0.563074,0.207953,0.247944,0.075983,424.000000,398.000000,26.000000,31.000000,0.000000,0.000000,0.000000,0.000000,0.000000;
#CREDIT:MILEN;
#NOTES:
0000
0000
0000
0000
,
0000
0000
0000
0000
,
0000
0000
0000
0000
,
0000
0000
0000
0000
,
1000
1000
0010
0010
,
0100
0100
0001
0001
,
1000
0100
0010
0001
,
2002
0000
0000
3003
,
1000
0010
1000
0010
1000
0000
0001
0100
,
0001
0100
0001
0000
1000
0001
1000
0000
,
0100
1000
0100
1000
0100
0000
0010
0001
,
0010
0001
0010
0000
0100
0010
0100
0000
,
1000
1000
0010
0010
,
0001
0001
0100
0100
,
1000
0010
0100
0001
1000
0010
0100
0001
,
2000
0000
0000
3000
,
0001
0000
0100
0001
0000
0001
0100
0000
,
0010
0000
1000
0100
1000
0000
0001
0000
,
1000
0000
0010
1000
0000
1000
0010
0000
,
0100
0000
0001
0010
0001
0000
1001
0000
,
1000
0000
0010
0100
0000
0100
0010
0000
,
1000
0000
0100
0010
0100
0000
1000
0000
,
0001
0000
0100
0010
0000
0010
0100
0000
,
0002
1000
1000
1003
,
1000
0100
1000
0000
0001
0010
0001
0000
,
1000
0010
1000
0000
0001
0100
0001
0000
,
1000
0001
1000
0000
0100
0010
0100
0000
,
0010
0000
0000
0010
0000
0000
0010
0000
1000
0000
0000
0000
1001
0000
0000
0000
,
0010
0000
0000
0010
0000
0000
0010
0000
0001
0000
0000
0000
1001
0000
0000
0000
,
0100
0000
0000
0100
0000
0000
0100
0000
0110
0000
0000
0000
1001
0000
0000
0000
,
0001
0100
0010
1000
0001
0100
0010
1000
,
0002
0000
2000
3003
,
0110
0000
0000
0220
0330
0000
0010
0000
,
1000
0001
0200
0300
,
0110
0000
0000
0220
0330
0000
0100
0000
,
0001
1000
0020
0030
,
1001
0000
0000
2002
3003
0000
0001
0000
,
0010
0100
2000
3000
,
1001
0000
0000
2002
3003
0000
1000
0000
,
0100
0010
0002
0003
,
1000
0010
1000
0010
,
0100
0001
0100
0001
,
1000
0100
1000
0100
,
0010
0001
0010
0001
,
1000
0010
0100
0001
,
0010
0100
1000
0001
,
0100
0010
1000
0100
,
0010
0001
0100
0010
,
2000
0100
0100
3100
,
0002
0010
0010
0013
,
2000
0010
0010
3010
,
0002
0100
0100
0103
,
1000
0010
1000
0000
0001
0010
0001
0000
,
1000
0100
1000
0000
0001
0100
0001
0000
,
1000
0100
0010
0001
1000
0100
0010
0001
,
2000
0000
0000
3000
,
0001
0000
0100
0001
0000
0100
0010
0100
,
0001
0000
0010
0001
0100
0000
0010
0000
,
1000
0000
0010
1000
0000
0010
0100
0010
,
1000
0000
0100
1000
0010
0000
0110
0000
,
0100
0000
0001
0010
0000
0100
0010
0001
,
0010
0000
0100
1000
0001
0000
0100
0000
,
0010
0000
1000
0100
0000
0010
0100
1000
,
0100
0000
0010
0001
1000
0000
0100
0100
,
0110
0000
0010
0001
0000
0100
0001
0010
,
0100
0000
0010
0001
0100
0000
0010
0000
,
1000
0000
0100
1000
0000
0010
1000
0100
,
0010
0000
0100
1000
0010
0000
0110
0000
,
0100
0000
0001
0010
0000
1000
0010
0001
,
0010
0000
0001
0100
1000
0000
0100
0000
,
0001
0000
1000
0100
0000
0001
0100
1000
,
0200
0000
0020
0330
,
0010
0000
0000
0010
0000
0000
0010
0000
0000
0000
0001
0000
0100
0000
0010
0000
,
1000
0000
0000
1000
0000
0000
1000
0000
0001
0000
0000
0001
0000
0000
0001
0000
,
0100
0000
0000
0100
0000
0000
0100
0000
0000
0000
0001
0000
0010
0000
0100
0000
,
1000
0000
0000
1000
0000
0000
1000
0000
0001
0000
0000
0001
0000
0000
0001
0000
,
0010
0000
0000
0010
0000
0000
0010
0000
0000
0000
1000
0000
0010
0000
0001
0000
,
1000
0000
0000
1000
0000
0000
1000
0000
0010
0000
0000
0010
0000
0000
0010
0000
,
0100
0000
0000
0100
0000
0000
0100
0000
0000
0000
1000
0000
0100
0000
0001
0000
,
0022
0033
2200
3300
,
1000
0010
0001
0100
,
1000
0000
0000
1000
0000
0000
1000
0000
1010
0000
0000
0000
0101
0000
0000
0000
,
0001
0010
1000
0100
,
0001
0000
0000
0001
0000
0000
0001
0000
0011
0000
0000
0000
1100
0000
0000
0000
,
1000
0000
0000
0010
0000
0000
0100
0000
0001
0000
0000
0000
0101
0000
0000
0000
,
0001
0000
0000
0010
0000
0000
0100
0000
1000
0000
0000
0000
1100
0000
0000
0000
,
1000
0000
0000
0010
0000
0000
0001
0000
0001
0000
0000
0100
0000
0000
1000
0000
,
2000
0000
0002
3003
,
1001
0000
0000
0000
;

//---------------dance-single - ----------------
#NOTEDATA:;
#CHARTNAME:;
#STEPSTYPE:dance-single;
#DESCRIPTION:;
#CHARTSTYLE:;
#DIFFICULTY:Hard;
#METER:13;
#RADARVALUES:0.635286,0.668650,0.559875,0.343923,0.247944,556.000000,486.000000,70.000000,43.000000,0.000000,0.000000,0.000000,0.000000,0.000000,0.635286,0.668650,0.559875,0.343923,0.247944,556.000000,486.000000,70.000000,43.000000,0.000000,0.000000,0.000000,0.000000,0.000000;
#CREDIT:MILEN;
#NOTES:
0000
0000
0000
0000
,
0000
0000
0000
0000
,
0000
0000
0000
0000
,
0000
0000
0000
0000
,
1000
1000
0010
0010
,
0001
0001
0100
0100
,
1000
0010
0001
0100
,
2002
0000
0000
3003
,
1000
0010
0100
0010
1000
0000
0001
0100
,
0010
0100
0001
0000
1000
0001
1000
0000
,
0001
0010
0100
0010
0001
0000
1000
0100
,
0010
0100
1000
0000
0010
0100
0010
0000
,
1010
1010
0011
0011
,
1100
1100
0101
0101
,
0001
0010
0100
1000
0001
0010
0100
1000
,
2002
0000
0000
3003
,
1001
0000
0000
0001
0100
0000
0010
0000
0000
0010
0000
0000
0010
0000
1000
0000
,
0100
0000
0000
0100
0000
0000
0100
0000
0010
0000
0001
0000
0010
0000
0100
0000
,
1000
0000
0000
1000
0010
0000
0100
0000
0000
0100
0000
0000
0100
0000
0001
0000
,
0010
0000
0000
0010
0000
0000
0010
0100
0020
0000
0000
0000
0130
0000
0000
0000
,
0110
0000
0000
0010
0001
0000
1000
0000
0000
1000
0000
0000
1000
0000
0100
0000
,
0001
0000
0000
0001
0000
0000
0001
0000
0100
0000
1000
0000
0010
0000
0100
0000
,
0010
0000
0000
0010
1000
0000
0001
0000
0000
0001
0000
0000
0001
0000
0100
0000
,
0120
2030
3002
0203
,
0310
1000
0100
1000
0010
1000
0100
1000
,
0001
0010
0001
0100
0001
0010
0001
0100
,
0010
1000
0010
0100
0001
0100
0010
1000
,
0001
0000
0000
0100
0000
0000
0010
0000
1010
0000
0000
0000
0101
0000
0000
0000
,
0001
0000
0000
0010
0000
0000
0001
0000
0101
0000
0000
0000
1100
0000
0000
0000
,
1000
0000
0000
0100
0000
0000
1000
0000
1010
0000
0000
0000
0011
0000
0000
0000
,
0001
0000
0000
0100
0000
0000
1000
0000
1000
0000
0000
0010
0000
0000
0001
0000
,
0001
0010
0100
1000
1010
0000
0101
0000
,
1002
0000
0000
0203
0000
0301
0010
0100
,
0001
0100
1000
0020
0000
0100
0130
0000
,
2001
0000
0000
3020
0000
1030
0100
0010
,
1000
0010
0001
0200
0000
0000
0300
0000
,
0120
0000
0000
2030
0000
3001
0100
1000
,
0100
0001
0010
0200
0000
1000
1300
0000
,
0120
0000
0000
0032
0000
1003
0100
0001
,
0100
1000
0010
0200
0000
0000
0300
0000
,
0102
0010
0100
1003
,
2010
0100
0010
3001
,
0012
0100
1000
0013
,
2100
0010
0001
3100
,
1020
0130
0201
0310
,
1200
0310
0021
0130
,
2010
3100
0102
0013
,
0010
0100
1000
0001
0000
1000
0001
0010
,
0110
0100
0101
0100
,
1100
0100
0101
0100
,
0110
0010
1010
0010
,
0011
0010
1010
0010
,
0001
0100
1000
0100
0001
0100
1000
0100
,
0010
0001
0010
1000
0010
0001
0010
1000
,
0100
0100
0010
0010
0001
0001
1000
1000
,
2002
0000
0000
3003
,
1001
0000
0000
1000
0010
0000
0100
0000
0000
0010
0000
0000
0100
0001
0100
0000
,
0001
0000
0000
0010
0000
0000
0100
0000
0010
0000
0001
0000
0100
0000
0010
0000
,
1000
0000
0000
0001
0100
0000
0010
0000
0000
0100
0000
0000
0010
0000
1000
0000
,
0100
0000
0000
0010
0000
0000
0001
1000
0002
0000
0000
0000
1003
0000
0000
0000
,
1001
0000
0000
0001
0010
0000
0100
0000
0000
0010
0000
0000
0100
1000
0100
0000
,
1000
0000
0000
0010
0000
0000
0100
0000
0001
0000
0010
0000
0100
0000
1000
0000
,
0010
0000
0000
0100
0001
0000
0100
0000
0000
0010
0000
0000
1000
0000
0100
0000
,
0010
0000
0000
0001
0000
0000
1000
0000
0010
0000
0100
0000
0010
0000
0010
0000
,
0110
0000
0000
0100
0001
0000
0010
0000
0000
0001
0000
0000
1000
0100
1000
0000
,
0100
0000
0000
0001
0000
0000
0100
0000
1000
0000
0010
0000
0100
0000
0001
0000
,
0010
0000
0000
0100
1000
0000
0010
0000
0000
0001
0000
0000
0010
0000
1000
0000
,
0001
0000
0000
0100
0000
0000
0010
1000
0020
0000
0000
0000
0130
0000
0000
0000
,
0110
0000
0000
0100
0001
0000
0010
0000
0000
0100
0000
0000
1000
0001
1000
0000
,
0010
0000
0000
0001
0000
0000
0010
0000
1000
0000
0100
0000
0010
0000
0001
0000
,
0100
0000
0000
1000
0100
0000
0001
0000
0000
0010
0000
0000
0100
0000
1000
0000
,
2002
0000
3003
0000
0220
0330
0110
0000
,
0010
0000
0000
1000
0000
0000
0001
0000
0100
0000
1000
0000
0100
0000
0001
0000
,
0010
0000
0000
0010
0100
0000
1000
0000
0010
0000
0000
0010
0100
0000
0001
0000
,
0010
0000
0000
0001
0000
0000
1000
0000
0100
0000
0001
0000
0100
0000
1000
0000
,
0010
0000
0000
0010
0100
0000
0001
0000
0010
0000
0000
0010
0100
0000
1000
0000
,
0010
0000
0000
0001
0000
0000
1000
0000
0100
0000
0001
0000
0010
0000
0100
0000
,
1000
0000
0000
1000
0010
0000
0100
0000
0001
0000
0000
0001
0010
0000
0100
0000
,
1000
0000
0000
0010
0000
0000
0001
0000
1000
0000
0100
0000
0001
0000
0010
0000
,
0210
1300
0120
0031
,
0101
1100
1010
0011
,
0001
0000
0000
1000
0000
0000
0100
0000
0110
0000
0000
0000
1001
0000
0000
0000
,
1010
0011
0101
1100
,
1000
0000
0000
0001
0000
0000
0010
0000
0110
0000
0000
0000
1001
0000
0000
0000
,
1000
0000
0000
0010
0000
0000
0001
0000
0101
0000
0000
0000
1100
0000
0000
0000
,
0001
0000
0000
0100
0000
0000
1000
0000
1010
0000
0000
0000
0011
0000
0000
0000
,
0001
0100
0001
0000
0010
0000
0100
0000
1000
0010
1000
0000
0100
0000
0010
0000
,
0001
0100
1000
0010
0002
0000
2000
3003
,
1001
0000
0000
0000
;

//---------------dance-double - ----------------
#NOTEDATA:;
#CHARTNAME:;
#STEPSTYPE:dance-double;
#DESCRIPTION:;
#CHARTSTYLE:;
#DIFFICULTY:Hard;
#METER:13;
#RADARVALUES:0.625003,0.633458,0.527882,0.343923,0.239946,547.000000,481.000000,66.000000,43.000000,0.000000,0.000000,0.000000,0.000000,0.000000,0.625003,0.633458,0.527882,0.343923,0.239946,547.000000,481.000000,66.000000,43.000000,0.000000,0.000000,0.000000,0.000000,0.000000;
#CREDIT:MILEN;
#NOTES:
00000000
00000000
00000000
00000000
,
00000000
00000000
00000000
00000000
,
00000000
00000000
00000000
00000000
,
00000000
00000000
00000000
00000000
,
00001000
00010000
00100000
00001000
,
00000010
00010000
00001000
00000100
,
00010000
01000000
00001000
00010000
,
00022000
00000000
00000000
00033000
,
00001000
00100000
01000000
00100000
00001000
00000000
00010000
00000100
,
00000010
00000100
00010000
00000000
00001000
00010000
00011000
00000000
,
00001000
01000000
00100000
01000000
00001000
00000000
00010000
00000010
,
00000100
00000010
00010000
00000000
00001000
00010000
00011000
00000000
,
01001000
00001000
00011000
00001000
,
00010100
00010000
00011000
00010000
,
00001000
00100000
00010000
01000000
00001000
00010000
00000100
00001000
,
00002002
00000000
00000000
00003003
,
00001001
00000000
00000000
00000001
00000100
00000000
00000001
00000000
00000000
00000010
00000000
00000000
00000001
00000000
00000100
00000000
,
00001000
00000000
00000000
00010000
00000000
00000000
00001000
00000000
00100000
00000000
00010000
00000000
00100000
00000000
01000000
00000000
,
10000000
00000000
00000000
00100000
10000000
00000000
01000000
00000000
00000000
00100000
00000000
00000000
01000000
00000000
00010000
00000000
,
00001000
00000000
00000000
00000010
00000000
00000000
00000001
00001000
00000002
00000000
00000000
00000000
00001003
00000000
00000000
00000000
,
00001001
00000000
00000000
00001000
00000010
00000000
00010000
00000000
00000000
00001000
00000000
00000000
00100000
00000000
00010000
00000000
,
01000000
00000000
00000000
00100000
00000000
00000000
10000000
00000000
01000000
00000000
00100000
00000000
00010000
00000000
01000000
00000000
,
00001000
00000000
00000000
00010000
00000100
00000000
00001000
00000000
00000000
00000001
00000000
00000000
00000100
00000000
00000010
00000000
,
00020010
00031000
01002000
00013000
,
00010000
00000100
00001000
00000001
00001000
00000100
00010000
00000000
,
00001000
00100000
00010000
10000000
00010000
00100000
00001000
00000000
,
00010000
00001000
00000010
00001000
00010000
00100000
00010000
00001000
,
00000100
00000000
00000000
00000001
00000000
00000000
00000010
00000000
00001010
00000000
00000000
00000000
00011000
00000000
00000000
00000000
,
00100000
00000000
00000000
10000000
00000000
00000000
01000000
00000000
01010000
00000000
00000000
00000000
00011000
00000000
00000000
00000000
,
00000010
00000000
00000000
00000001
00000000
00000000
00000100
00000000
00001100
00000000
00000000
00000000
00011000
00000000
00000000
00000000
,
01000000
00000000
00000000
10000000
00000000
00000000
00100000
00000000
00100000
00000000
00000000
00010000
00000000
00000000
00001000
00000000
,
00001000
00000100
00000001
00000010
00000110
00000000
00001001
00000000
,
00000020
00000000
00000000
00000230
00000000
00000301
00000100
00001000
,
00010000
01000000
10000000
00020000
00000000
00130000
00110000
00000000
,
02000000
00000000
00000000
03200000
00000000
10300000
00100000
00010000
,
00001000
00000100
00000002
00002000
00000000
00000000
00003003
00000000
,
00000200
00000000
00000000
00000320
00000000
00000031
00000010
00001000
,
00010000
00100000
10000000
00020000
00000000
01030000
01010000
00000000
,
00200000
00000000
00000000
02300000
00000000
13000000
01000000
00010000
,
00001000
00000010
00000002
00002000
00000000
00000000
00003003
00000000
,
00000120
00001000
00010000
00001030
,
00012000
00000100
00010000
00103000
,
00021000
00000010
00001000
01030000
,
01200000
00001000
00010000
00301000
,
01002000
00013000
00020100
00031000
,
00102000
00013000
00020010
00031000
,
00012000
00003100
00021000
01030000
,
01000000
10000000
00100000
00010000
00000000
00001000
00000100
00000001
,
00000010
00000110
00001000
00011000
,
01000000
01100000
10000000
10010000
,
00100000
01100000
00010000
00011000
,
00000100
00000110
00000001
00001001
,
00001000
00000010
00010000
00001000
00100000
00010000
01000000
00100000
,
10000000
00010000
01000000
00001000
00010000
00000100
00001000
00000010
,
00000100
00000001
00000010
00001000
00010000
01000000
10000000
00010000
,
20020000
00000000
00000000
30030000
,
01100000
00000000
00000000
00100000
10000000
00000000
00100000
00000000
00000000
01000000
00000000
00000000
00010000
00100000
00010000
00000000
,
10000000
00000000
00000000
01000000
00000000
00000000
00010000
00000000
00001000
00000000
00010000
00000000
00100000
00000000
00010000
00000000
,
00001000
00000000
00000000
00000010
00000100
00000000
00000010
00000000
00000000
00000001
00000000
00000000
00000100
00000000
00001000
00000000
,
00010000
00000000
00000000
00100000
00000000
00000000
10000000
00010000
20000000
00000000
00000000
00000000
30010000
00000000
00000000
00000000
,
10010000
00000000
00000000
00010000
01000000
00000000
00001000
00000000
00000000
00010000
00000000
00000000
00000100
00001000
00000100
00000000
,
00000010
00000000
00000000
00000001
00000000
00000000
00000100
00000000
00001000
00000000
00010000
00000000
00001000
00000000
00000100
00000000
,
00001000
00000000
00000000
00010000
01000000
00000000
10000000
00000000
00000000
00100000
00000000
00000000
01000000
00000000
00100000
00000000
,
00010000
00000000
00000000
00001000
00000000
00000000
00000010
00000000
00000001
00000000
00000100
00000000
00000010
00000000
00001000
00000000
,
00001001
00000000
00000000
00000001
00000010
00000000
00000001
00000000
00000000
00000100
00000000
00000000
00000010
00001000
00000010
00000000
,
00010000
00000000
00000000
00001000
00000000
00000000
00100000
00000000
01000000
00000000
10000000
00000000
00100000
00000000
00010000
00000000
,
00001000
00000000
00000000
00100000
01000000
00000000
00100000
00000000
00000000
00010000
00000000
00000000
01000000
00000000
00001000
00000000
,
00010000
00000000
00000000
00000100
00000000
00000000
00001000
00000001
00002000
00000000
00000000
00000000
00003001
00000000
00000000
00000000
,
00001001
00000000
00000000
00000001
00000100
00000000
00001000
00000000
00000000
00010000
00000000
00000000
00100000
01000000
00100000
00000000
,
10000000
00000000
00000000
01000000
00000000
00000000
00010000
00000000
00001000
00000000
00100000
00000000
01000000
00000000
00010000
00000000
,
00001000
00000000
00000000
00000010
00000001
00000000
00000100
00000000
00000000
00000010
00000000
00000000
00010000
00000000
00001000
00000000
,
02002000
03003000
00020200
00030300
,
00010000
00000000
00000000
00001000
00000000
00000000
00000100
00000000
00000001
00000000
00000010
00000000
00000001
00000000
00000100
00000000
,
00001000
00000000
00000000
00010000
00001000
00000000
00100000
00000000
00010000
00000000
00000000
00010000
01000000
00000000
00100000
00000000
,
10000000
00000000
00000000
01000000
00000000
00000000
00010000
00000000
00001000
00000000
00100000
00000000
01000000
00000000
00010000
00000000
,
00001000
00000000
00000000
00001000
00010000
00000000
00000100
00000000
00000010
00000000
00000000
00000010
00000001
00000000
00000100
00000000
,
00001000
00000000
00000000
00010000
00000000
00000000
00000010
00000000
00000100
00000000
00001000
00000000
00010000
00000000
00100000
00000000
,
10000000
00000000
00000000
10000000
01000000
00000000
00100000
00000000
00010000
00000000
00000000
00010000
01000000
00000000
00001000
00000000
,
00010000
00000000
00000000
00000100
00000000
00000000
00000010
00000000
00000001
00000000
00000100
00000000
00001000
00000000
00010000
00000000
,
00012000
01003000
00021000
00030010
,
00010100
00101000
00010010
01001000
,
00001000
00000000
00000000
00010000
00000000
00000000
00100000
00000000
10100000
00000000
00000000
00000000
01010000
00000000
00000000
00000000
,
00101000
00010100
01001000
00010010
,
00010000
00000000
00000000
00001000
00000000
00000000
00000100
00000000
00000101
00000000
00000000
00000000
00001010
00000000
00000000
00000000
,
00000001
00000000
00000000
00000100
00000000
00000000
00001000
00000000
00011000
00000000
00000000
00000000
00110000
00000000
00000000
00000000
,
10000000
00000000
00000000
01000000
00000000
00000000
00010000
00000000
00011000
00000000
00000000
00000000
00001100
00000000
00000000
00000000
,
00000001
00000010
00000100
00001000
00010000
00100000
01000000
10000000
,
00100000
00010000
00001000
00000100
00000002
00000000
00002000
00003003
,
00000110
00000000
00000000
00000000
;

//---------------dance-double - ----------------
#NOTEDATA:;
#CHARTNAME:;
#STEPSTYPE:dance-double;
#DESCRIPTION:;
#CHARTSTYLE:;
#DIFFICULTY:Easy;
#METER:7;
#RADARVALUES:0.273082,0.351921,0.087980,0.167962,0.000000,239.000000,228.000000,11.000000,21.000000,0.000000,0.000000,0.000000,0.000000,0.000000,0.273082,0.351921,0.087980,0.167962,0.000000,239.000000,228.000000,11.000000,21.000000,0.000000,0.000000,0.000000,0.000000,0.000000;
#CREDIT:MILEN;
#NOTES:
00000000
00000000
00000000
00000000
,
00000000
00000000
00000000
00000000
,
00000000
00000000
00000000
00000000
,
00000000
00000000
00000000
00000000
,
00001000
00000000
00001000
00000000
,
00010000
00000000
00010000
00000000
,
00001000
00000000
00010000
00000000
,
00022000
00000000
00000000
00033000
,
01000000
00000000
01000000
00000000
,
00001000
00000000
00001000
00000000
,
00010000
00000000
00010000
00000000
,
00000010
00000000
00000010
00000000
,
00010000
00000000
00001000
00000000
,
00010000
00000000
00001000
00000000
,
00010000
00001000
00010000
00001000
,
00022000
00000000
00000000
00033000
,
00010000
00001000
00000100
00000000
,
00001000
00010000
00100000
00000000
,
00010000
00001000
00000100
00000000
,
00001000
00010000
00100000
00000000
,
00010000
00001000
00000010
00000000
,
00001000
00010000
01000000
00000000
,
00010000
00001000
00010000
00000000
,
00022000
00000000
00033000
00000000
,
00001000
00000000
00000100
00000000
,
00000001
00000000
00000010
00000000
,
00001000
00000000
00010000
00000000
,
01000000
00000000
10000000
10000000
,
00100000
00010000
00001000
00000000
,
00000100
00001000
00010000
00000000
,
00100000
00010000
00001000
00000100
,
00000020
00000000
00000130
00000100
,
00002002
00000000
00003003
00000000
,
00000001
00000100
00001000
00000000
,
00022000
00000000
00033000
00000000
,
00010000
00100000
10000000
00000000
,
20020000
00000000
30030000
00000000
,
10000000
01000000
00010000
00000000
,
00022000
00000000
00033000
00000000
,
00001000
00000100
00000001
00000000
,
00000010
00000000
00000100
00000000
,
00001000
00000000
00010000
00000000
,
00100000
00000000
01000000
00000000
,
10000000
00000000
00100000
00000000
,
00010000
00000000
00001000
00000000
,
00000100
00000000
00000001
00000000
,
00000010
00000000
00001000
00000000
,
00010000
00000000
01000000
00000000
,
10000000
10000000
10000000
00000000
,
00010000
00010000
00010000
00000000
,
00001000
00001000
00001000
00000000
,
00000001
00000001
00000001
00000000
,
00000100
00000010
00000100
00000010
,
00010000
00001000
00010000
00001000
,
01000000
00100000
01000000
00100000
,
20020000
00000000
00000000
30030000
,
10000000
01000000
00010000
00000000
,
01000000
00010000
00001000
00000000
,
00010000
00001000
00000100
00000000
,
00001000
00000100
00000001
00000000
,
00000001
00000010
00001000
00000000
,
00000010
00001000
00010000
00000000
,
00001000
00010000
00100000
00000000
,
00010000
00100000
10000000
00000000
,
10000000
01000000
00100000
00000000
,
01000000
00010000
00001000
00000000
,
00010000
00001000
00000100
00000000
,
00000010
00000100
00000001
00000000
,
00000001
00000010
00000100
00000000
,
00000010
00001000
00010000
00000000
,
00001000
00010000
01000000
10000000
,
20020000
00000000
00000000
30030000
,
00010000
01000000
00001000
00010000
,
00001000
00010000
00000010
00000000
,
00001000
00000010
00010000
00001000
,
00010000
00001000
00100000
00000000
,
00010000
00100000
00001000
00010000
,
00001000
00010000
00000100
00000000
,
00001000
00000100
00010000
00001000
,
00010000
00001000
01000000
00000000
,
00010000
00100000
01000000
10000000
,
00100000
00010000
00000010
00000000
,
00001000
00000100
00000010
00000001
,
00000100
00001000
01000000
00000000
,
00010000
00100000
01000000
00010000
,
00001000
00000010
00000100
00010000
,
00001000
00100000
01000000
00010000
,
00022000
00000000
00000000
00033000
,
00011000
00000000
00000000
00000000
;

//---------------dance-double - ----------------
#NOTEDATA:;
#CHARTNAME:;
#STEPSTYPE:dance-double;
#DESCRIPTION:;
#CHARTSTYLE:;
#DIFFICULTY:Medium;
#METER:10;
#RADARVALUES:0.453613,0.492690,0.167962,0.271939,0.075983,397.000000,376.000000,21.000000,34.000000,0.000000,0.000000,0.000000,0.000000,0.000000,0.453613,0.492690,0.167962,0.271939,0.075983,397.000000,376.000000,21.000000,34.000000,0.000000,0.000000,0.000000,0.000000,0.000000;
#CREDIT:MILEN;
#NOTES:
// measure 0
00000000
00000000
00000000
00000000
,  // measure 1
00000000
00000000
00000000
00000000
,  // measure 2
00000000
00000000
00000000
00000000
,  // measure 3
00000000
00000000
00000000
00000000
,  // measure 4
00001000
00100000
00010000
01000000
,  // measure 5
00001000
00010000
00000100
00001000
,  // measure 6
00000010
00010000
00001000
00010000
,  // measure 7
00022000
00000000
00000000
00033000
,  // measure 8
00001000
00100000
00001000
00100000
00001000
00000000
00010000
00000100
,  // measure 9
00010000
00000100
00010000
00000000
00001000
00010000
00001000
00000000
,  // measure 10
00010000
00000010
00010000
00000010
00010000
00000000
00001000
01000000
,  // measure 11
00001000
01000000
00001000
00000000
00010000
00001000
00010000
00000000
,  // measure 12
00001000
00000100
00000001
00000010
,  // measure 13
00001000
00010000
01000000
10000000
,  // measure 14
00100000
00010000
00001000
00010000
,  // measure 15
00022000
00000000
00000000
00033000
,  // measure 16
00001000
00000000
00100000
00010000
00000000
00100000
00010000
00000000
,  // measure 17
01000000
00000000
00100000
01000000
00100000
00000000
01000000
00000000
,  // measure 18
00010000
00000000
10000000
00100000
00000000
10000000
00100000
00000000
,  // measure 19
01000000
00000000
00010000
00100000
00001000
00000000
00011000
00000000
,  // measure 20
00010000
00000000
00000010
00001000
00000000
00000010
00001000
00000000
,  // measure 21
00000100
00000000
00000010
00000100
00000010
00000000
00000100
00000000
,  // measure 22
00001000
00000000
00000001
00000010
00000000
00000001
00000010
00000000
,  // measure 23
00000200
00000010
00000010
00000310
,  // measure 24
00000010
00000001
00000100
00001000
,  // measure 25
00010000
00100000
10000000
01000000
,  // measure 26
00010000
00001000
00000010
00000001
,  // measure 27
00000100
00000000
00000000
00000100
00000000
00000000
00000100
00000000
00000010
00000000
00000000
00000000
00010000
00000000
00000000
00000000
,  // measure 28
00001000
00000000
00000000
00001000
00000000
00000000
00001000
00000000
00100000
00000000
00000000
00000000
00010000
00000000
00000000
00000000
,  // measure 29
01000000
00000000
00000000
01000000
00000000
00000000
01000000
00000000
00100000
00000000
00000000
00000000
10010000
00000000
00000000
00000000
,  // measure 30
10000000
01000000
00010000
00001000
,  // measure 31
00022000
00033000
00011000
00000000
,  // measure 32
00020000
00000000
00000000
00000200
00030300
00000000
00000100
00000000
,  // measure 33
00001000
00000010
00020000
00030000
,  // measure 34
00002000
00000000
00000000
00200000
00303000
00000000
00100000
00000000
,  // measure 35
00010000
01000000
00002000
00003000
,  // measure 36
00020000
00000000
00000000
00000020
00030030
00000000
00000010
00000000
,  // measure 37
00001000
00000100
00020000
00030000
,  // measure 38
00002000
00000000
00000000
02000000
03003000
00000000
01000000
00000000
,  // measure 39
00010000
00100000
00002000
00003000
,  // measure 40
00010000
00001000
00010000
00001000
,  // measure 41
00000100
00000001
00001000
00000100
,  // measure 42
00010000
00001000
00010000
00001000
,  // measure 43
00100000
00010000
10000000
00100000
,  // measure 44
00010000
00001000
00000100
00000001
,  // measure 45
00000010
00001000
00010000
00001000
,  // measure 46
00010000
01000000
10000000
00100000
,  // measure 47
00010000
00001000
00010000
00001000
,  // measure 48
02000000
00010000
00010000
03010000
,  // measure 49
00002000
00100000
00100000
00103000
,  // measure 50
00020000
00000010
00000010
00030010
,  // measure 51
00000200
00001000
00001000
00001300
,  // measure 52
00001000
00000001
00000100
00001000
,  // measure 53
00010000
00100000
10000000
01000000
,  // measure 54
00010000
00001000
00000010
00000001
,  // measure 55
00002002
00000000
00000000
00003003
,  // measure 56
00001000
00000000
00000010
00010000
00000000
00001000
00010000
00001000
,  // measure 57
00010000
00000000
00001000
00100000
00010000
00000000
01000000
00000000
,  // measure 58
00100000
00000000
10000000
01000000
00000000
00100000
00010000
00100000
,  // measure 59
00010000
00000000
00100000
00001000
00010000
00000000
00011000
00000000
,  // measure 60
00001000
00000000
00010000
00000100
00000000
00001000
00000100
00001000
,  // measure 61
00000100
00000000
00000010
00000001
00000100
00000000
00001000
00000000
,  // measure 62
00010000
00000000
00100000
10000000
00000000
01000000
10000000
01000000
,  // measure 63
10000000
00000000
01000000
00100000
00010000
00000000
00100000
00001000
,  // measure 64
00011000
00000000
00010000
00000100
00000000
00001000
00000100
00000010
,  // measure 65
00000001
00000000
00001000
00000010
00010000
00000000
00001000
00000000
,  // measure 66
00100000
00000000
00010000
00100000
00000000
01000000
10000000
00010000
,  // measure 67
00100000
00000000
01000000
00010000
00001000
00000000
00011000
00000000
,  // measure 68
00010000
00000000
00000100
00001000
00000000
00000100
00000010
00000001
,  // measure 69
00000100
00000000
00001000
00010000
00100000
00000000
10000000
00000000
,  // measure 70
01000000
00000000
00100000
00010000
00000000
00100000
00001000
00010000
,  // measure 71
00022000
00000000
00000000
00033000
,  // measure 72
00001000
00000000
00000000
00001000
00000000
00000000
00001000
00000000
00000000
00000000
00010000
00000000
00001000
00000000
00010000
00000000
,  // measure 73
00000100
00000000
00000000
00000100
00000000
00000000
00000100
00000000
00001000
00000000
00000000
00001000
00000000
00000000
00001000
00000000
,  // measure 74
00000001
00000000
00000000
00000001
00000000
00000000
00000001
00000000
00000000
00000000
00000100
00000000
00000010
00000000
00000100
00000000
,  // measure 75
00001000
00000000
00000000
00001000
00000000
00000000
00001000
00000000
00010000
00000000
00000000
00010000
00000000
00000000
00010000
00000000
,  // measure 76
01000000
00000000
00000000
01000000
00000000
00000000
01000000
00000000
00000000
00000000
10000000
00000000
00100000
00000000
01000000
00000000
,  // measure 77
00100000
00000000
00000000
00100000
00000000
00000000
00100000
00000000
00010000
00000000
00000000
00010000
00000000
00000000
00010000
00000000
,  // measure 78
00001000
00000000
00000000
00001000
00000000
00000000
00001000
00000000
00000000
00000000
00010000
00000000
00001000
00000000
00000100
00000000
,  // measure 79
00000220
00000330
00002002
00003003
,  // measure 80
00000001
00000100
00001000
00010000
,  // measure 81
00100000
00000000
00000000
10000000
00000000
00000000
01000000
00000000
11000000
00000000
00000000
00000000
00110000
00000000
00000000
00000000
,  // measure 82
10000000
01000000
00010000
00001000
,  // measure 83
00000010
00000000
00000000
00000001
00000000
00000000
00000100
00000000
00000101
00000000
00000000
00000000
00001010
00000000
00000000
00000000
,  // measure 84
00000010
00000000
00000000
00010000
00000000
00000000
00001000
00000000
00010000
00000000
00000000
00000000
00011000
00000000
00000000
00000000
,  // measure 85
01000000
00000000
00000000
00001000
00000000
00000000
00010000
00000000
00001000
00000000
00000000
00000000
00011000
00000000
00000000
00000000
,  // measure 86
00000100
00000000
00000000
00010000
00000000
00000000
00001000
00000000
00100000
00000000
00000000
00001000
00000000
00000000
00010000
00000000
,  // measure 87
00022000
00003000
00030200
00000310
,  // measure 88
00000110
00000000
00000000
00000000
;
