#VERSION:0.83;
#TITLE:Undefeated;
#SUBTITLE:;
#ARTIST:XG;
#TITLETRANSLIT:;
#SUBTITLETRANSLIT:;
#ARTISTTRANSLIT:;
#GENRE:VARIETY;
#ORIGIN:;
#CREDIT:MUINELIM;
#BANNER:Undefeated.png;
#BACKGROUND:Undefeated-bg.png;
#PREVIEWVID:;
#JACKET:Undefeated-jacket.png;
#CDIMAGE:;
#DISCIMAGE:;
#LYRICSPATH:;
#CDTITLE:;
#MUSIC:Undefeated.ogg;
#OFFSET:-0.276000;
#SAMPLESTART:73.700150;
#SAMPLELENGTH:14.906837;
#SELECTABLE:YES;
#DISPLAYBPM:80.500000;
#BPMS:0.000=80.500;
#STOPS:16.000=0.745,
33.000=1.491;
#DELAYS:;
#WARPS:;
#TIMESIGNATURES:0.000=4=4;
#TICKCOUNTS:0.000=4;
#COMBOS:0.000=1;
#SPEEDS:0.000=1.000=0.000=0;
#SCROLLS:0.000=1.000;
#FAKES:;
#LABELS:0.000=Song Start;
#BGCHANGES:0.000=Undefeated.avi=1.000=1=0=0=StretchNoLoop==CrossFade==,
99999=-nosongbg-=1.000=0=0=0 // don't automatically add -songbackground-
;
#KEYSOUNDS:;
#ATTACKS:
;

//---------------dance-single - ----------------
#NOTEDATA:;
#CHARTNAME:;
#STEPSTYPE:dance-single;
#DESCRIPTION:;
#CHARTSTYLE:;
#DIFFICULTY:Beginner;
#METER:2;
#RADARVALUES:0.091755,0.113112,0.048781,0.032521,0.000000,79.000000,73.000000,6.000000,4.000000,0.000000,0.000000,0.000000,0.000000,0.000000,0.091755,0.113112,0.048781,0.032521,0.000000,79.000000,73.000000,6.000000,4.000000,0.000000,0.000000,0.000000,0.000000,0.000000;
#CREDIT:;
#DISPLAYBPM:80.500000;
#NOTES:
0000
0000
0000
0000
,
0000
0000
0000
0000
,
0000
0000
1000
0000
,
0000
0000
0001
0000
,
0000
1000
0000
1000
,
0000
0100
0000
0100
,
0000
0010
0000
0010
,
0000
0001
0000
0001
,
0000
1001
1000
1000
,
0000
0000
0001
0001
,
0000
0000
0100
0100
,
0000
0010
0000
0100
,
0000
0001
0000
1000
,
0000
0010
0000
0100
,
0000
0010
0000
1000
,
0000
0001
0000
1001
,
0000
0000
0000
1001
,
0000
0000
0000
1000
,
0000
0100
0000
0010
,
0000
0001
0000
0100
,
0000
0100
0000
0010
,
0000
0010
0000
1000
,
0000
1000
0000
0001
,
0000
0001
0000
1001
,
0000
1000
0000
0001
,
0000
1000
0000
0010
,
0010
0010
0000
0100
,
0100
0100
0000
0001
,
0000
1000
0000
0001
,
0000
1000
0000
2002
,
0000
3003
0000
0020
,
0000
0030
0000
1000
,
0000
0100
0000
0010
,
0000
0001
0000
0010
,
0000
0100
0000
1000
,
0000
1001
0000
0001
,
0000
1000
0000
0100
,
0000
0010
0000
0100
,
0000
1000
0000
0001
,
0000
0010
0020
0030
;

//---------------dance-single - ----------------
#NOTEDATA:;
#CHARTNAME:;
#STEPSTYPE:dance-single;
#DESCRIPTION:;
#CHARTSTYLE:;
#DIFFICULTY:Easy;
#METER:4;
#RADARVALUES:0.150990,0.193906,0.081302,0.040651,0.000000,130.000000,120.000000,10.000000,5.000000,0.000000,0.000000,0.000000,0.000000,0.000000,0.150990,0.193906,0.081302,0.040651,0.000000,130.000000,120.000000,10.000000,5.000000,0.000000,0.000000,0.000000,0.000000,0.000000;
#CREDIT:;
#DISPLAYBPM:80.500000;
#NOTES:
0000
0000
0000
0000
,
0000
0000
0000
0000
,
0000
0000
0000
0000
1000
0000
0000
1000
,
0000
0000
0000
0000
0001
0000
0000
0001
,
0000
1000
1000
0100
,
0000
0001
0001
0100
,
0000
1000
1000
0100
,
0000
0001
0000
0100
,
0100
1001
1000
0010
,
0000
0000
0001
0010
,
0000
0000
1000
0010
,
0000
0010
0000
0000
0010
0000
0010
0000
,
0001
0010
1000
0010
,
0001
0010
1001
0100
,
0001
0100
1000
0100
,
0001
0100
2000
3001
,
0000
0000
0000
1001
,
0000
0000
0000
0000
0000
0000
0010
0010
,
0000
0000
0100
0100
0000
0000
0010
0000
,
0100
0010
0100
0001
,
0001
0010
0000
1000
,
1000
0010
0000
0001
,
0001
0010
0000
1000
,
0000
0010
0010
1001
,
1000
0100
0010
0000
,
0001
0010
0100
0000
,
1000
0110
0001
1000
,
0001
0110
1000
0001
,
1000
0001
1000
0100
,
0010
0100
0010
0002
,
0003
2000
3000
0010
,
0100
0000
0010
0010
0010
0000
1000
0000
,
0100
0100
0000
0001
,
0010
0010
0000
1000
,
0100
0100
0000
0001
,
0000
0010
0010
1001
,
1000
0010
1000
0001
,
0010
0001
0110
1001
,
0001
0100
0001
1000
,
0100
1000
0220
0330
;

//---------------dance-double - ----------------
#NOTEDATA:;
#CHARTNAME:;
#STEPSTYPE:dance-double;
#DESCRIPTION:;
#CHARTSTYLE:;
#DIFFICULTY:Easy;
#METER:4;
#RADARVALUES:0.148667,0.179983,0.081302,0.032521,0.000000,128.000000,118.000000,10.000000,4.000000,0.000000,0.000000,0.000000,0.000000,0.000000,0.148667,0.179983,0.081302,0.032521,0.000000,128.000000,118.000000,10.000000,4.000000,0.000000,0.000000,0.000000,0.000000,0.000000;
#CREDIT:;
#DISPLAYBPM:80.500000;
#NOTES:
00000000
00000000
00000000
00000000
,
00000000
00000000
00000000
00000000
,
00000000
00000000
00000000
00000000
00001000
00000000
00000000
00001000
,
00000000
00000000
00000000
00000000
00010000
00000000
00000000
00010000
,
00000000
00000010
00001000
00000010
,
00000000
00010000
00001000
00010000
,
00000000
00000100
00001000
00000100
,
00000000
00010000
00000000
00001000
,
00010000
00011000
00000000
00000000
,
00000010
00000010
00000000
00000000
,
00100000
00100000
00000000
00000000
,
00000100
00000000
00010000
00000000
00000000
00001000
00000000
00000000
,
01000000
00010000
00100000
01000000
,
00100000
00010000
00100000
00001000
,
00011000
00000010
00001000
00000100
,
00000010
00000100
00001000
00000100
,
00020000
00031000
00000000
00000000
,
00000000
00011000
00000000
00000000
,
00000000
00000000
01000000
01000000
00000000
00000000
00000100
00000100
,
00000000
00001000
00000100
00000010
,
00001000
00100000
00010000
00100000
,
00000000
00001000
00010000
00001000
,
00000000
01000000
00010000
01000000
,
00000000
00001000
00000000
00010000
,
00001000
00011000
00010000
00000100
,
00000010
00000000
00001000
00100000
,
01000000
00000000
00010000
00011000
,
00001000
00000010
00001000
00011000
,
00010000
00100000
00010000
00001000
,
00000100
00000001
00000010
00001000
,
00010000
02000000
00000000
03000000
,
00000000
10000000
00100000
00010000
,
00011000
00001000
00100000
00100000
,
00000000
00010000
00000010
00000010
,
00000000
00001000
00100000
00100000
,
00000000
00010000
00000000
00000010
,
00000010
00001001
00000001
00000100
,
00001000
00010000
00100000
10000000
,
00010000
10010000
10000000
01000000
,
00010000
00001000
00000010
00000001
,
00002002
00003003
00000000
00000000
;

//---------------dance-single - ----------------
#NOTEDATA:;
#CHARTNAME:;
#STEPSTYPE:dance-single;
#DESCRIPTION:;
#CHARTSTYLE:;
#DIFFICULTY:Hard;
#METER:13;
#RADARVALUES:0.506396,0.596936,0.203255,0.284557,0.687003,436.000000,411.000000,25.000000,35.000000,0.000000,0.000000,0.000000,0.000000,0.000000,0.506396,0.596936,0.203255,0.284557,0.687003,436.000000,411.000000,25.000000,35.000000,0.000000,0.000000,0.000000,0.000000,0.000000;
#CREDIT:;
#DISPLAYBPM:80.500000;
#NOTES:
0000
0000
0000
0000
,
0000
0000
0000
0000
,
0000
0000
0000
0000
1002
0000
0100
0103
,
0000
0001
0010
0100
2100
0000
0000
0002
,
0000
0000
3003
0000
0001
0010
0100
1000
0000
0000
0200
0000
1300
0000
0000
1000
,
0010
0100
0100
0001
1000
0100
0010
0001
0000
0000
0020
0000
0031
0000
0000
0001
,
0100
0010
0010
1000
0001
0010
0100
0010
0000
0000
0200
0000
0310
0000
0000
0010
,
0100
1000
0001
0010
0200
0000
0000
1300
0010
0100
0001
1000
0100
0000
0100
0000
,
0110
0000
0010
0002
2000
0000
3003
0000
0001
1000
0010
0100
0110
0000
0000
0000
,
0010
1000
0100
0010
0100
0010
0001
1000
0100
0010
0001
1000
0010
0000
0000
0000
,
0100
0001
0010
0100
0010
0100
1000
0001
0010
0100
1000
0001
0200
0000
0000
0310
,
1000
0000
0000
0100
0000
0000
0020
0000
0000
0000
0000
0000
0000
0000
0000
0031
0000
0000
0100
0000
0000
0010
0000
0000
1010
0000
0000
0000
0000
0000
0101
0000
0000
0000
0000
0000
1001
0000
0000
0000
0000
0000
1000
0000
0010
0000
1000
0000
,
0100
0000
0100
0010
0000
0000
0002
0000
0000
0103
0010
0100
0001
0000
0001
0010
0000
0010
0100
0000
0000
1000
0010
1000
,
0100
0000
0010
0000
0001
0000
1000
0000
0000
0000
0000
0000
0200
0000
0000
0000
0000
0000
1300
0000
0001
0000
1000
0000
0100
0000
0010
0000
0001
0000
0100
0000
0000
0010
0000
0000
0110
0000
0000
0000
0000
0000
0100
0000
0001
0000
0100
0000
,
0010
1000
0001
0010
0000
0000
0200
0000
0000
0310
0001
0010
0100
1000
0001
1000
0100
0010
0001
0000
0000
1000
0010
0100
,
0001
0000
1000
0000
0100
0000
0020
0000
0000
0000
0000
0000
0030
0000
0000
0000
0000
0000
0001
0000
0100
0000
0010
0000
1000
0000
0001
0000
0010
0000
0100
0000
0000
0010
0000
0000
1001
0000
0000
0000
0000
0000
0001
0000
0000
0100
0000
0000
,
0020
0000
0031
0000
0001
0010
2000
0000
3001
0000
0000
0000
1001
0000
1000
0010
,
0200
0000
1300
0100
0001
0010
0100
1000
0001
0010
0100
0000
1100
0000
1000
0010
,
0200
0000
1300
0000
1000
0100
0001
0010
0200
0000
0000
0000
1300
0010
0000
0001
,
0020
0000
0000
0000
1030
0100
0000
0001
0100
1000
1001
0000
0001
0100
0010
1000
,
0000
0000
0020
0000
1030
0000
0000
1000
0100
0100
0001
0100
1000
0010
0100
0001
,
0000
0000
0200
0000
0301
0000
0000
0001
0010
0010
1000
0010
0001
1000
0010
0100
,
0000
0000
0020
0000
0130
0000
0000
0100
0001
0010
1000
0010
0002
0000
0000
0103
,
1000
0100
0001
0010
0100
0000
1100
0000
0011
0000
0001
0100
0020
0000
0001
0000
,
0000
0000
1030
0100
0010
1000
0010
0001
0100
0000
0101
0000
0000
0000
0000
0000
,
0001
1000
0100
0010
1000
0000
0010
0001
0010
0100
2000
0000
3010
0000
0010
0001
,
0010
0100
0010
0000
0110
0000
1000
0100
0010
0001
0100
0010
1000
0000
0001
0010
,
0100
1000
0010
0100
0002
0000
1000
0000
1003
0000
0001
0100
0010
0001
0010
0100
,
0000
0100
0010
1000
0100
0020
0000
0000
0031
0000
1000
0010
0100
1000
0100
0010
,
0000
0010
0200
0001
0000
0000
0310
1000
0100
0001
1000
0010
0002
0000
0100
0000
,
0100
0000
0000
2003
0000
0000
0010
0000
3010
0000
0000
0000
0010
0001
0000
0010
,
1000
0000
0100
0000
0010
1000
0000
0010
0001
0100
0010
0000
0220
0000
0000
0000
,
0330
0000
0101
0000
1010
0000
0000
1000
0100
0100
0001
1000
0010
0001
1000
0100
,
0000
0000
1100
0000
0011
0000
0000
0001
0100
0100
1000
0001
0010
1000
0100
0010
,
0000
0000
0110
0000
1001
0000
0000
1000
0010
0001
0010
1000
0200
0000
0000
0310
,
0001
0100
1000
0100
0001
0000
0011
0000
0010
0100
1000
0001
0010
0000
1000
0000
,
0010
0000
0001
0100
0000
1000
0100
0000
0001
0000
0010
0000
1000
0000
0001
0000
,
0100
0000
1000
0010
0000
0001
0010
0000
0110
0000
0000
0000
0100
0000
0001
0000
,
0010
0000
1000
0010
0000
0001
0100
0000
1000
0000
0001
0000
0010
0000
1000
0000
,
0100
0000
0001
0100
0000
1000
0010
0000
0001
0010
0100
1000
0000
0000
0000
0000
;

//---------------dance-double - ----------------
#NOTEDATA:;
#CHARTNAME:;
#STEPSTYPE:dance-double;
#DESCRIPTION:;
#CHARTSTYLE:;
#DIFFICULTY:Hard;
#METER:13;
#RADARVALUES:0.486651,0.596936,0.138214,0.292688,0.646352,419.000000,402.000000,17.000000,36.000000,0.000000,0.000000,0.000000,0.000000,0.000000,0.486651,0.596936,0.138214,0.292688,0.646352,419.000000,402.000000,17.000000,36.000000,0.000000,0.000000,0.000000,0.000000,0.000000;
#CREDIT:;
#DISPLAYBPM:80.500000;
#NOTES:
00000000
00000000
00000000
00000000
,
00000000
00000000
00000000
00000000
,
00000000
00000000
00000000
00000000
00012000
00000000
01000000
01003000
,
00000000
01000000
00001000
00010000
00010200
00000000
00000000
00000000
,
00000020
00000000
00000330
00000000
00000001
00000010
00000100
00001000
00000000
00000000
00020000
00000000
01030000
00000000
00000000
01000000
,
00100000
01000000
00010000
00010000
10000000
01000000
00100000
00010000
00000000
00000000
00002000
00000000
00003010
00000000
00000000
00000010
,
00000100
00000010
00001000
00001000
00000001
00000010
00000100
00001000
00000000
00000000
00020000
00000000
10030000
00000000
00000000
10000000
,
00100000
01000000
00010000
00100000
02000000
00000000
00000000
03010000
00001000
00000010
00000001
00000100
00000010
00000000
00000010
00000000
,
00000110
00000000
00000100
00001000
00020000
00000000
00030000
00000000
00001000
00010000
00100000
01000000
00100000
00000000
00000000
00000000
,
10000000
01000000
00100000
01000000
00010000
00001000
00010000
00000100
00000010
00000100
00001000
00000001
00000010
00000000
00000000
00000000
,
00000001
00000100
00000010
00000100
00001000
00010000
00001000
01000000
00100000
01000000
00010000
10000000
00200000
00000000
00000000
00310000
,
00001000
00000000
00000000
00010000
00000000
00000000
00002000
00000000
00000000
00000000
00000000
00000000
00000000
00000000
00000000
00003100
00000000
00000000
00000001
00000000
00000000
00000010
00000000
00000000
00000100
00000000
00000000
00000000
00000000
00000000
00000010
00000000
00000000
00000000
00000000
00000000
00001001
00000000
00000000
00000000
00000000
00000000
00000001
00000000
00000100
00000000
00000001
00000000
,
00000100
00000000
00000100
00001000
00000000
00000000
00011000
00000000
00000000
00010000
00001000
00010000
00001000
00000000
00001000
00100000
00000000
00100000
00010000
00000000
00000000
00010000
01000000
00010000
,
01000000
00100000
10000000
01000000
00000000
00000000
01100000
00000000
00000000
00100000
00010000
00100000
00001000
00010000
00001000
00000200
00000000
00000000
00000301
00000000
00000000
00000001
00000010
00000001
,
00000100
00000010
00000100
00001000
00000000
00000000
00011000
00000000
00000000
00010000
00001000
00010000
00100000
01000000
00100000
10000000
01000000
10000000
00010000
00000000
00000000
01000000
00100000
01000000
,
00001000
00000000
00010000
00000000
00001000
00000000
00000200
00000000
00000000
00000000
00000000
00000000
00000300
00000000
00000000
00000000
00000000
00000000
00000001
00000000
00000010
00000000
00000100
00000000
00000010
00000000
00001000
00000000
00010000
00000000
00002000
00000000
00000000
00000000
00000000
00000000
01003000
00000000
00000000
00000000
00000000
00000000
01000000
00000000
00000000
00010000
00000000
00000000
,
00200000
00000000
01300000
00000000
00100000
00010000
02000000
00000000
03100000
00000000
00000000
00000000
00110000
00000000
00010000
00001000
,
00000200
00000000
00001300
00010000
00001000
00000100
00000001
00000100
00001000
00010000
00001000
00000000
00001100
00000000
00000100
00000010
,
00002000
00000000
00003100
00000000
00000100
00000010
00000100
00001000
00000200
00000000
00000000
00000000
00000310
00000001
00000000
00000100
,
00002000
00000000
00000000
00000000
00013000
00100000
00000000
10000000
01000000
00010000
00001000
00000000
00010000
01000000
10000000
00100000
,
00000000
00000000
00002000
00000000
00003010
00000000
00000000
00000010
00000100
00000100
00001000
00010000
00001000
00000010
00000001
00000100
,
00000000
00000000
00020000
00000000
01030000
00000000
00000000
01000000
00100000
00100000
00010000
00001000
00010000
00100000
10000000
00010000
,
00000000
00000000
00002000
00000000
00003001
00000000
00000000
00000001
00000100
00000010
00001000
00010000
00200000
00000000
00000000
01300000
,
10000000
00100000
00010000
00001000
00010000
00000000
00001000
00000000
00010000
00000000
00001000
00000100
00000002
00000000
00000010
00000000
,
00000000
00000000
00001003
00000100
00000010
00001000
00010000
01000000
20000000
00000000
30100000
00000000
00000000
00000000
00000000
00000000
,
00100000
00010000
00001000
00000010
00000100
00000000
00000010
00000001
00000100
00001000
00020000
00000000
00130000
00000000
00100000
10000000
,
01000000
00100000
02000000
00000000
03010000
00000000
00010000
00001000
00000010
00000100
00010000
00001000
00000100
00000000
00001000
00010000
,
01000000
00100000
00001000
00010000
00200000
00000000
10000000
00000000
10300000
00000000
10000000
01000000
00100000
00010000
00100000
00001000
,
00000000
00010000
00001000
00000100
00000010
00000200
00000000
00000000
00000301
00000000
00000001
00000010
00001000
00010000
00001000
01000000
,
00000000
01000000
00200000
00010000
00000000
00000000
10300000
01000000
00100000
00010000
01000000
00100000
00020000
00000000
00000000
00000000
,
00000000
00000000
00000000
00032000
00000000
00000000
00000000
00000000
00003010
00000000
00000000
00000000
00000010
00000001
00000000
00000100
,
00001000
00000000
00010000
00000000
00100000
10000000
00000000
01000000
00010000
00001000
00010000
00000000
00022000
00000000
00000000
00000000
,
00033000
00000000
01001000
00000000
00010010
00000000
00000000
00010000
00001000
00000100
00000001
00001000
00000100
00000010
00001000
00010000
,
00000000
00000000
00010100
00000000
00101000
00000000
00000000
00001000
00010000
01000000
10000000
00010000
01000000
00100000
00010000
00001000
,
00000000
00000000
00011000
00000000
00000110
00000000
00000000
00000001
00000010
00000100
00001000
00010000
00200000
00000000
00000000
10300000
,
01000000
00100000
00010000
00001000
00000200
00000000
00000301
00000000
00000100
00000010
00000001
00000100
00001000
00000000
00010000
00000000
,
00100000
10000000
01000000
00010000
00001000
00000010
00000001
00000100
,
00001000
00010000
00100000
10000000
10010000
00000000
00010000
00100000
,
01000000
00010000
00000100
00001000
00000010
00010000
00100000
00001000
,
00000001
00000000
00000010
00000000
00010000
00000000
10000000
00000000
00100000
00010000
00001000
00000010
00000000
00000000
00000000
00000000
;

//---------------dance-single - ----------------
#NOTEDATA:;
#CHARTNAME:;
#STEPSTYPE:dance-single;
#DESCRIPTION:;
#CHARTSTYLE:;
#DIFFICULTY:Medium;
#METER:8;
#RADARVALUES:0.265974,0.274268,0.130083,0.227646,0.016260,229.000000,213.000000,16.000000,28.000000,0.000000,0.000000,0.000000,0.000000,0.000000,0.265974,0.274268,0.130083,0.227646,0.016260,229.000000,213.000000,16.000000,28.000000,0.000000,0.000000,0.000000,0.000000,0.000000;
#CREDIT:;
#DISPLAYBPM:80.500000;
#NOTES:
0000
0000
0000
0000
,
0000
0000
0000
0000
,
0000
0000
0000
0000
2000
0000
0000
3002
,
0000
0000
0103
0010
2000
0000
0000
0002
,
3003
0000
1000
1000
0000
0010
1000
0000
,
0010
0100
0001
0001
0000
0010
0001
0000
,
0100
0010
1000
1000
0000
0100
1000
0000
,
0010
0100
0002
0000
0103
0010
2000
0000
,
3010
0100
0110
0000
0001
0001
0001
0000
,
0100
0000
0010
0000
1000
1000
1000
0000
,
0100
0000
0001
0000
0010
0010
0020
0000
,
0130
0200
0000
0310
0010
1000
1001
0001
,
0010
0001
0000
1000
0100
1000
0010
0010
,
0100
0010
0000
0100
0001
0100
0101
0000
,
0001
1000
0000
0010
1000
0010
0010
0100
,
0001
0100
0000
0001
0010
0001
2000
0000
,
3200
0320
0031
0101
,
1010
0000
1000
0001
1000
0010
0100
0100
,
0000
0000
0000
0000
0010
0000
0010
0000
0000
0000
0000
0000
1000
0000
0000
0001
,
0000
1000
2002
0000
3003
0000
0001
0001
,
0000
0010
0001
0000
0010
0100
1000
1000
,
0000
0010
1000
0000
0100
0010
0001
0001
,
0000
0100
0001
0000
0010
0100
2000
0000
,
3100
0010
0002
0000
0013
0100
0110
0020
,
0000
0031
0100
1000
0100
0001
0000
0000
,
1000
1000
0010
0001
0010
1000
0000
0100
,
0010
0100
0110
1000
0010
0001
0001
0010
,
1000
0100
0010
0000
1001
0000
1000
0010
,
0200
0301
1000
0020
0130
0000
0001
0010
,
0200
1300
0001
0020
0130
1000
0002
0000
,
0203
0000
0000
0000
0320
0000
0000
0000
2030
0000
0000
0000
3100
0000
0000
0001
,
0000
0010
0220
0000
0330
0000
1001
0000
,
0000
0010
0010
0000
1000
0100
0010
0100
,
0000
1000
1000
0000
0001
0010
0100
0010
,
0000
0001
0001
0000
1000
0010
0200
0000
,
0301
0100
0020
0000
1030
0001
1001
0000
,
1000
0000
0010
0100
0010
0000
0110
0000
,
0001
0000
0100
0010
0110
0000
1001
0000
,
0100
0000
0001
1000
0001
0000
1001
0000
,
0100
0000
0000
0000
0010
0000
1000
0000
0001
0100
0001
0100
0000
0000
0000
0000
;

//---------------dance-double - ----------------
#NOTEDATA:;
#CHARTNAME:;
#STEPSTYPE:dance-double;
#DESCRIPTION:;
#CHARTSTYLE:;
#DIFFICULTY:Medium;
#METER:8;
#RADARVALUES:0.250875,0.273836,0.138214,0.170734,0.008130,216.000000,199.000000,17.000000,21.000000,0.000000,0.000000,0.000000,0.000000,0.000000,0.250875,0.273836,0.138214,0.170734,0.008130,216.000000,199.000000,17.000000,21.000000,0.000000,0.000000,0.000000,0.000000,0.000000;
#CREDIT:;
#DISPLAYBPM:80.500000;
#NOTES:
// measure 0
00000000
00000000
00000000
00000000
,  // measure 1
00000000
00000000
00000000
00000000
,  // measure 2
00000000
00000000
00000000
00000000
00002000
00000000
00000000
00023000
,  // measure 3
00000000
00000000
00031000
00001000
00020000
00000000
00000000
00002000
,  // measure 4
00033000
00000000
00010000
00001000
00000000
00001000
00000100
00000000
,  // measure 5
00000001
00000000
00000010
00001000
00000000
00001000
00010000
00000000
,  // measure 6
01000000
00000000
10000000
00100000
00000000
00100000
00010000
00000000
,  // measure 7
00001000
00010000
00000020
00000000
00010030
00001000
02000000
00000000
,  // measure 8
03001000
00010000
00011000
00000000
00000100
00000100
00000100
00000000
,  // measure 9
00010000
00000000
00001000
00000000
00100000
00100000
00100000
00000000
,  // measure 10
00001000
00000000
00010000
00000000
00000010
00000010
00000020
00000000
,  // measure 11
00001030
00002000
00000000
00003100
00000100
00010000
00011000
00001000
,  // measure 12
00100000
00001000
00000000
00010000
00000010
00010000
00001000
00001000
,  // measure 13
01000000
00001000
00000000
00010000
00000100
00010000
00011000
00000000
,  // measure 14
00001000
00010000
00000000
00010000
00100000
00010000
00010000
00001000
,  // measure 15
00000010
00001000
00000000
00010000
00100000
00010000
00001000
00000000
,  // measure 16
00000100
00000001
00000010
00000110
,  // measure 17
00001001
00000000
00000001
00000100
00001000
00010000
01000000
01000000
,  // measure 18
00000000
00000000
00000000
00000000
10000000
00000000
10000000
00000000
00000000
00000000
00000000
00000000
00100000
00000000
00000000
00010000
,  // measure 19
00000000
00001000
00022000
00000000
00033000
00000000
00001000
00010000
,  // measure 20
00000000
00010000
01000000
00000000
10000000
00000000
00100000
00010000
,  // measure 21
00000000
00010000
00001000
00000000
00000100
00000000
00000001
00000010
,  // measure 22
00000000
00000010
00001000
00000000
00010000
00001000
00200000
00000000
,  // measure 23
00301000
00010000
00000200
00000000
00010300
00001000
00011000
00020000
,  // measure 24
00000000
00030100
00001000
00000001
00001000
00000100
00000000
00000000
,  // measure 25
01000000
01000000
00010000
10000000
00010000
01000000
00000000
00000100
,  // measure 26
00001000
00000001
00001001
00001000
00000100
00000010
00001000
00010000
,  // measure 27
01000000
00100000
00010000
00000000
10010000
00000000
10000000
00100000
,  // measure 28
00010000
00000000
00001000
00000100
00000001
00000000
00000001
00000010
,  // measure 29
00001000
00000000
00010000
01000000
10000000
00000000
00020000
00000000
,  // measure 30
02030000
00000000
00000000
00000000
03002000
00000000
00000000
00000000
00003200
00000000
00000000
00000000
00000301
00000000
00000000
00000010
,  // measure 31
00000000
00001000
00022000
00000000
00033000
00000000
00011000
00000000
,  // measure 32
00000000
00100000
00100000
00000000
00000010
00000000
00001000
00000010
,  // measure 33
00000000
00000100
00000100
00000000
01000000
00000000
00010000
01000000
,  // measure 34
00000000
00001000
00001000
00000000
00000001
00000010
00002000
00000000
,  // measure 35
00013000
01000000
20000000
00000000
30100000
00010000
00011000
00000000
,  // measure 36
00001000
00000100
00000001
00000110
,  // measure 37
00001000
00010000
01100000
00011000
,  // measure 38
00010000
01000000
10000000
01100000
,  // measure 39
00010000
00000000
00001000
00000100
00000010
00000110
00000000
00000000
;
