#VERSION:0.83;
#TITLE:系ぎて;
#SUBTITLE:;
#ARTIST:相馬琳太郎;
#TITLETRANSLIT:Tsunagite;
#SUBTITLETRANSLIT:;
#ARTISTTRANSLIT:Rintaro soma;
#GENRE:VARIETY;
#ORIGIN:;
#CREDIT:MUINELIM;
#BANNER:Tsunagite.png;
#BACKGROUND:Tsunagite-bg.png;
#PREVIEWVID:;
#JACKET:Tsunagite-jacket.png;
#CDIMAGE:;
#DISCIMAGE:;
#LYRICSPATH:;
#CDTITLE:;
#MUSIC:Tsunagite.ogg;
#OFFSET:0.002000;
#SAMPLESTART:35.173965;
#SAMPLELENGTH:14.784195;
#SELECTABLE:YES;
#BPMS:0.000=177.608,
86.500=160.000,
88.000=150.000,
90.000=120.000,
90.500=90.000,
91.000=70.000,
91.500=44.402,
92.625=177.608,
156.000=88.804,
158.000=177.608,
206.000=88.804,
214.000=177.608,
274.000=88.804,
276.000=177.608,
382.000=88.804;
#STOPS:92.625=1.520,
276.000=0.338,
338.333=0.338;
#DELAYS:;
#WARPS:;
#TIMESIGNATURES:0.000=4=4;
#TICKCOUNTS:0.000=4;
#COMBOS:0.000=1;
#SPEEDS:0.000=1.000=0.000=0;
#SCROLLS:0.000=1.000;
#FAKES:;
#LABELS:0.000=Song Start;
#BGCHANGES:0.000=Tsunagite.avi=1.000=0=0=0=StretchNoLoop====,
99999=-nosongbg-=1.000=0=0=0 // don't automatically add -songbackground-
;
#KEYSOUNDS:;
#ATTACKS:
;

//---------------dance-single - ----------------
#NOTEDATA:;
#CHARTNAME:;
#STEPSTYPE:dance-single;
#DESCRIPTION:;
#CHARTSTYLE:;
#DIFFICULTY:Beginner;
#METER:5;
#RADARVALUES:0.188692,0.308256,0.049180,0.098361,0.000000,188.000000,181.000000,7.000000,14.000000,0.000000,0.000000,0.000000,0.000000,0.000000,0.188692,0.308256,0.049180,0.098361,0.000000,188.000000,181.000000,7.000000,14.000000,0.000000,0.000000,0.000000,0.000000,0.000000;
#CREDIT:;
#DISPLAYBPM:177.610001;
#NOTES:
0000
0000
0000
0000
,
0000
0000
0000
0000
,
0000
0000
0000
0000
,
0000
0000
0000
0000
,
0000
0000
0000
0000
,
0000
0000
0000
0000
,
0000
0000
0000
0000
,
0000
0000
0000
0000
,
1000
0000
1000
0000
,
1000
0000
1000
0000
,
0001
0000
0001
0000
,
0001
0000
0001
0000
,
0100
0000
0100
0000
,
0010
0000
0010
0000
,
0100
0000
0100
0100
,
0200
0000
0300
0000
,
0001
0000
0000
0001
,
0000
0000
0000
0000
,
1000
0000
0000
1000
,
0000
0000
0000
0000
,
0001
0000
0000
0000
,
1000
0000
0000
0000
,
2002
0000
0000
0000
,
0000
0000
3003
0000
,
1001
0000
0000
0000
,
0000
0000
1001
0000
,
1000
0000
0010
0000
,
1000
0000
0001
0000
,
0010
0000
0001
0000
,
1000
0000
0100
0000
,
1000
0000
0001
0000
,
0100
0000
0001
0000
,
1001
0000
1000
0000
,
0010
0000
0100
0000
,
0001
0000
0010
0000
,
0100
0000
1000
0000
,
0001
0000
1000
0000
,
0100
0000
0010
0000
,
0001
0000
1000
0000
,
1001
0000
0001
0000
,
0100
0000
0001
0000
,
0010
0000
0001
0000
,
0100
0000
0001
0001
,
0001
0000
1000
0000
,
0100
0000
1000
0000
,
0010
0000
1000
0000
,
0100
0000
1000
1000
,
1000
0000
0001
0000
,
0100
0000
0010
0000
,
1000
0000
0001
0000
,
0100
0000
0010
0010
,
0010
0010
0020
0000
,
0030
0000
0200
0000
,
0300
0000
0001
0000
,
0000
0000
1000
0000
,
0000
0000
0010
0000
,
0000
0000
0100
0000
,
0000
0000
0001
0000
,
1000
0000
0010
0000
,
0100
0000
0001
0000
,
1000
1000
2000
0000
,
3000
0000
0001
0001
,
0001
0001
0000
0100
,
0010
0000
1000
1000
,
1000
1000
0000
0010
,
0100
0000
0001
0001
,
0001
0000
1000
1000
,
1000
0000
0010
0000
,
0100
0100
0200
0000
,
0300
0100
0000
0001
,
0000
1000
0000
0010
,
0000
0100
0000
0010
,
0010
0020
0030
1000
,
0000
0100
0000
0010
,
0000
0001
1000
0001
,
0000
0010
0000
0100
,
0010
0100
0010
0200
,
0300
0000
1000
0002
,
0003
0001
0000
0010
,
0001
0001
1000
1000
,
0000
0100
0000
1001
,
0000
1000
0000
0001
,
0000
1000
0000
0020
,
0030
0200
0300
0010
,
0010
0010
0010
0000
,
1000
0000
0100
0000
,
0010
0000
0001
0000
,
0100
0000
1000
0000
,
0001
0000
0010
0000
,
1000
0000
0100
0000
,
0010
0000
0001
0000
,
0100
0000
1000
0000
,
0010
0000
0001
0001
,
0001
0000
1000
1000
,
1000
0000
0001
1000
,
0010
0100
0220
0000
,
0000
0000
0000
0000
,
0000
0000
0330
0000
;

//---------------dance-single - ----------------
#NOTEDATA:;
#CHARTNAME:;
#STEPSTYPE:dance-single;
#DESCRIPTION:;
#CHARTSTYLE:;
#DIFFICULTY:Easy;
#METER:9;
#RADARVALUES:0.342256,0.513760,0.351289,0.182670,0.003513,341.000000,291.000000,50.000000,26.000000,0.000000,0.000000,0.000000,0.000000,0.000000,0.342256,0.513760,0.351289,0.182670,0.003513,341.000000,291.000000,50.000000,26.000000,0.000000,0.000000,0.000000,0.000000,0.000000;
#CREDIT:;
#DISPLAYBPM:177.610001;
#NOTES:
0000
0000
0000
0000
,
0000
0000
0000
0000
,
0000
0000
0000
0000
,
0000
0000
0000
0000
,
0000
0000
0000
0000
,
0000
0000
0000
0000
,
0000
0000
0000
0000
,
0000
0000
0000
0000
,
1000
0000
0100
0000
,
2100
3000
0001
1000
,
0001
0000
0100
0000
,
0102
0003
1000
0001
,
1000
0000
0001
0000
,
0100
0010
0100
0010
,
1000
0001
1000
0001
,
0020
0000
0230
0000
,
1300
0000
0000
1000
0000
0000
1000
0000
,
0000
1000
0000
0000
0000
0000
0000
0000
,
0001
0000
0000
0001
0000
0000
0001
0000
,
0000
0001
0000
0000
0000
0000
0000
0000
,
1000
0000
0010
0000
,
0001
0000
0100
0000
,
1000
0001
2002
0000
,
0000
0000
3003
0000
,
0220
0000
0000
0000
,
0000
0330
0110
0000
,
0010
1000
0100
1000
,
0100
0000
0010
0000
0001
0010
0001
0000
,
0100
0010
0100
0001
,
1000
0000
0001
0000
1000
0001
1000
0000
,
0001
0010
0100
1000
,
2002
0000
3003
0000
0001
1000
0100
0000
,
1000
0000
0010
0000
1000
0000
0010
1000
,
0010
0100
0001
0100
,
0102
0003
0010
0100
,
1100
1000
1100
0100
,
1000
0000
0001
0010
0001
0000
1000
0000
,
0100
0010
0002
1003
,
0001
0100
0010
1000
,
2002
3003
1001
0000
,
0101
0000
0011
0000
,
1001
0000
0101
0000
,
0011
0000
0001
0010
,
0100
1000
1001
0000
,
1100
0000
1010
0000
,
1001
0000
1100
0000
,
1010
0000
1000
0010
,
0100
0001
0010
0100
,
0010
0011
0001
1000
,
0100
1100
1000
0010
,
0100
0101
0001
0100
,
0010
1010
2002
3003
,
0001
0100
0020
0030
,
1010
0101
1001
0000
,
1000
0000
0001
0001
0001
0000
0000
1000
,
0000
0001
1000
0000
,
0010
0000
0100
0100
0100
0000
0000
0010
,
0000
0100
0010
0000
,
1000
0000
0010
0010
0010
0000
0000
1000
,
0000
0010
1000
0000
,
0001
0000
0010
0000
0001
0000
0010
0010
,
0000
0002
0000
0000
1003
0000
0000
0010
,
0000
0000
0001
0000
0000
0010
0000
0000
,
1000
0000
1000
0000
0001
0000
0000
0100
,
0000
0000
1000
0000
0000
0100
0000
0000
,
0001
0001
1000
0100
,
0010
1000
0001
0100
,
0010
0001
1000
0010
,
0100
0001
2002
0000
,
3003
1001
0000
1000
,
0010
0100
1000
0200
,
0000
0001
0300
1000
,
0100
0010
0200
0301
,
0001
0010
0100
0001
,
0100
0010
1000
0010
,
0100
1000
0010
0110
,
0101
0000
1010
0000
1001
0000
0001
0100
,
0001
0100
0001
0000
0000
0000
1000
0100
,
1000
0100
1000
0000
0000
0000
0001
0000
,
0100
0010
0001
1000
,
0100
0010
1000
1100
,
0000
0101
0000
0011
,
0000
1010
0000
1001
,
0000
0001
0002
0000
0000
0000
0103
0000
,
0010
0100
0200
0300
,
0001
0010
0100
1000
,
0010
0001
1000
0100
,
0001
0000
0010
0000
0100
0010
0100
0010
,
0000
0100
0000
0000
1100
0000
0000
0000
,
1010
0000
0011
0000
,
0101
0000
0110
1000
,
1100
0001
0011
1000
,
1001
0000
0001
0000
0100
0010
1000
0000
,
0010
0000
0010
0000
0100
0001
1000
0000
,
0001
0000
0001
0000
0010
0100
1000
0000
,
0001
0010
0100
0000
2100
0000
0000
0000
,
0000
0000
0000
0000
0000
0000
0000
0002
0000
0000
0000
0000
0000
0000
0000
0000
,
0000
0000
3003
0000
;

//---------------dance-single - ----------------
#NOTEDATA:;
#CHARTNAME:;
#STEPSTYPE:dance-single;
#DESCRIPTION:;
#CHARTSTYLE:;
#DIFFICULTY:Medium;
#METER:13;
#RADARVALUES:0.572099,0.685013,0.386418,0.456676,0.193209,570.000000,515.000000,55.000000,65.000000,0.000000,0.000000,0.000000,0.000000,0.000000,0.572099,0.685013,0.386418,0.456676,0.193209,570.000000,515.000000,55.000000,65.000000,0.000000,0.000000,0.000000,0.000000,0.000000;
#CREDIT:;
#DISPLAYBPM:177.610001;
#NOTES:
0000
0000
0000
0000
,
0000
0000
0000
0000
,
0000
0000
0000
0000
,
0000
0000
0000
0000
,
0000
0000
0000
0000
,
0000
0000
0000
0000
,
0000
0000
0000
0000
0000
0000
0000
2002
,
0000
3003
0000
1000
0002
2000
0003
3000
,
0001
0100
0001
0100
0000
0001
0010
0002
,
0000
0000
0000
1003
0000
0001
0100
0010
,
1000
0100
1000
0100
0000
1000
0001
2000
,
0000
0000
0000
3001
0000
1000
0100
0010
,
0001
1000
0001
1000
0000
0010
0100
0010
,
1000
0100
0010
0001
0010
0100
1000
0010
,
1010
0000
0000
0101
0000
0000
1001
0000
,
1000
0010
0100
0001
0020
0000
0230
0000
,
1300
0000
0000
1000
0000
0000
1000
0000
0000
0000
0000
0000
0001
0000
0000
0001
,
0000
0001
0000
0000
0102
0000
2003
0000
,
3010
0000
0000
0010
0000
0000
0010
0000
0000
0000
0000
0000
0100
0000
0000
0100
,
0000
0100
0000
0000
0101
0100
0020
0000
,
1030
0100
1000
0200
0000
0310
0001
0020
,
0000
0000
0000
0230
0000
1300
0001
1000
,
0010
0010
0100
0100
0010
0100
0010
0200
,
0000
0000
0300
0000
0001
1000
0001
0000
,
2002
0000
0000
0000
,
0000
0000
3003
0000
0110
0110
0000
0000
,
0010
1000
0100
1000
0100
0010
0001
0000
,
0010
0001
0100
0001
0100
0010
1000
0000
,
0001
0010
0100
0010
0100
1000
0010
0000
,
1000
0010
0100
0010
0100
0001
0010
0000
,
0001
0100
0010
1000
0010
0100
0001
0000
,
1000
0100
0010
0001
0010
0100
1000
0000
,
0001
0100
0010
1000
0100
1000
1100
0000
,
1000
0100
0010
0001
0100
0001
0101
0000
,
0100
0000
0010
0000
1000
0000
0001
0000
1000
0000
0000
1010
0000
0000
0101
0000
,
0021
0230
2300
3001
,
0001
0100
0010
1000
0001
0010
0110
0000
,
1000
0100
0010
0001
1000
0010
0110
0000
,
0001
0100
1000
0100
0001
0010
0100
1000
,
0020
0000
0000
0100
0000
0000
0100
0000
0000
0130
0000
0000
0110
0000
0000
0000
0010
0000
1000
0000
0000
0000
0000
0000
,
0100
0000
1000
0010
0000
0000
0100
0000
0001
0010
0000
0000
,
0100
0000
0010
0001
0000
0000
0100
0000
0100
0010
0000
0010
,
1000
0000
1000
0001
0000
0001
0010
0000
0000
0110
0000
0000
,
1100
0000
0000
0011
0000
0000
1001
0000
0001
0100
0000
0000
,
0001
0000
1000
0010
0000
0000
1000
0000
0001
0010
0000
0000
,
0001
0000
1000
0100
0000
0000
1000
0000
1000
0010
0000
0010
,
0100
0000
0100
0001
0000
0001
0010
0000
0000
0110
0000
0000
,
0011
0000
1100
0000
1000
1000
0010
1000
,
1000
0010
0001
0010
0100
0100
0010
0100
,
0100
1000
0100
0001
0010
0010
0100
0010
,
0010
1000
0010
0001
2000
0000
3020
0000
,
0230
0000
0000
0000
0302
0000
0000
0000
2003
0000
0000
0000
0000
0000
3010
0100
,
0002
2003
3200
0000
,
0320
0000
0032
0000
1003
0010
1000
0010
,
0100
0000
1000
0100
0020
0000
0000
2000
,
3030
0000
1001
0000
0001
0010
0001
0010
,
0100
0000
0001
0100
0020
0000
0000
0002
,
0033
0000
1001
0000
1000
0010
0100
0001
,
1000
0000
0001
0010
0200
0000
0000
0020
,
0330
0000
0110
0000
0001
0010
0100
1000
,
0001
0000
0101
0000
1100
0000
1010
0020
,
0000
0230
0000
0000
0301
0001
0000
0010
,
0010
0000
1000
1000
0000
0010
0001
0200
,
0000
0310
0100
0001
1000
1000
0000
0100
,
0100
0000
0001
0001
0000
0100
1000
0020
,
0000
0130
0010
1000
0001
0001
0010
0010
,
0100
0100
1000
1000
0001
0001
0100
0100
,
0010
0010
1000
1000
0001
0010
0100
0001
,
0100
1000
0100
0010
0002
2003
3020
0200
,
0000
0330
0110
0000
0000
0000
1010
0000
,
0000
1100
0000
0101
,
0000
0011
0000
1001
,
0100
0000
0010
0000
0220
0330
0110
0000
,
0100
0101
0001
0011
,
0100
1100
1000
1010
,
0001
1001
1000
0110
,
1010
0000
0000
0000
0101
0000
0000
0000
1001
0000
0000
0000
1000
0010
1000
0000
,
0010
1000
0010
0000
0100
0000
0000
0000
0001
0000
0000
0000
0010
0001
0010
0000
,
0001
0010
0001
0000
0010
0000
0000
0100
0000
0000
0010
0000
1000
0000
0010
0000
,
0001
0100
1000
0100
0001
0010
0210
0000
,
2300
0000
0000
3002
0000
0000
0203
0000
0000
0310
1000
0010
,
1000
0000
0000
0100
1000
0100
1000
0000
0000
0001
1000
0001
,
1000
0000
0000
0100
1000
0100
1000
0100
0010
0002
0000
0000
,
0000
0103
0010
2000
0000
0000
3010
0100
0001
0100
0000
0000
,
0110
0000
0000
0010
1000
0100
0100
0000
0000
2002
0000
0000
,
0000
0000
3003
0000
0001
0010
0100
1000
,
0001
0010
0100
1000
0020
0000
0031
0010
,
0200
0000
0000
0000
1300
0000
0100
0000
0010
0100
0010
0000
0100
0000
0102
0000
,
0000
2003
0000
3000
1010
0000
0000
0000
,
0011
0000
1100
0000
,
0101
0000
0000
0000
0000
0000
0001
0000
0001
0000
0100
0000
,
1000
0000
1000
0000
0010
0000
0001
0100
0001
0100
0001
1000
,
0100
0000
0100
0000
1000
0010
1000
0000
0001
0000
0010
0000
0100
0000
0010
0000
,
0001
0010
1000
0001
0100
1000
0100
0010
,
0200
2300
3001
0000
0001
1000
0100
0001
,
1000
0010
0001
1000
0020
0000
0000
0000
,
0000
0000
0000
0000
0000
0000
0000
0000
0000
0000
0000
0000
0000
0000
0000
0000
0000
0000
0000
0000
0000
0230
0000
0000
0000
0000
0000
0000
0000
0000
0000
0000
0000
0000
0000
0000
0302
0000
0000
0000
2000
0000
0000
0000
0000
0000
0000
0000
,
0000
0000
3003
0000
;

//---------------dance-single - ----------------
#NOTEDATA:;
#CHARTNAME:;
#STEPSTYPE:dance-single;
#DESCRIPTION:;
#CHARTSTYLE:;
#DIFFICULTY:Hard;
#METER:17;
#RADARVALUES:0.791906,1.061771,0.365340,0.667449,0.751758,789.000000,737.000000,52.000000,95.000000,0.000000,0.000000,0.000000,0.000000,0.000000,0.791906,1.061771,0.365340,0.667449,0.751758,789.000000,737.000000,52.000000,95.000000,0.000000,0.000000,0.000000,0.000000,0.000000;
#CREDIT:;
#NOTES:
0000
0000
0000
0000
,
0000
0000
0000
0000
,
0000
0000
0000
0000
,
0000
0000
0000
0000
,
0000
0000
0000
0000
,
0000
0000
0000
0000
,
0000
0000
0000
0000
0000
0000
0000
2002
,
0000
0000
3003
0000
0000
0000
0001
1000
0002
0003
2000
3000
0002
0003
2000
3000
,
0001
0100
0010
0200
0000
0301
0010
0200
,
0000
0000
1300
0010
1000
0010
0200
0000
0300
0000
1000
0000
0100
0000
0010
0000
,
1000
0100
0010
0200
0000
1300
0010
0200
,
0000
1300
0100
0020
0030
0100
0001
0010
,
0100
0001
0100
0020
0000
0031
0100
0010
,
1000
0001
1000
0001
1000
0001
0010
0000
0001
1000
0001
1000
0001
1000
0100
0000
,
1000
0001
1000
0001
0010
0100
0010
0100
1000
0001
1000
0001
0100
0010
0100
0010
,
0200
0000
0000
0000
0301
0000
0001
0010
0100
0000
1100
0000
1001
0000
0000
0000
,
0101
0000
0000
1100
0000
0000
0202
0000
0303
0000
0000
0000
0011
0000
0000
1010
,
0000
0022
0000
0000
0000
0000
0033
0000
,
1100
0000
0000
0101
0000
0000
2200
0000
3300
0000
0000
0000
1010
0000
0000
0011
,
0000
2020
0000
0000
0000
0000
3030
0000
,
1000
0100
0010
0002
0000
1003
0010
0200
,
0000
0000
0000
1000
0000
0301
0010
0100
,
2000
3000
0020
0030
0200
0300
0002
0003
0020
0030
0200
0300
2000
0000
0002
0000
,
0000
0000
3003
0000
1000
0010
0100
0000
,
0220
0000
0000
0000
,
0000
0000
0030
0000
0301
1000
1001
0000
,
0001
0000
0100
0000
0010
0000
1000
0100
1000
0100
1000
0000
0001
0000
0000
0000
,
1000
0000
0100
0000
0010
0000
0001
0100
0001
0100
0001
0000
1000
0000
0000
0000
,
0010
0000
0100
0000
0001
0000
0010
0100
0010
0100
0010
0000
0001
0000
0000
0000
,
0010
0000
0100
0000
1000
0000
0010
0100
0010
0100
0010
0000
1000
0000
0000
0000
,
0001
0000
0100
0000
0010
0000
1000
0100
1000
0000
0010
0000
0100
0000
0001
0010
,
0001
0000
0100
0000
0010
0000
1000
0001
1000
0000
0001
0000
1001
0000
0000
0000
,
1000
0000
0010
0000
0100
0000
0001
1000
0100
1000
0001
0000
0100
0000
0000
0000
,
0010
0000
1000
0000
0100
0000
0010
0001
0100
0001
0010
0000
0001
0000
0000
0000
,
0010
0000
0100
0000
1000
0000
0010
0100
0001
0000
0000
0011
0000
0000
1010
0000
,
1000
0100
0010
0001
0010
0100
1000
0000
1000
0001
0000
0001
,
0100
0000
1000
0000
0100
0000
0001
0010
0100
0010
0001
0000
1000
0000
0000
0000
,
0100
0000
0001
0000
0100
0000
1000
0010
0100
0010
1000
0000
0001
0000
0000
0000
,
0010
0000
1000
0000
0010
0000
0001
0100
0010
1000
0001
0000
0010
0000
0100
0000
,
2000
0000
0000
3020
0000
0000
0230
0000
0000
0302
0000
0000
0013
0000
0100
0000
1000
0000
0100
0000
0000
0000
0000
0000
,
1000
0100
0010
0100
0000
0000
0001
0100
1000
0100
0000
0000
,
1000
0100
0001
0100
0000
0000
1000
0010
0001
0010
0000
0000
,
0100
0010
0001
0010
0000
0000
2010
0000
0000
3200
0000
0000
,
0320
0000
0000
0032
0000
0000
0013
0100
0010
0001
0000
0000
,
0100
0010
0001
0010
0000
0000
1000
0010
0001
0010
0000
0000
,
0001
0010
1000
0010
0000
0000
1000
0100
0001
0100
0000
0000
,
0010
0100
1000
0100
0000
0000
2100
0000
0000
3020
0000
0000
,
0230
0000
0000
0000
0302
0000
0000
0000
1003
0000
1000
0010
0100
0000
0010
0000
,
1000
0010
0100
0000
1000
0000
0100
0000
0001
0000
0010
0100
0001
0000
0100
0000
,
0010
0100
0001
0000
0100
0000
1000
0000
0010
0000
0001
0010
0100
0000
0010
0000
,
0001
0010
0100
0000
0010
0000
1000
0000
0002
0000
0000
0000
0023
0000
0000
0000
,
0230
0000
0000
0000
0000
0000
0000
0000
2300
0000
0000
0000
0000
0000
0000
0000
0002
0000
0000
0000
3003
0000
0000
0000
0000
0000
0000
0000
0001
0100
0010
0000
,
0210
1000
0002
0003
,
0320
0000
0001
0000
1030
0100
0010
0001
,
0101
0000
0100
0020
1000
0030
0200
0001
,
0300
0000
0020
0000
1030
0100
1000
0000
0001
0000
0100
0000
0010
0000
1000
0000
,
1100
0000
0100
0020
0001
0030
0200
1000
,
0300
0000
0020
0000
0031
0100
0001
0000
1000
0000
0100
0000
0010
0000
0001
0000
,
1000
0010
0100
0001
0100
0010
2000
0000
0000
3001
0010
0100
,
1000
0000
0100
0000
0010
0000
0002
0000
0000
0000
0000
0000
1003
0000
0000
0010
0000
0000
0100
0000
0000
0001
0000
0000
,
0011
0000
1010
0000
0101
0000
1100
2000
,
0000
3002
0000
0000
0103
0120
0030
0100
,
2100
0000
3000
0000
0100
0000
0120
0000
0030
0000
0100
0000
0101
0000
0001
0010
,
0100
0010
0001
1000
0010
0210
0300
0010
,
0012
0000
0003
0000
0010
0000
0210
0000
0300
0000
0010
0000
1010
0000
1000
0100
,
0010
0100
1000
0010
0100
0100
0001
0001
,
1000
0000
1000
0000
0010
0000
0010
0000
0200
0000
0301
1000
0100
0000
1000
0001
,
0100
0010
1000
0001
1000
0000
0001
1000
0100
0010
0100
0010
0001
0100
0010
1000
,
0100
0010
0100
0010
0001
1000
0010
0100
0020
0000
1000
0000
0001
0000
0200
0000
,
0000
0330
0000
0000
0101
0000
1000
0000
0100
0000
0010
0000
0011
0000
1000
0000
,
0010
0100
1010
0001
0010
0100
1100
0001
,
0100
0010
0101
1000
0100
0010
0012
0000
,
2003
0000
0000
0000
3020
0000
0000
0000
0130
0001
0100
0001
1000
0000
0001
0000
,
0010
0100
1000
0000
0010
0000
0100
0000
0001
1000
0100
0010
0100
0000
1000
0000
,
0010
0100
0001
0000
1000
0000
0100
0000
0010
0100
0010
0001
1000
0000
0010
0000
,
0100
0001
0010
0000
0100
0000
1000
0000
0010
0100
0001
1000
0100
0000
1000
0000
,
0001
0010
0100
0000
1000
0000
0010
0000
0100
0001
0100
0001
1000
0100
0010
0001
,
1000
0100
0010
0001
0100
0000
0100
0000
0010
0000
0010
0000
1000
0001
0100
0010
,
1000
0001
0100
0010
1000
0000
0000
1100
0000
0000
0101
0000
0001
0000
0001
0000
,
0010
0000
0010
0000
0100
0000
0100
0000
1000
0000
1000
0010
0100
0001
0100
0001
,
1000
0000
0000
0010
0000
0000
1000
0000
0000
0010
0000
0000
0100
0000
0000
0001
0000
0000
0010
0000
0000
0100
0000
0000
2000
0000
0000
0000
0000
0000
0000
0000
0000
0000
0000
0000
3001
0000
0000
0000
0100
0000
0000
0000
0010
0000
0000
0000
,
0100
1000
0100
0001
0100
0010
1000
0010
0001
0010
0100
0010
,
1000
0100
0010
1000
0001
0100
0010
0001
0100
2000
0000
0000
,
0000
3001
0010
2000
0000
0000
3100
0010
1000
0010
0001
1000
,
0100
0000
0001
0000
0100
0000
0010
0000
0001
0000
1000
0000
2002
0000
0000
3003
0000
0000
0220
0000
0000
0000
0000
0000
,
0000
0000
0000
0000
0330
0000
0000
0000
0010
1000
0100
1000
0001
0010
0001
0100
,
0010
1000
0010
0100
0001
0100
0010
1000
0100
0010
0001
1000
0001
0000
0100
0000
,
1000
0100
1000
0100
0010
0000
0100
0000
0001
0010
0100
0000
0010
0000
0022
0000
,
0003
0000
2000
0000
3000
0000
0000
0000
0230
0000
0000
0000
1300
0010
0100
0001
,
2000
0000
3000
0000
0001
0100
0010
1000
0002
0000
0003
0000
1000
0100
0010
0001
,
2000
0000
0000
0000
0000
0000
3000
0000
0000
0000
0000
0000
0001
0000
0000
0010
0000
0000
0100
0000
0000
1000
0000
0000
0001
0000
0000
0000
0000
0000
0000
0000
0101
0000
0000
0000
0000
0000
0000
0000
1100
0000
0000
0000
0000
0000
0000
0000
,
1010
0000
0011
0000
0001
0001
0100
1000
0100
0010
0001
0010
,
1000
0000
1000
0000
0100
0010
0100
0010
0001
1000
0010
0100
0001
0000
0010
0000
,
0100
1000
0100
0001
0100
0000
1000
0000
0010
0001
0010
1000
0010
0000
0100
0000
,
0001
0010
0100
2000
0002
3000
0003
0000
0100
0010
0100
1000
0100
0001
0100
1000
,
0100
0010
0100
0001
0010
0100
1000
0001
2000
0000
0000
0000
0000
0000
0000
0000
,
0000
0000
0000
0000
0000
0000
0000
0000
0000
0000
0000
0000
0000
0000
0000
0000
0000
0000
0000
0000
0000
0020
0000
0000
0000
0000
0000
3000
0000
0000
0000
0000
0000
0000
0000
0000
0100
0000
0000
0000
0200
0000
0000
0000
0000
0000
0000
0000
,
0000
0000
0330
0000
;

//---------------dance-double - ----------------
#NOTEDATA:;
#CHARTNAME:;
#STEPSTYPE:dance-double;
#DESCRIPTION:;
#CHARTSTYLE:;
#DIFFICULTY:Hard;
#METER:17;
#RADARVALUES:0.766813,1.060409,0.288057,0.632320,0.716629,764.000000,723.000000,41.000000,90.000000,0.000000,0.000000,0.000000,0.000000,0.000000,0.766813,1.060409,0.288057,0.632320,0.716629,764.000000,723.000000,41.000000,90.000000,0.000000,0.000000,0.000000,0.000000,0.000000;
#CREDIT:;
#NOTES:
// measure 0
00000000
00000000
00000000
00000000
,  // measure 1
00000000
00000000
00000000
00000000
,  // measure 2
00000000
00000000
00000000
00000000
,  // measure 3
00000000
00000000
00000000
00000000
,  // measure 4
00000000
00000000
00000000
00000000
,  // measure 5
00000000
00000000
00000000
00000000
,  // measure 6
00000000
00000000
00000000
00000000
00000000
00000000
00000000
00022000
,  // measure 7
00000000
00000000
00033000
00000000
00000000
00000000
00010000
00001000
00020000
00030000
00002000
00003000
00020000
00030000
00002000
00003000
,  // measure 8
01000000
00010000
00100000
02000000
00000000
03100000
00010000
02000000
,  // measure 9
00000000
00000000
03100000
00010000
00100000
00010000
00002000
00000000
00003000
00000000
00010000
00000000
00001000
00000000
00010000
00000000
,  // measure 10
00000010
00001000
00000100
00000020
00000000
00000130
00001000
00000020
,  // measure 11
00000000
00000030
00000100
00000000
00001000
00000000
00020000
00000000
00030000
00000000
00001000
00000000
00010000
00000000
00100000
00000000
,  // measure 12
10000000
01000000
00100000
00020000
00000000
01030000
00100000
00010000
,  // measure 13
00001000
00010000
00001000
00010000
00001000
00010000
00000010
00000000
00010000
00001000
00010000
00001000
00010000
00001000
00100000
00000000
,  // measure 14
00001000
00010000
00001000
00010000
00000100
00001000
00000100
00001000
00000001
00000100
00000001
00000100
00000010
00001000
00000100
00000010
,  // measure 15
00000002
00000000
00000000
00000000
00000103
00000000
00000100
00001000
00020000
00000000
00001000
00000000
00031000
00000000
00000000
00000000
,  // measure 16
00011000
00000000
00000000
01001000
00000000
00000000
00020200
00000000
00030300
00000000
00000000
00000000
00011000
00000000
00000000
00010010
,  // measure 17
00000000
00202000
00000000
00000000
00000000
00000000
00303000
00000000
,  // measure 18
00011000
00000000
00000000
00101000
00000000
00000000
00020020
00000000
00030030
00000000
00000000
00000000
00011000
00000000
00000000
00010100
,  // measure 19
00000000
02002000
00000000
00000000
00000000
00000000
03003000
00000000
,  // measure 20
00001000
00010000
00100000
20000000
00000000
31000000
00010000
00002000
,  // measure 21
00000000
00000000
00000000
00000010
00000000
00013000
00001000
00000100
,  // measure 22
00000002
00000003
00000020
00000030
00000200
00000300
00002000
00003000
00020000
00030000
00200000
00300000
02000000
03000000
20000000
00000000
,  // measure 23
00000000
00000000
30000000
00000000
00100000
00010000
00001000
00000000
,  // measure 24
00022000
00000000
00000000
00000000
,  // measure 25
00000000
00000000
00030000
00000000
00010000
00010000
00013000
00000000
,  // measure 26
00010000
00000000
00001000
00000000
00000010
00000000
00000001
00000100
00000010
00000000
00001000
00000000
00000100
00000000
00000000
00000000
,  // measure 27
00000010
00000000
00001000
00000000
00010000
00000000
01000000
10000000
00100000
00000000
01000000
00000000
00010000
00000000
00000000
00000000
,  // measure 28
00100000
00000000
01000000
00000000
10000000
00000000
00100000
00010000
00001000
00000000
00000010
00000000
00000001
00000000
00000000
00000000
,  // measure 29
00001000
00000000
00000010
00000000
00000100
00000000
00001000
00010000
00100000
00000000
10000000
00000000
00010000
00000000
00000000
00000000
,  // measure 30
00100000
00000000
01000000
00000000
10000000
00000000
00100000
00010000
00001000
00000000
01000000
00000000
00010000
00000000
00100000
00001000
,  // measure 31
00010000
00000000
00000010
00000000
00001000
00000000
00000100
00000010
00000001
00000000
00001000
00000000
00001001
00000000
00000000
00000000
,  // measure 32
00000001
00000000
00000100
00000000
00000010
00000000
00001000
00000100
00001000
00000100
00000010
00000000
00001000
00000000
00000000
00000000
,  // measure 33
00010000
00000000
01000000
00000000
10000000
00000000
00100000
01000000
00100000
01000000
00010000
00000000
00100000
00000000
00000000
00000000
,  // measure 34
01000000
00000000
00010000
00000000
00001000
00000000
00000010
00000001
00000100
00000000
00000000
00000110
00000000
00000000
00001001
00000000
,  // measure 35
00000001
00000100
00000010
00001000
00000100
00010000
00001000
00000000
00001000
01000000
00000000
01000000
,  // measure 36
00010000
00000000
00100000
00000000
01000000
00000000
10000000
00100000
01000000
00100000
10000000
00000000
00010000
00000000
00000000
00000000
,  // measure 37
00100000
00000000
00001000
00000000
00010000
00000000
00000100
00001000
00000010
00001000
00000100
00000000
00000010
00000000
00000000
00000000
,  // measure 38
00000001
00000000
00000100
00000000
00001000
00000000
00010000
00001000
00100000
00001000
00010000
00000000
01000000
00000000
10000000
00000000
,  // measure 39
00200000
00000000
00000000
00320000
00000000
00000000
00032000
00000000
00000000
00003200
00000000
00000000
00000301
00000000
00000000
00000000
00000001
00000000
00000010
00000000
00000000
00000000
00000010
00000000
,  // measure 40
00000100
00000000
00000100
00010000
00000000
00010000
00001000
00000000
00001000
01000000
00000000
01000000
,  // measure 41
00010000
00000000
00010000
00100000
00000000
00100000
01000000
00000000
01000000
10000000
00000000
10000000
,  // measure 42
00100000
00000000
00100000
00010000
00000000
00000000
00012000
00000000
00000000
01000000
00000000
00000000
,  // measure 43
00023000
00000000
00000000
00000010
00000000
00000000
00031000
00000000
00001000
00100000
00000000
00100000
,  // measure 44
01000000
00000000
01000000
10000000
00000000
10000000
00100000
00000000
00100000
00010000
00000000
00010000
,  // measure 45
00001000
00000000
00001000
00000010
00000000
00000010
00000001
00000000
00000001
00001000
00000000
00001000
,  // measure 46
00000010
00000000
00000010
00010000
00000000
00000000
00012000
00000000
00000000
00100000
00000000
00000000
,  // measure 47
00023000
00000000
00000000
00000000
00000100
00000000
00000000
00000000
00031000
00000000
00001000
00100000
00010000
00000000
01000000
00000000
,  // measure 48
00001000
00100000
00010000
00000000
01000000
00000000
00100000
00000000
10000000
00000000
00010000
00100000
01000000
00000000
10000000
00000000
,  // measure 49
00010000
00100000
01000000
00000000
10000000
00000000
00100000
00000000
00010000
00000000
00001000
00000010
00000100
00000000
00010000
00000000
,  // measure 50
00001000
00000010
00000100
00000000
00010000
00000000
00001000
00000000
00000200
00000000
00000000
00000000
00000302
00000000
00000000
00000000
,  // measure 51
00000023
00000000
00000000
00000000
00000000
00000000
00000000
00000000
00002030
00000000
00000000
00000000
00000000
00000000
00000000
00000000
00020000
00000000
00000000
00000000
00033000
00000000
00000000
00000000
00000000
00000000
00000000
00000000
00001000
00010000
01000000
00000000
,  // measure 52
01200000
10000000
00020000
00030000
,  // measure 53
00302000
00000000
00010000
00000000
00003010
00000001
00000100
00000010
,  // measure 54
00001010
00000000
00001000
00000200
00000010
00000300
00002000
00000001
,  // measure 55
00003000
00000000
00000200
00000000
00000310
00000001
00000010
00000000
00000100
00000000
00001000
00000000
00010000
00000000
00100000
00000000
,  // measure 56
00110000
00000000
00010000
02000000
00100000
03000000
00020000
10000000
,  // measure 57
00030000
00000000
02000000
00000000
03100000
10000000
00100000
00000000
01000000
00000000
00010000
00000000
00001000
00000000
00000010
00000000
,  // measure 58
00000100
00000001
00000010
00000100
00001000
00000100
00020000
00000000
00000000
00031000
01000000
00010000
,  // measure 59
01000000
00000000
00100000
00000000
10000000
00000000
02000000
00000000
00000000
00000000
00000000
00000000
03100000
00000000
00000000
00010000
00000000
00000000
00001000
00000000
00000000
00000010
00000000
00000000
,  // measure 60
00010010
00000000
00101000
00000000
00010100
00000000
01001000
00002000
,  // measure 61
00000000
00023000
00000000
00000000
00030100
00000020
00000000
00000031
,  // measure 62
00000200
00000000
00000000
00000000
00001300
00000000
00020000
00000000
00000000
00000000
00130000
00000000
10100000
00000000
10000000
01000000
,  // measure 63
00100000
01000000
10000000
00100000
00010000
00002000
00000000
00103000
,  // measure 64
02000000
00000000
00000000
00000000
13000000
00000000
00200000
00000000
00000000
00000000
00310000
00000000
00011000
00000000
00001000
00000100
,  // measure 65
00000010
00001000
00000001
00000100
00001000
00001000
00001000
00001000
,  // measure 66
00010000
00000000
00010000
00000000
00010000
00000000
00010000
00000000
02000000
00000000
13000000
00100000
01000000
00000000
00100000
00010000
,  // measure 67
00001000
00000000
00010000
00001000
00000100
00000000
00000010
00000100
00000001
00000010
00000001
00000010
00000100
00001000
00000100
00010000
,  // measure 68
00001000
01000000
00010000
01000000
00100000
10000000
01000000
00100000
00020000
00000000
02030000
00000000
03002000
00000000
00020000
00000000
,  // measure 69
00000000
00033000
00000000
00000000
00011000
00000000
00010000
00000000
01000000
00000000
10000000
00000000
10100000
00000000
00100000
00000000
,  // measure 70
00010000
00001000
00011000
00010000
00001000
00000010
00000011
00000001
,  // measure 71
00000100
00001000
00011000
00010000
01000000
10000000
10020000
00000000
,  // measure 72
00230000
00000000
00000000
00000000
00302000
00000000
00000000
00000000
00013000
00000100
00010000
00000100
00000010
00000000
00000001
00000000
,  // measure 73
00000100
00000010
00001000
00000000
00000001
00000000
00000010
00000000
00000100
00010000
00001000
01000000
00010000
00000000
00100000
00000000
,  // measure 74
01000000
10000000
00100000
00000000
00010000
00000000
00001000
00000000
00100000
00010000
01000000
00001000
00010000
00000000
00000100
00000000
,  // measure 75
00001000
00000010
00000100
00000000
00000001
00000000
00001000
00000000
00000100
00000010
00000001
00001000
00000100
00000000
00010000
00000000
,  // measure 76
00001000
00100000
00010000
00000000
01000000
00000000
00100000
00000000
10000000
00010000
10000000
00010000
01000000
00100000
00010000
00001000
,  // measure 77
01000000
00100000
00010000
00001000
00010000
00000000
00010000
00000000
00001000
00000000
00001000
00000000
00010000
00001000
00000010
00000100
,  // measure 78
00010000
00001000
00000010
00000100
00000010
00000000
00000000
00000011
00000000
00000000
00001100
00000000
00001000
00000000
00001000
00000000
,  // measure 79
00000010
00000000
00000010
00000000
00010000
00000000
00010000
00000000
00100000
00000000
00100000
10000000
01000000
00100000
01000000
00100000
,  // measure 80
00001000
00000000
00000000
00010000
00000000
00000000
00001000
00000000
00000000
00010000
00000000
00000000
00000100
00000000
00000000
00000010
00000000
00000000
00000100
00000000
00000000
00000010
00000000
00000000
00000002
00000000
00000000
00000000
00000000
00000000
00000000
00000000
00000000
00000000
00000000
00000000
00001003
00000000
00000000
00000000
00000010
00000000
00000000
00000000
00010000
00000000
00000000
00000000
,  // measure 81
00001000
00100000
00010000
01000000
00001000
00010000
00000100
00001000
00000010
00010000
00100000
10000000
,  // measure 82
01000000
00100000
00010000
01000000
00001000
00000100
00000001
00000010
00000100
00002000
00000000
00000000
,  // measure 83
00000000
00013000
00100000
02000000
00000000
00000000
13000000
00100000
00010000
00001000
00010000
00001000
,  // measure 84
00000100
00000001
00000010
00001000
00010000
00001000
00020000
00000000
00000000
00002000
00000000
00000000
,  // measure 85
00000000
00000000
00000000
00000000
00033000
00000000
00000000
00000000
00001000
00100000
00010000
00000000
01000000
00100000
00010000
00000000
,  // measure 86
00001000
00000100
00000010
00000000
00010000
00000100
00001000
00000001
00001000
00000100
00000010
00000001
00000100
00000000
00001000
00000000
,  // measure 87
00010000
00001000
00010000
00001000
00000010
00000000
00001000
00000000
00010000
00001000
00000100
00000000
00001000
00000000
00021000
00000000
,  // measure 88
00000000
00000000
00000000
02030000
00000000
00000000
00000000
00000000
00000000
00000000
00000000
00000000
23000000
00000000
00000000
00000000
00000000
00000000
30100000
00000000
00010000
00000000
00001000
00000000
,  // measure 89
00000200
00000300
00000000
00000100
00001000
00010000
02000000
03000000
00000000
01000000
00010000
00001000
,  // measure 90
00000020
00000030
00000000
00000010
00001000
00010000
00100000
00000000
01100000
00000000
01010000
00000000
,  // measure 91
00101000
00000000
00010010
00000000
00000010
00001000
00000100
00000001
00000100
00000010
00000001
00000100
,  // measure 92
00001000
00000000
00001000
00000000
00010000
00001000
00010000
00001000
00100000
00010000
00100000
01000000
10000000
00000000
00100000
00000000
,  // measure 93
00010000
00001000
00010000
00000010
00001000
00000000
00000100
00000000
00010000
00001000
00010000
01000000
00100000
00000000
00010000
00000000
,  // measure 94
01000000
00001000
00010000
00000100
00000020
00000000
00000030
00000000
00000001
00000100
00000001
00001000
00000100
00000010
00000100
00010000
,  // measure 95
00001000
01000000
00100000
00010000
00100000
10000000
01000000
00100000
00020000
00000000
00000000
00000000
00000000
00000000
00000000
00000000
,  // measure 96
00000000
00000000
00000000
00000000
00000000
00000000
00000000
00000000
00000000
00000000
00000000
00000000
00000000
00000000
00000000
00000000
00000000
00000000
00000000
00000000
00000000
00032000
00000000
00000000
00000000
00000000
00000000
00000000
00000000
00000000
00000000
00000000
00000000
00000000
00000000
00000000
00000001
00000000
00000000
00000000
00000002
00000000
00000000
00000000
00000000
00000000
00000000
00000000
,  // measure 97
00000000
00000000
00000000
00003003
00000000
00000000
00000000
00000000
;

//---------------dance-double - ----------------
#NOTEDATA:;
#CHARTNAME:;
#STEPSTYPE:dance-double;
#DESCRIPTION:;
#CHARTSTYLE:;
#DIFFICULTY:Easy;
#METER:9;
#RADARVALUES:0.327201,0.445259,0.302108,0.189696,0.003513,326.000000,283.000000,43.000000,27.000000,0.000000,0.000000,0.000000,0.000000,0.000000,0.327201,0.445259,0.302108,0.189696,0.003513,326.000000,283.000000,43.000000,27.000000,0.000000,0.000000,0.000000,0.000000,0.000000;
#CREDIT:;
#NOTES:
00000000
00000000
00000000
00000000
,
00000000
00000000
00000000
00000000
,
00000000
00000000
00000000
00000000
,
00000000
00000000
00000000
00000000
,
00000000
00000000
00000000
00000000
,
00000000
00000000
00000000
00000000
,
00000000
00000000
00000000
00000000
,
00000000
00000000
00000000
00000000
,
00001000
00000000
00010000
00000000
,
00002000
00003000
01000000
00001000
,
00010000
00000000
00001000
00000000
,
00020000
00030000
00000100
00010000
,
00001000
00000000
00010000
00000000
,
00001000
00010000
00000010
00010000
,
00001000
00100000
00001000
00010000
,
00022000
00000000
00030000
00000000
,
01003000
00000000
00000000
01000000
00000000
00000000
00010000
00000000
,
00000000
00100000
00000000
00000000
00000000
00000000
00000000
00000000
,
00000010
00000000
00000000
00000010
00000000
00000000
00001000
00000000
,
00000000
00000100
00000000
00000000
00000000
00000000
00000000
00000000
,
01000000
00000000
00001000
00000000
,
00010000
00000000
00000010
00000000
,
00010000
00001000
00022000
00000000
,
00000000
00000000
00033000
00000000
,
00022000
00000000
00000000
00000000
,
00000000
00033000
00011000
00000000
,
00001000
00010000
00001000
00010000
,
00000100
00001000
00000100
00000010
,
00000001
00000100
00001000
00010000
,
00100000
10000000
01000000
00100000
,
00010000
01000000
00001000
00010000
,
00022000
00000000
00033000
00000000
00001000
00010000
00001000
00000000
,
00100000
00010000
10000000
00100000
,
01000000
00010000
00100000
00001000
,
00022000
00033000
00010000
00000100
,
00001100
00000010
00000011
00000001
,
00000100
00000000
00001000
00010000
00001000
00000000
00010000
00000000
,
01000000
10000000
00200000
01300000
,
01000000
00010000
00100000
00001000
,
00022000
00033000
00011000
00000000
,
01001000
00000000
00101000
00000000
,
00011000
00000000
00010010
00000000
,
00010100
00000000
00000100
00001000
,
00000010
00010000
00011000
00000000
,
00010010
00000000
00010100
00000000
,
00011000
00000000
01001000
00000000
,
00101000
00000000
00100000
00010000
,
01000000
00001000
00010000
00100000
,
10000000
10010000
00010000
01000000
,
00001000
00011000
00010000
00000010
,
00001000
00001001
00000001
00000100
,
00001000
00010000
00022000
00033000
,
00001000
00010000
02000000
03000000
,
10000000
00010000
10010000
00000000
,
10000000
00000000
00100000
01000000
00100000
00000000
00000000
01000000
,
00000000
00100000
01000000
00000000
,
00010000
00000000
00100000
00001000
00100000
00000000
00000000
00001000
,
00000000
00100000
00001000
00000000
,
00010000
00000000
00000010
00001000
00000010
00000000
00000000
00001000
,
00000000
00000010
00000100
00000000
,
00000001
00000000
00000010
00000000
00000100
00000000
00001000
00001000
,
00000000
00000020
00000000
00000000
00010030
00000000
00000000
00001000
,
00000000
00000000
00010000
00000000
00000000
00001000
00000000
00000000
,
00010000
00000000
00010000
00000000
00001000
00000000
00000000
00010000
,
00000000
00000000
00001000
00000000
00000000
00010000
00000000
00000000
,
00001000
00001000
00010000
00100000
,
10000000
01000000
00100000
00010000
,
01000000
00100000
00010000
00001000
,
00000100
00000001
00002002
00000000
,
00003003
00001001
00000000
00001000
,
00000010
00010000
00001000
00000200
,
00000000
00000010
00000300
00001000
,
00010000
00100000
20000000
30010000
,
00010000
00100000
01000000
00010000
,
00001000
00000010
00000100
00001000
,
00000010
00010000
00001000
00011000
,
00010000
00000000
00011000
00000000
00001000
00000000
01000000
00010000
,
01000000
00000000
00001000
00000000
00000000
00000000
00010000
00001000
,
00010000
00000010
00000000
00001000
,
00000100
00000010
00000001
00000100
,
00001000
00010000
01000000
11000000
,
00000000
10010000
00000000
01010000
,
00000000
01001000
00000000
00011000
,
00000000
00010000
00002000
00000000
00000000
00000000
00103000
00000000
,
00001000
00000010
00000020
00000030
,
00000001
00000100
00001000
00000100
,
00010000
01000000
00100000
00010000
,
00100000
00000000
00001000
00000000
00000010
00000100
00000010
00000100
,
00000000
00000010
00000000
00000000
00001010
00000000
00000000
00000000
,
00001100
00000000
00010100
00000000
,
00011000
00000000
01001000
01000000
,
01010000
00010000
00110000
00100000
,
00101000
00001000
00010000
01000000
,
10000000
00000000
00100000
00000000
00010000
00001000
00010000
00000000
,
00001000
00000100
00000001
00000010
,
00001000
00010000
00001000
00000000
00020000
00000000
00000000
00000000
,
00000000
00000000
00000000
00000000
00000000
00000000
00000000
00002000
00000000
00000000
00000000
00000000
00000000
00000000
00000000
00000000
,
00000000
00000000
00033000
00000000
;

//---------------dance-double - ----------------
#NOTEDATA:;
#CHARTNAME:;
#STEPSTYPE:dance-double;
#DESCRIPTION:;
#CHARTSTYLE:;
#DIFFICULTY:Medium;
#METER:13;
#RADARVALUES:0.559051,0.685013,0.358315,0.470727,0.186183,557.000000,506.000000,51.000000,67.000000,0.000000,0.000000,0.000000,0.000000,0.000000,0.559051,0.685013,0.358315,0.470727,0.186183,557.000000,506.000000,51.000000,67.000000,0.000000,0.000000,0.000000,0.000000,0.000000;
#CREDIT:;
#NOTES:
// measure 0
00000000
00000000
00000000
00000000
,  // measure 1
00000000
00000000
00000000
00000000
,  // measure 2
00000000
00000000
00000000
00000000
,  // measure 3
00000000
00000000
00000000
00000000
,  // measure 4
00000000
00000000
00000000
00000000
,  // measure 5
00000000
00000000
00000000
00000000
,  // measure 6
00000000
00000000
00000000
00000000
00000000
00000000
00000000
00022000
,  // measure 7
00000000
00033000
00000000
00001000
00020000
00002000
00030000
00003000
,  // measure 8
01000000
00010000
01000000
00010000
00000000
00100000
00010000
02000000
,  // measure 9
00000000
00000000
00000000
03001000
00000000
01000000
00001000
00010000
,  // measure 10
00000100
00001000
00000100
00001000
00000000
00000010
00001000
00000200
,  // measure 11
00000000
00000000
00000000
00010300
00000000
00000100
00010000
00001000
,  // measure 12
00100000
00010000
01000000
00001000
00000000
00010000
00000010
00001000
,  // measure 13
00000100
00000010
00000001
00001000
00000100
00000010
00000001
00000100
,  // measure 14
00000110
00000000
00000000
00010010
00000000
00000000
00011000
00000000
,  // measure 15
00001000
00100000
00010000
10000000
00200000
00000000
02300000
00000000
,  // measure 16
03001000
00000000
00000000
00001000
00000000
00000000
00001000
00000000
00000000
00000000
00000000
00000000
00010000
00000000
00000000
00010000
,  // measure 17
00000000
00010000
00000000
00000000
00010010
00000000
01001000
00000000
,  // measure 18
00001000
00000000
00000000
00010000
00000000
00000000
00001000
00000000
00000000
00000000
00000000
00000000
00010000
00000000
00000000
00001000
,  // measure 19
00000000
00010000
00000000
00000000
00011000
00001000
00200000
00000000
,  // measure 20
00310000
01000000
00100000
20000000
00000000
31000000
00100000
00002000
,  // measure 21
00000000
00000000
00000000
00023000
00000000
00030100
00000010
00000001
,  // measure 22
00000100
00000100
00001000
00001000
00010000
00001000
00010000
00022000
,  // measure 23
00000000
00000000
00033000
00000000
00010000
01000000
10000000
00000000
,  // measure 24
20020000
00000000
00000000
00000000
,  // measure 25
00000000
00000000
30030000
00000000
01100000
01100000
00000000
00000000
,  // measure 26
00100000
10000000
01000000
00000000
01000000
00100000
00010000
00000000
,  // measure 27
00100000
00010000
01000000
00000000
01000000
00001000
00010000
00000000
,  // measure 28
00000100
00001000
00000001
00000000
00000001
00000100
00000010
00000000
,  // measure 29
00000010
00001000
00000100
00000000
00000100
00000010
00001000
00000000
,  // measure 30
00010000
01000000
00100000
00000000
00100000
00010000
10000000
00000000
,  // measure 31
00100000
00010000
00001000
00000000
00001000
00000100
00000001
00000000
,  // measure 32
00001000
00000010
00000100
00000001
00000010
00000100
00001000
00000000
,  // measure 33
00000010
00010000
00001000
00100000
00010000
10000000
01000000
00000000
,  // measure 34
00100000
00000000
00010000
00000000
01000000
00000000
00001000
00000000
00010000
00000000
00000000
00001000
00000000
00000000
00011000
00000000
,  // measure 35
00020010
00032000
00203000
01300000
,  // measure 36
01000000
00010000
00001000
00000010
00000001
00001000
00000100
00000000
,  // measure 37
00000100
00000010
00000001
00000100
00001000
00010000
00100000
00000000
,  // measure 38
00100000
10000000
01000000
00100000
01000000
00010000
00001000
00000010
,  // measure 39
00000002
00000000
00000000
00000203
00000000
00000000
00002300
00000000
00000000
00013000
00000000
00000000
00011000
00000000
00000000
00000000
00010000
00000000
00000100
00000000
00000000
00000000
00000000
00000000
,  // measure 40
00001000
00000000
00000010
00010000
00000000
00000000
00001000
00000000
00010000
00000100
00000000
00000000
,  // measure 41
00001000
00000000
00000010
00010000
00000000
00000000
00001000
00000000
00001000
00010000
00000000
00010000
,  // measure 42
01000000
00000000
01000000
10000000
00000000
10000000
00100000
00000000
00000000
01100000
00000000
00000000
,  // measure 43
01010000
00000000
00000000
00110000
00000000
00000000
00101000
00000000
00001000
01000000
00000000
00000000
,  // measure 44
00010000
00000000
00100000
00001000
00000000
00000000
00010000
00000000
00001000
01000000
00000000
00000000
,  // measure 45
00010000
00000000
00100000
00001000
00000000
00000000
00010000
00000000
00010000
00001000
00000000
00001000
,  // measure 46
00000100
00000000
00000100
00000001
00000000
00000001
00000010
00000000
00000000
00000110
00000000
00000000
,  // measure 47
00001100
00000000
00001010
00000000
00000010
00000010
00010000
00000010
,  // measure 48
00000010
00001000
00000001
00000100
00001000
00001000
01000000
00001000
,  // measure 49
00001000
00010000
01000000
10000000
00100000
00100000
00010000
00100000
,  // measure 50
00100000
01000000
00100000
00010000
00002000
00000000
00003200
00000000
,  // measure 51
00000302
00000000
00000000
00000000
00000023
00000000
00000000
00000000
00002030
00000000
00000000
00000000
00000000
00000000
00013000
01000000
,  // measure 52
20000000
30200000
02300000
00000000
,  // measure 53
03002000
00000000
00023000
00000000
00030010
00001000
00000100
00000010
,  // measure 54
00000100
00000000
00000001
00000100
00002000
00000000
00000000
00003020
,  // measure 55
00000000
00000000
00010030
00000000
00010000
00001000
00100000
01000000
,  // measure 56
00100000
00000000
00010000
00100000
02000000
00000000
00000000
23000000
,  // measure 57
00000000
00000000
30100000
00000000
00100000
00010000
00001000
00000010
,  // measure 58
00001000
00000000
00010000
00001000
00000020
00000000
00000000
00000032
,  // measure 59
00000000
00000000
00001003
00000000
00001000
00000010
00010000
00100000
,  // measure 60
01000000
00000000
01010000
00000000
00110000
00000000
00101000
00002000
,  // measure 61
00000000
00023000
00000000
00000000
00030010
00000010
00000000
00001000
,  // measure 62
00001000
00000000
00000100
00000100
00000000
00000010
00000001
00000200
,  // measure 63
00000000
00001300
00010000
00001000
00100000
00100000
00000000
00010000
,  // measure 64
00010000
00000000
01000000
01000000
00000000
00100000
10000000
02000000
,  // measure 65
00000000
03010000
00001000
00010000
00000010
00000010
00001000
00001000
,  // measure 66
00000100
00000100
00000010
00000010
00001000
00001000
00010000
00010000
,  // measure 67
01000000
01000000
00100000
00100000
00010000
10000000
00100000
01000000
,  // measure 68
00001000
00010000
00000100
00000010
00000002
00000203
00002300
00020000
,  // measure 69
00000000
00033000
00011000
00000000
00000000
00000000
00010010
00000000
,  // measure 70
00000000
00101000
00000000
00010100
,  // measure 71
00000000
01001000
00000000
00021000
,  // measure 72
00030200
00000000
00002300
00000000
00000002
00003003
00001001
00000000
,  // measure 73
00000100
00000110
00000010
00010010
,  // measure 74
00010000
00011000
00001000
00101000
,  // measure 75
00100000
01100000
10000000
10010000
,  // measure 76
00110000
00000000
00101000
00000000
00011000
00000000
00001000
00010000
,  // measure 77
00000100
00001000
00000100
00000000
00000010
00000000
00000000
00000000
00000001
00000000
00000000
00000000
00000100
00000000
00001000
00000000
,  // measure 78
00010000
00001000
00010000
00000000
01000000
00000000
00000000
01000000
00000000
00000000
10000000
00000000
00100000
00000000
00010000
00000000
,  // measure 79
00001000
00010000
00001000
00000100
00000001
00000010
00000210
00000000
,  // measure 80
00020300
00000000
00000000
00032000
00000000
00000000
02003000
00000000
00000000
03100000
10000000
00100000
,  // measure 81
10000000
00000000
00000000
01000000
10000000
01000000
10000000
00000000
00000000
00010000
10000000
00010000
,  // measure 82
10000000
00000000
00000000
01000000
10000000
01000000
10000000
01000000
00100000
00020000
00000000
00000000
,  // measure 83
00000000
01030000
00001000
00020000
00000000
00000000
00030100
00001000
00000100
00000010
00000000
00000000
,  // measure 84
00000011
00000000
00000000
00000001
00000100
00001000
00010000
00000000
00000000
00022000
00000000
00000000
,  // measure 85
00000000
00000000
00033000
00000000
00001000
00100000
00010000
01000000
,  // measure 86
00001000
00010000
00100000
01000000
00020000
00000000
10030000
01000000
,  // measure 87
00020000
00000000
00000000
00000000
00031000
00000000
00010000
00000000
00000100
00001000
00000100
00000000
00000010
00000000
00000012
00000000
,  // measure 88
00000000
00002003
00000000
00003000
00001010
00000000
00000000
00000000
,  // measure 89
00010010
00000000
00101000
00000000
,  // measure 90
00110000
00000000
00000000
00000000
00000000
00000000
10010000
00000000
10000000
00000000
01000000
00000000
,  // measure 91
00010000
00000000
00001000
00000000
00000010
00000000
00000001
00000100
00000001
00000100
00000001
00000100
,  // measure 92
00000001
00000000
00000001
00000000
00001000
00000100
00001000
00000000
00000010
00000000
00000100
00000000
00001000
00000000
00010000
00000000
,  // measure 93
00100000
01000000
00010000
00100000
01000000
10000000
00100000
00010000
,  // measure 94
00022000
00033000
00011000
00000000
00000100
00000010
00000001
00000100
,  // measure 95
00001000
01000000
00010000
00100000
02000000
00000000
00000000
00000000
,  // measure 96
00000000
00000000
00000000
00000000
00000000
00000000
00000000
00000000
00000000
00000000
00000000
00000000
00000000
00000000
00000000
00000000
00000000
00000000
00000000
00000000
00000000
03020000
00000000
00000000
00000000
00000000
00000000
00000000
00000000
00000000
00000000
00000000
00000000
00000000
00000000
00000000
00001000
00000000
00000000
00000000
00002000
00000000
00000000
00000000
00000000
00000000
00000000
00000000
,  // measure 97
00000000
00000000
00033000
00000000
;
