#VERSION:0.83;
#TITLE:The Final Feast;
#SUBTITLE:;
#ARTIST:HoYo-MiX;
#TITLETRANSLIT:;
#SUBTITLETRANSLIT:;
#ARTISTTRANSLIT:;
#GENRE:VARIETY;
#ORIGIN:;
#CREDIT:MUINELIM;
#BANNER:The Final Feast.png;
#BACKGROUND:The Final Feast-bg.png;
#PREVIEWVID:;
#JACKET:The Final Feast-jacket.png;
#CDIMAGE:;
#DISCIMAGE:;
#LYRICSPATH:;
#CDTITLE:;
#MUSIC:The Final Feast.mp3;
#OFFSET:0.160000;
#SAMPLESTART:97.902702;
#SAMPLELENGTH:13.960583;
#SELECTABLE:YES;
#BPMS:0.000=92.900,
41.000=46.450,
45.000=103.000,
101.000=206.000;
#STOPS:296.000=1.165;
#DELAYS:;
#WARPS:;
#TIMESIGNATURES:0.000=4=4;
#TICKCOUNTS:0.000=4;
#COMBOS:0.000=1;
#SPEEDS:0.000=1.000=0.000=0;
#SCROLLS:0.000=1.000;
#FAKES:;
#LABELS:0.000=Song Start;
#BGCHANGES:0.000=The Final Feast.mp4=1.000=0=0=0=StretchNoLoop====,
99999=-nosongbg-=1.000=0=0=0 // don't automatically add -songbackground-
;
#KEYSOUNDS:;
#ATTACKS:
;

//---------------dance-single - ----------------
#NOTEDATA:;
#CHARTNAME:;
#STEPSTYPE:dance-single;
#DESCRIPTION:;
#CHARTSTYLE:;
#DIFFICULTY:Beginner;
#METER:4;
#RADARVALUES:0.137784,0.205149,0.031365,0.000000,0.000000,123.000000,119.000000,4.000000,0.000000,0.000000,0.000000,0.000000,0.000000,0.000000,0.137784,0.205149,0.031365,0.000000,0.000000,123.000000,119.000000,4.000000,0.000000,0.000000,0.000000,0.000000,0.000000,0.000000;
#CREDIT:MILEN;
#NOTES:
0000
0000
0000
0000
,
0000
0000
0000
0000
,
0000
0000
0000
0000
,
0000
0000
0000
0000
,
0000
0000
0000
0000
,
0000
0000
0000
0000
,
0000
0000
1000
0000
,
0000
0001
0000
0000
,
0100
0000
0000
0010
,
0000
0000
1000
0000
,
0000
0001
0000
0000
,
0000
1001
0000
1000
,
0000
0001
0000
1000
,
0000
0010
0000
0100
,
0000
0010
0000
1000
,
0000
0001
0000
0100
,
0000
0010
0000
0100
,
0000
0001
0000
0010
,
0000
0100
0000
1000
,
0000
0010
0010
0010
,
0010
0010
0000
0000
,
0000
0100
0000
0001
,
0000
0100
0000
1000
,
0000
0100
0000
0001
,
0000
1000
0000
0010
,
0010
0010
0000
0100
,
0000
0010
0000
0100
,
0000
0001
0000
1000
,
0000
0001
0000
1000
,
0000
0010
0000
0000
,
0000
0100
0000
0000
,
0000
0010
0000
0000
,
0000
0100
0000
0000
,
0000
0001
0000
0001
,
0000
0001
0000
0001
,
0000
1000
0000
1000
,
0000
1000
0000
1000
,
0000
0001
0000
0001
,
0000
1000
0000
1000
,
0000
0001
0000
1000
,
0000
0001
0000
1000
,
0000
0010
0000
0010
,
0000
0100
0000
0100
,
0000
0010
0000
0010
,
0000
0100
0000
0100
,
0000
0010
0000
0000
,
0000
0000
0000
0000
,
0000
0100
0000
0000
,
0000
0000
0000
0000
,
0000
0010
0000
0000
,
0000
0000
0000
0000
,
0000
1000
0000
1000
,
0000
0001
0000
0001
,
0000
1001
0000
0000
,
0000
1000
0000
0100
,
0000
1000
0000
0100
,
0000
0010
0000
0001
,
0000
0010
0000
0001
,
0000
0100
0000
0001
,
0000
0100
0000
0001
,
0000
1000
0000
0010
,
0000
1000
0000
0010
,
0000
1000
0000
1000
,
0000
0100
0000
0100
,
0000
0010
0000
0010
,
0000
0001
0000
0001
,
0000
0100
0000
0010
,
0000
0100
0000
0000
,
0000
0010
0000
0100
,
0000
0010
0000
0000
,
0000
1000
0000
0000
,
0001
0000
0000
1000
,
0000
0001
0000
0000
,
1001
0000
0000
0100
,
0100
0010
0000
0110
;

//---------------dance-single - ----------------
#NOTEDATA:;
#CHARTNAME:;
#STEPSTYPE:dance-single;
#DESCRIPTION:;
#CHARTSTYLE:;
#DIFFICULTY:Easy;
#METER:7;
#RADARVALUES:0.225159,0.351685,0.101938,0.078414,0.000000,201.000000,188.000000,13.000000,10.000000,0.000000,0.000000,0.000000,0.000000,0.000000,0.225159,0.351685,0.101938,0.078414,0.000000,201.000000,188.000000,13.000000,10.000000,0.000000,0.000000,0.000000,0.000000,0.000000;
#CREDIT:MILEN;
#NOTES:
0000
0000
0000
0000
,
0000
0000
0000
0000
,
0000
0000
0000
0000
,
0000
0000
0000
0000
,
0000
0000
0000
0000
,
0000
0000
0000
0000
,
0000
0000
1000
1000
,
0000
1000
1000
0000
1000
0000
0000
0000
,
0001
0000
0001
0000
0000
0001
0001
0000
,
0001
0000
0100
0010
,
0000
0100
0100
0000
0020
0000
0000
0000
,
0030
1000
0001
1000
,
0001
0010
0100
0010
,
0100
1000
0010
0100
,
0010
0001
0010
0100
,
0010
1000
0100
0010
,
0001
0100
0010
0100
,
1000
0100
0010
0100
,
0001
0010
0100
1000
,
0001
2002
0000
0000
,
0000
3003
0000
0000
,
1001
0000
1000
0000
0010
0000
1000
0100
,
1000
0000
0001
0000
0100
0000
0001
0010
,
0001
0000
1000
0000
0001
0000
0100
0010
,
0100
0010
1000
0001
,
0100
0100
0100
0000
0000
0000
0001
0000
,
0000
0100
0010
0100
,
0101
0000
0010
0000
,
1000
0000
0010
0100
,
0010
1010
0000
0000
,
1000
0000
0000
1001
,
0000
0001
0000
0000
,
0101
0000
0000
0100
,
0000
0110
0000
0010
,
0000
1000
0000
0100
,
1000
0001
0000
0100
,
0000
0001
0000
0010
,
0001
1000
0000
0100
,
0000
1000
0000
0100
,
0010
0001
0000
0010
,
0000
0001
0000
0010
,
0100
1000
0000
0010
,
0100
0001
0100
0010
,
0010
0000
0000
0100
,
0010
1000
0010
0100
,
0100
0002
0000
0000
,
0000
0000
0000
0000
,
0003
2000
0000
0000
,
0000
0000
0000
0000
,
3000
0020
0000
0000
,
0000
0000
0000
0000
,
0000
0200
0000
0000
,
0000
0000
0000
0000
,
0330
0010
0100
0001
,
1000
0010
0100
0001
,
0000
0100
0010
1000
,
0000
0100
0010
0001
,
0000
1000
0100
0010
,
0010
0000
0001
1000
,
0000
1000
0001
0100
,
0000
0001
1000
0010
,
0100
0001
1000
0010
,
0010
0000
1000
0100
,
1000
0001
1000
0100
,
1000
0000
0001
0010
,
0001
1000
0001
0010
,
0001
0100
0000
1000
,
0000
0010
0000
0001
,
1000
0100
0000
0001
,
0000
0010
0000
1000
,
0001
1000
1100
0000
,
0001
0011
0000
1001
,
0000
0220
0000
0330
,
0110
0000
0000
1001
,
0100
0020
0000
0130
;

//---------------dance-single - ----------------
#NOTEDATA:;
#CHARTNAME:;
#STEPSTYPE:dance-single;
#DESCRIPTION:;
#CHARTSTYLE:;
#DIFFICULTY:Medium;
#METER:10;
#RADARVALUES:0.357342,0.498220,0.141144,0.360702,0.082334,319.000000,301.000000,18.000000,46.000000,0.000000,0.000000,0.000000,0.000000,0.000000,0.357342,0.498220,0.141144,0.360702,0.082334,319.000000,301.000000,18.000000,46.000000,0.000000,0.000000,0.000000,0.000000,0.000000;
#CREDIT:MILEN;
#NOTES:
0000
0000
0000
0000
,
0000
0000
0000
0000
,
0000
0000
0000
0000
,
0000
0000
2000
3002
,
0000
0100
0103
0000
0010
0000
0100
0000
,
0002
0000
2003
0000
0000
0010
3010
0000
,
0100
0010
0200
0302
,
0000
0010
0013
0000
0011
0000
0000
0000
,
0020
0000
2030
0000
0000
0100
3100
0000
,
1100
0000
0200
0302
,
0000
0000
1000
0000
1003
0000
0000
0000
0100
0000
0010
0200
0000
0000
0000
0000
,
0000
0310
0010
1000
0010
0000
0100
0001
,
0100
0000
0010
1000
0010
0100
0001
0100
,
0001
0000
1000
0100
1000
0000
0001
0010
,
0001
0000
1000
0100
1000
0001
0010
0001
,
0010
0000
0001
0100
0010
0000
1000
0010
,
0100
0000
0001
0010
0100
1000
0100
0010
,
0001
0000
1000
0100
0010
0000
0001
0010
,
0100
2100
3020
0230
,
0302
0000
1003
0100
0010
0001
0100
0010
,
1000
0001
2002
0000
0000
0000
3003
0000
,
1001
0000
1000
0010
1000
0100
1000
0010
,
0010
0010
0001
0100
0001
0010
0001
0100
,
0100
0100
1000
0010
0100
0001
1000
0010
,
0010
0010
0001
0100
1000
0010
0001
1000
,
0100
0100
0100
0000
1000
0000
0010
0000
,
0100
0010
1000
0100
,
2200
3300
0010
0001
,
0100
0010
0100
0001
,
0010
0022
0000
0000
,
0000
0000
0033
0100
,
1000
2020
0000
0000
,
0000
0000
3030
0100
,
0101
0001
0010
0100
,
0010
0001
0010
1000
,
0010
0001
0010
0100
,
0001
0100
1000
0100
,
0001
0100
0010
0100
,
1000
0010
0100
0001
,
0010
0100
0001
0100
,
0010
1000
0010
0100
,
0220
0330
0001
0100
,
1000
0000
0000
0100
0000
0000
0001
0000
0010
0100
0000
0010
,
0200
0300
0010
0200
,
0300
0000
0000
1000
0000
0000
0001
0000
1000
0001
0000
1000
,
0001
2000
0000
0000
,
3000
0020
0000
0000
,
0030
0002
0000
0000
,
0003
0200
0000
0000
,
0300
2000
3000
0020
,
0030
0200
0300
0002
,
0003
0010
0100
1000
,
0001
0010
0100
1000
,
0010
0220
0000
0000
,
0330
0100
0001
0010
,
0001
0100
1000
0100
,
0001
0010
0001
0100
,
1000
0100
0001
0010
,
0200
0300
0010
0001
,
0100
0010
1000
0100
,
0010
0000
0000
0001
0000
0100
0010
0000
0000
1000
0000
0010
,
0100
0000
0000
0001
0000
0010
0100
0000
0000
1000
0000
0100
,
0010
0110
0001
0100
,
1000
0000
0000
0100
0000
0000
0001
0000
0010
0100
0000
0010
,
0100
1000
0010
0001
,
0010
0000
0000
1000
0000
0000
0100
0000
0010
0100
0000
0010
,
0100
0000
0000
1000
0000
0010
0100
0000
0001
0100
0000
0000
,
0010
0000
0100
0010
0000
1000
0010
0000
0000
0100
0000
0000
,
0001
0000
0000
0010
0000
0100
1000
0000
0001
1000
0000
0000
,
0100
0000
0010
0001
0000
1000
0001
0000
0000
0010
0000
0000
,
0100
1000
2020
3030
,
0001
0202
0303
2010
,
0000
0000
3001
0000
0001
0010
0100
0000
,
0220
0000
0330
1100
,
0011
0002
0000
1003
;

//---------------dance-single - ----------------
#NOTEDATA:;
#CHARTNAME:;
#STEPSTYPE:dance-single;
#DESCRIPTION:;
#CHARTSTYLE:;
#DIFFICULTY:Hard;
#METER:14;
#RADARVALUES:0.544414,0.908519,0.282289,0.439116,0.572419,486.000000,450.000000,36.000000,56.000000,0.000000,0.000000,0.000000,0.000000,0.000000,0.544414,0.908519,0.282289,0.439116,0.572419,486.000000,450.000000,36.000000,56.000000,0.000000,0.000000,0.000000,0.000000,0.000000;
#CREDIT:MILEN;
#NOTES:
0000
0000
0000
0000
,
0000
0000
0000
0000
,
0000
0000
0000
0000
,
0000
0000
2000
3020
,
0000
0100
0130
0000
0110
0000
0100
0000
,
0002
0000
0203
0000
0000
0010
0310
0000
,
0110
0010
2000
3002
,
0000
0100
0103
0000
0110
0000
0100
0000
,
0001
0000
2000
0000
0000
0010
3010
0000
,
0110
0100
0002
2003
,
0000
0000
0000
0000
0001
0000
0000
0000
3002
0000
0000
0000
0000
0000
0000
0000
0103
0000
0000
0000
0100
0010
0200
0000
0000
0000
0000
0000
0000
0000
0000
0000
,
0000
0320
1030
0100
0001
0100
1000
0010
,
0100
0000
0001
0010
0001
0000
0100
0000
0010
0000
1000
0100
1000
0000
0010
0000
,
0100
0000
0001
1000
0001
0000
0100
0010
0100
0010
1000
0100
1000
0000
0010
0100
,
0010
0100
0001
0010
0001
0000
0100
0010
0100
0010
1000
0010
1000
0001
0100
0001
,
0100
0010
1000
0001
0100
0000
0110
0000
0010
0000
1000
0100
0010
0000
0110
0000
,
0010
0000
0001
0010
0100
0000
0110
0000
0100
0000
1010
0000
0001
0000
0110
0000
,
1000
0000
0101
0000
0010
0000
1001
0000
1000
0000
0001
0100
0010
0000
0110
0000
,
0001
0000
1000
0010
0200
0000
0000
0000
0302
0000
0000
0000
0023
0000
0000
0000
,
2030
0000
3100
0010
0100
0001
0010
1000
,
0010
0001
2000
0000
0000
0000
0000
0000
,
3010
0000
0000
0000
0000
0000
0110
0000
0000
0100
0000
0001
0010
0000
0000
0010
0000
0001
0100
0000
0000
1000
0000
0000
,
0010
0000
0000
0001
0000
0000
0110
0000
0000
0010
0000
1000
0100
0000
0000
0100
0000
1000
0010
0000
0000
0001
0000
0000
,
0100
0000
0000
1000
0000
0000
0110
0000
0000
0010
0000
1000
0001
0000
0000
0100
0000
0001
1000
0000
0000
0010
0000
0000
,
0001
0000
0000
0100
0000
0000
1000
0000
0010
0000
0000
0100
0010
0000
0000
0100
0000
0001
0010
0000
0001
0100
0000
0001
,
1000
0000
0010
1000
0000
0100
1000
0000
0000
0000
0100
0000
0010
0000
0000
0000
0010
0000
0100
0000
0000
0000
0000
0000
,
0010
0000
0001
0100
0000
0100
0001
0000
2000
0000
0000
3010
,
0100
0000
0110
0000
0000
0010
1000
0000
1000
0010
0000
0000
,
0100
0000
0001
0010
0000
0010
0001
0000
0001
0100
0000
0100
,
0010
0000
0010
1000
0000
1000
0100
0000
0100
0020
0000
0000
,
0031
0000
0001
0100
0000
0100
0020
0000
0000
1030
0000
1000
,
0002
0000
0000
0103
0000
0100
0010
0000
0100
0002
0000
0000
,
1003
0000
0010
0100
0000
0010
1000
0000
1000
0100
1000
0100
,
0010
0000
0010
0001
0000
0000
0101
0000
0000
1000
0000
0000
,
0110
0001
1010
0100
,
1001
0000
0000
0010
0000
1000
0100
0000
0010
0100
0000
0000
,
1000
0000
0010
0100
0000
0000
0001
0000
0000
0011
0000
0100
,
0010
0000
0200
0000
0000
0301
0010
0000
0100
1000
0000
0000
,
0010
0000
0100
0001
0000
0000
0011
0000
0000
1100
0000
0000
,
2002
0000
0000
3003
0000
0100
0010
0000
0100
0001
0000
0100
,
1000
0000
0100
0010
0000
0200
0000
0000
0301
0010
0000
0100
,
1000
0000
0002
0000
0000
0013
0100
0000
0010
0001
0000
0000
,
0100
0000
0010
1000
0000
0000
1100
0000
0000
1001
0000
0000
,
0022
0000
0000
0033
0000
0010
0001
0000
1000
0100
0000
0000
,
1000
0000
0010
0100
0000
0000
0002
0000
0000
2003
0000
0000
,
3020
0200
0000
0000
,
0330
0000
0000
1000
0010
0100
0001
1000
0000
0010
0000
0001
,
0000
0010
0000
2000
0000
0000
0000
0000
0000
0000
0000
0000
,
0000
0000
0000
0000
,
0000
3200
0000
0000
,
0000
0302
0000
0023
,
0000
2030
3200
0320
,
0230
0302
0203
0320
,
0230
0000
0000
1300
0010
0100
0010
1000
0100
0010
0100
1000
,
0100
0001
0100
1000
0000
0010
0100
0000
0000
0001
0000
0100
,
0010
0000
0000
1000
0000
0100
0010
0000
0000
0001
0000
0010
,
0100
0000
0000
1000
0000
0010
0001
0000
0000
0001
0000
0100
,
1000
0000
0000
0001
0000
0010
1000
0000
0000
1000
0000
0100
,
0001
0000
0000
0010
0000
0100
1000
0000
0000
0010
0000
0001
,
0100
0000
0000
0100
0000
1000
0010
0000
0000
0100
0000
0010
,
0001
0000
0000
0010
0000
1000
0100
0000
0100
0010
0000
0010
,
0001
0000
0001
0100
0000
0100
1000
0000
1000
0100
0000
0000
,
0110
0000
0000
0001
0000
0010
0100
0000
0100
1000
0000
1000
,
0010
0000
0010
0100
0000
0100
0001
0000
0001
0010
0000
0010
,
0100
0000
0000
1000
0000
0100
0010
0000
0010
0001
0000
0001
,
0100
0000
0100
0010
0000
0010
1000
0000
1000
0100
0000
0100
,
0010
0000
0010
0001
0000
0100
1000
0000
0100
0001
0000
0000
,
0010
0000
1000
0010
0000
0001
0010
0000
0000
1010
0000
0000
,
0101
0000
0000
1000
0000
0010
0001
0000
0010
1000
0000
0000
,
0100
0000
0001
0100
0000
1000
0100
0000
0000
0010
0001
0100
,
0010
1000
0100
0001
0000
0000
0220
0000
0000
0330
0000
0000
,
1000
0220
0330
0002
,
2003
0000
0000
3020
0000
0000
0130
0001
1000
0010
0000
0000
,
0220
0000
0000
0330
0000
0000
0001
0010
0100
1000
0000
0000
,
1010
0022
0033
0101
;

//---------------dance-double - ----------------
#NOTEDATA:;
#CHARTNAME:;
#STEPSTYPE:dance-double;
#DESCRIPTION:;
#CHARTSTYLE:;
#DIFFICULTY:Hard;
#METER:14;
#RADARVALUES:0.534332,0.761984,0.297971,0.446957,0.497926,477.000000,439.000000,38.000000,57.000000,0.000000,0.000000,0.000000,0.000000,0.000000,0.534332,0.761984,0.297971,0.446957,0.497926,477.000000,439.000000,38.000000,57.000000,0.000000,0.000000,0.000000,0.000000,0.000000;
#CREDIT:MILEN;
#NOTES:
00000000
00000000
00000000
00000000
,
00000000
00000000
00000000
00000000
,
00000000
00000000
00000000
00000000
,
00000000
00000000
02000000
03002000
,
00000000
00010000
00013000
00000000
00011000
00000000
00010000
00000000
,
00000020
00000000
00020030
00000000
00000000
00001000
00031000
00000000
,
00011000
00100000
00002000
00023000
,
00000000
00001000
00031000
00000000
00011000
00000000
00000100
00000000
,
00020000
00000000
00032000
00000000
00000000
00010000
00013000
00000000
,
00011000
01000000
00020000
00230000
,
00000000
00000000
00000000
00000000
00001000
00000000
00000000
00000000
00302000
00000000
00000000
00000000
00000000
00000000
00000000
00000000
00013000
00000000
00000000
00000000
00010000
00000100
00002000
00000000
00000000
00000000
00000000
00000000
00000000
00000000
00000000
00000000
,
00000000
00003002
00000103
00001000
00010000
01000000
10000000
00100000
,
00010000
00000000
00001000
00010000
00001000
00000000
00000010
00000000
00001000
00000000
00010000
00001000
00010000
00000000
00100000
00000000
,
00010000
00000000
00001000
00010000
00001000
00000000
00010000
00001000
00000100
00000000
00000001
00000000
00000010
00000000
00001000
00010000
,
01000000
00000000
10000000
00000000
00100000
00000000
00010000
00001000
00100000
00000000
00001000
00010000
00000100
00000000
00010000
00001000
,
01000000
00000000
00001000
00010000
00000010
00000000
00000110
00000000
00000100
00000000
00000001
00000010
00001000
00000000
00011000
00000000
,
00010000
00000000
01000000
10000000
00100000
00000000
01100000
00000000
01000000
00000000
01010000
00000000
00010000
00000000
00011000
00000000
,
00001000
00000000
00001010
00000000
00000010
00000000
00000110
00000000
00000100
00000000
00000001
00000010
00000100
00000000
00001100
00000000
,
00001000
00000000
00000100
00010000
00002000
00000000
00000000
00000000
00203000
00000000
00000000
00000000
02300000
00000000
00000000
00000000
,
23000000
00000000
30100000
00010000
00001000
00000100
00000001
00000010
,
00001000
00010000
00012000
00000000
00000000
00000000
00000000
00000000
,
01003000
00000000
00000000
00000000
00000000
00000000
01100000
00000000
00000000
00100000
00000000
10000000
01000000
00000000
00000000
10000000
00000000
00100000
01000000
00000000
00000000
00100000
00000000
00000000
,
00010000
00000000
00000000
00001000
00000000
00000000
00011000
00000000
00000000
00010000
00000000
00000010
00001000
00000000
00000000
00000010
00000000
00010000
00001000
00000000
00000000
00010000
00000000
00000000
,
00000100
00000000
00000000
00001000
00000000
00000000
00001001
00000000
00000000
00000001
00000000
00000100
00000010
00000000
00000000
00000100
00000000
00000001
00000010
00000000
00000000
00001000
00000000
00000000
,
00010000
00000000
00000000
00100000
00000000
00000000
10000000
00000000
01000000
00000000
00000000
10000000
00010000
00000000
00000000
00100000
00000000
00010000
01000000
00000000
00010000
00100000
00000000
00001000
,
00010000
00000000
00000100
00001000
00000000
00000010
00001000
00000000
00000000
00000000
00001000
00000000
00000100
00000000
00000000
00000000
00000010
00000000
00000001
00000000
00000000
00000000
00000000
00000000
,
00000100
00000000
00000010
00001000
00000000
00000001
00000100
00000000
00002000
00000000
00000000
00013000
,
00000100
00000000
00000110
00000000
00000000
00000010
00001000
00000000
00010000
00001000
00000000
00000000
,
00000100
00000000
00001000
00010000
00000000
00001000
01000000
00000000
00010000
01000000
00000000
00100000
,
01000000
00000000
00000000
00000000
00100000
00000000
10000000
00000000
00000000
01000000
00000000
00000000
00100000
00000000
00000000
00010000
00000000
00000000
02000000
00000000
00000000
00000000
00000000
00000000
,
03100000
00000000
00000000
00010000
00000000
00000000
00001000
00000000
00000000
00000100
00000000
00000000
00000020
00000000
00000000
00000000
00000000
00000000
00001030
00000000
00000000
00000000
00001000
00000000
,
00000002
00000000
00000103
00001000
00010000
00100000
20000000
00000000
,
31000000
00000000
00000000
00010000
00000000
00000000
00001000
00000000
00000000
00000010
00000000
00000000
00000001
00000000
00000000
00000000
00001000
00000000
00000001
00000000
00000000
00000000
00000001
00000000
,
00000100
00000000
00000100
00001000
00000000
00000000
00010010
00000000
00000000
00010000
00000000
00000000
,
00101000
00010000
00010100
00001000
,
01001000
00000000
00000000
00010000
00000000
00010000
00100000
00000000
00100000
10000000
00000000
00000000
,
01000000
00000000
00100000
01000000
00000000
00000000
00010000
00000000
00000000
00011000
00000000
00000100
,
00001000
00000000
00000200
00000000
00000000
00000310
00000001
00000000
00000001
00000100
00000000
00000000
,
00001000
00000000
00010000
00001000
00000000
00000000
01001000
00000000
00000000
00011000
00000000
00000000
,
00020200
00000000
00000000
00030300
00000000
00000100
00000010
00000000
00000100
00001000
00000000
00000100
,
00000010
00000000
00000100
00000001
00000000
00000200
00000000
00000000
00001300
00000010
00000000
00010000
,
00001000
00000000
00200000
00000000
00000000
00310000
01000000
00000000
00100000
01000000
00000000
00000000
,
10000000
00000000
01000000
00100000
00000000
00000000
01100000
00000000
00000000
10100000
00000000
00000000
,
02020000
00000000
00000000
03030000
00000000
00010000
00100000
00000000
01000000
10000000
00000000
00000000
,
00100000
00000000
00010000
00001000
00000000
00000000
00200000
00000000
00000000
02300000
00000000
00000000
,
03020000
00002000
00000000
00000000
,
00033000
00000000
00000000
00001000
00010000
00001000
00010000
00000100
00000000
00000010
00000000
00000001
,
00000000
00000100
00000000
00002000
00000000
00000000
00000000
00000000
00000000
00000000
00000000
00000000
,
00000000
00000000
00000000
00000000
,
00000000
00023000
00000000
00000000
,
00000000
00030200
00000000
00000320
,
00000000
00002030
00023000
00032000
,
00203000
00302000
00023000
00032000
,
00003020
00000000
00000000
00000031
00000100
00000010
00001000
00000000
00000000
00010000
01000000
00100000
,
10000000
00000000
01000000
00100000
00000000
01000000
00010000
00000000
00000000
00001000
00000000
00010000
,
00000100
00000000
00000000
00001000
00000000
00000001
00000010
00000000
00000000
00000100
00000000
00000010
,
00001000
00000000
00000000
00010000
00000000
00001000
00100000
00000000
00000000
01000000
00000000
00010000
,
00001000
00000000
00000000
00100000
00000000
01000000
10000000
00000000
00000000
00100000
00000000
00010000
,
00001000
00000000
00000000
00000100
00000000
00000001
00000010
00000000
00000000
00001000
00000000
00010000
,
01000000
00000000
00000000
10000000
00000000
00100000
01000000
00000000
00000000
10000000
00000000
01000000
,
00010000
00000000
00000000
00100000
00000000
01000000
00010000
00000000
00010000
00001000
00000000
00001000
,
00000010
00000000
00000010
00000001
00000000
00000001
00000100
00000000
00000100
00000010
00000000
00000000
,
00000110
00000000
00000000
00000001
00000000
00000001
00000100
00000000
00000100
00001000
00000000
00001000
,
00010000
00000000
00010000
00100000
00000000
00100000
10000000
00000000
10000000
01000000
00000000
01000000
,
00100000
00000000
00000000
10010000
00000000
10000000
00100000
00000000
00100000
00010000
00000000
00010000
,
00001000
00000000
00001000
00000100
00000000
00000100
00000001
00000000
00000001
00000010
00000000
00000010
,
00000100
00000000
00000100
00001000
00000000
00000100
00010000
00000000
00000100
00000010
00000000
00000000
,
00001000
00000000
00010000
01000000
00000000
00100000
01000000
00000000
00000000
11000000
00000000
00000000
,
00110000
00000000
00000000
10000000
00000000
01000000
00010000
00000000
00001000
00010000
00000000
00000000
,
00100000
00000000
00010000
00001000
00000000
00000010
00001000
00000000
00000000
00010000
00001000
00000100
,
00000010
00001000
00000100
00000010
00000000
00000000
00000202
00000000
00000000
00000303
00000000
00000000
,
00001000
00020020
00030030
00002000
,
00203000
00000000
00000000
02300000
00000000
00000000
13000000
00100000
00010000
00001000
00000000
00000000
,
00022000
00000000
00000000
00033000
00000000
00000000
00010000
00001000
00000100
00000001
00000000
00000000
,
00001001
20020000
30030000
01100000
;

//---------------dance-double - ----------------
#NOTEDATA:;
#CHARTNAME:;
#STEPSTYPE:dance-double;
#DESCRIPTION:;
#CHARTSTYLE:;
#DIFFICULTY:Easy;
#METER:8;
#RADARVALUES:0.220678,0.293071,0.094096,0.078414,0.000000,197.000000,185.000000,12.000000,10.000000,0.000000,0.000000,0.000000,0.000000,0.000000,0.220678,0.293071,0.094096,0.078414,0.000000,197.000000,185.000000,12.000000,10.000000,0.000000,0.000000,0.000000,0.000000,0.000000;
#CREDIT:MILEN;
#NOTES:
00000000
00000000
00000000
00000000
,
00000000
00000000
00000000
00000000
,
00000000
00000000
00000000
00000000
,
00000000
00000000
00000000
00000000
,
00000000
00000000
00000000
00000000
,
00000000
00000000
00000000
00000000
,
00000000
00000000
00010000
00010000
,
00000000
00010000
00010000
00000000
00010000
00000000
00000000
00000000
,
00001000
00000000
00001000
00000000
00000000
00001000
00001000
00000000
,
00001000
00000000
00010000
00001000
,
00000000
00010000
00001000
00000000
00020000
00000000
00000000
00000000
,
00030000
00011000
00001000
00100000
,
00010000
01000000
00001000
00010000
,
00000100
00001000
00000010
00010000
,
00001000
00000100
00001000
00010000
,
00001000
00010000
01000000
00010000
,
00001000
00000100
00000001
00000010
,
00001000
00010000
00100000
10000000
,
01000000
00010000
00001000
00000010
,
00000001
00002002
00000000
00000000
,
00000000
00003003
00000000
00000000
,
00001001
00001000
00000010
00010000
,
00001000
00000100
00010000
01000000
,
00001000
00010000
00100000
00001000
,
00000010
00010000
00001000
00100000
,
01000000
01000000
01000000
00000000
00000000
00000000
10000000
00000000
,
00000000
00100000
00010000
00001000
,
00011000
00000000
00000010
00000000
,
00000001
00000000
00000100
00001000
,
00010000
00011000
00000000
00000000
,
00010000
00000000
00000000
00010010
,
00000000
00001000
00000000
00000000
,
01001000
00000000
00000000
00010000
,
00000000
00011000
00000000
00001000
,
00000000
00000100
00000000
00000010
,
00000100
00001000
00000000
00010000
,
00000000
00100000
00000000
01000000
,
00100000
00010000
00000000
00001000
,
00000000
00000010
00000000
00000100
,
00000010
00001000
00000000
00010000
,
00000000
01000000
00000000
00100000
,
01000000
00010000
00000000
00001000
,
00000010
00000001
00001000
00000100
,
00000100
00000000
00000000
00010000
,
01000000
10000000
00010000
00100000
,
00100000
00002000
00000000
00000000
,
00000000
00000000
00000000
00000000
,
00003000
00020000
00000000
00000000
,
00000000
00000000
00000000
00000000
,
00030000
00000200
00000000
00000000
,
00000000
00000000
00000000
00000000
,
00000000
00000020
00000000
00000000
,
00000000
00000000
00000000
00000000
,
00000330
00000010
00000001
00000010
,
00000001
00000100
00001000
00010000
,
00000000
00001000
00010000
01000000
,
00000000
00010000
01000000
10000000
,
00000000
00100000
00010000
00001000
,
00010000
00000000
00010000
00001000
,
00000000
00001000
00000100
00000001
,
00000000
00000001
00000010
00000100
,
00001000
00010000
01000000
00100000
,
00100000
00000000
10000000
01000000
,
00100000
00010000
00100000
00001000
,
00010000
00000000
00001000
00010000
,
00000100
00001000
00000100
00000010
,
00000001
00000100
00000000
00001000
,
00000000
00010000
00000000
00100000
,
10000000
01000000
00000000
00010000
,
00000000
00001000
00000000
00000010
,
00000001
00000100
00000101
00000000
,
00001000
00011000
00000000
00100000
,
00000000
20020000
00000000
30030000
,
10010000
00000000
00000000
10000000
,
01000000
00020000
00000000
00031000
;

//---------------dance-double - ----------------
#NOTEDATA:;
#CHARTNAME:;
#STEPSTYPE:dance-double;
#DESCRIPTION:;
#CHARTSTYLE:;
#DIFFICULTY:Medium;
#METER:10;
#RADARVALUES:0.350621,0.586141,0.219558,0.423433,0.019603,313.000000,285.000000,28.000000,54.000000,0.000000,0.000000,0.000000,0.000000,0.000000,0.350621,0.586141,0.219558,0.423433,0.019603,313.000000,285.000000,28.000000,54.000000,0.000000,0.000000,0.000000,0.000000,0.000000;
#CREDIT:MILEN;
#NOTES:
// measure 0
00000000
00000000
00000000
00000000
,  // measure 1
00000000
00000000
00000000
00000000
,  // measure 2
00000000
00000000
00000000
00000000
,  // measure 3
00000000
00000000
00002000
00023000
,  // measure 4
00000000
00000010
00030010
00000000
00010000
00000000
00000100
00000000
,  // measure 5
00020000
00000000
00032000
00000000
00000000
01000000
01003000
00000000
,  // measure 6
00001000
01000000
00020000
00230000
,  // measure 7
00000000
00001000
00301000
00000000
00011000
00000000
00000000
00000000
,  // measure 8
00020000
00000000
00030020
00000000
00000000
00001000
00001030
00000000
,  // measure 9
00001001
00000000
00000002
00000203
,  // measure 10
00000000
00000000
00001000
00000000
00001300
00000000
00000000
00000000
00010000
00000000
00001000
00020000
00000000
00000000
00000000
00000000
,  // measure 11
00000000
01030000
01000000
10000000
01000000
00000000
00100000
00010000
,  // measure 12
00100000
00000000
00001000
00010000
00001000
00000100
00000010
00000100
,  // measure 13
00000010
00000000
00000100
00000001
00000100
00000000
00000010
00001000
,  // measure 14
00000010
00000000
00010000
00001000
00010000
01000000
00100000
01000000
,  // measure 15
00100000
00000000
00010000
01000000
00100000
00000000
10000000
01000000
,  // measure 16
00100000
00000000
00010000
01000000
00100000
00010000
00001000
00000100
,  // measure 17
00000010
00000000
00000100
00000001
00000010
00000000
00000100
00001000
,  // measure 18
00000010
00020010
00032000
00203000
,  // measure 19
02300000
00000000
13000000
00100000
00010000
00001000
00000100
00000001
,  // measure 20
00000010
00001000
00022000
00000000
00000000
00000000
00033000
00000000
,  // measure 21
00011000
00000000
00010000
00001000
00000100
00000001
00000010
00000100
,  // measure 22
00000010
00000110
00000100
00010000
00001000
00100000
00010000
01000000
,  // measure 23
00100000
01100000
01000000
00010000
00100000
01000000
00010000
00011000
,  // measure 24
00001000
00000010
00000100
00001000
00000001
00000010
00001000
00010000
,  // measure 25
01000000
10000000
10010000
00000000
00010000
00000000
01000000
00000000
,  // measure 26
00001000
00010000
00000100
00001000
,  // measure 27
00002002
00003003
00000001
00001000
,  // measure 28
00000010
00010000
00001000
00100000
,  // measure 29
00010000
20020000
00000000
00000000
,  // measure 30
00000000
00000000
30030000
00010000
,  // measure 31
00100000
00202000
00000000
00000000
,  // measure 32
00000000
00000000
00303000
00010000
,  // measure 33
00010010
00000010
00001000
00000100
,  // measure 34
00000010
00000001
00001000
00000010
,  // measure 35
00010000
00001000
00100000
00010000
,  // measure 36
10000000
01000000
00100000
00010000
,  // measure 37
01000000
00001000
00010000
00000010
,  // measure 38
00001000
00000100
00000010
00000001
,  // measure 39
00000100
00001000
00010000
00100000
,  // measure 40
10000000
01000000
00010000
00001000
,  // measure 41
00022000
00033000
00010000
00001000
,  // measure 42
00000100
00000001
00000010
00000110
,  // measure 43
00002002
00003003
00001000
00000020
,  // measure 44
00000030
00010000
00001000
00101000
,  // measure 45
01100000
20000000
00000000
00000000
,  // measure 46
30000000
00200000
00000000
00000000
,  // measure 47
00300000
00020000
00000000
00000000
,  // measure 48
00030000
00002000
00000000
00000000
,  // measure 49
00003000
00000200
00000300
00000002
,  // measure 50
00000003
00000020
00000030
00002000
,  // measure 51
00003000
00010000
00001000
00000010
,  // measure 52
00001000
00010000
00100000
00010000
,  // measure 53
00001000
00022000
00000000
00000000
,  // measure 54
00033000
00010000
00000100
00000010
,  // measure 55
00000001
00001000
00000100
00000010
,  // measure 56
00001000
00010000
01000000
00100000
,  // measure 57
00010000
10000000
00100000
00010000
,  // measure 58
00002000
00003000
00010000
00001000
,  // measure 59
00000100
00000001
00000010
00000001
,  // measure 60
00000100
00000000
00000000
00001000
00000000
00010000
00001000
00000000
00000000
00010000
00000000
00001000
,  // measure 61
00010000
00000000
00000000
00100000
00000000
01000000
00100000
00000000
00000000
01000000
00000000
00100000
,  // measure 62
01000000
01100000
00100000
10000000
,  // measure 63
01000000
00010000
00001000
00011000
,  // measure 64
00010100
00000100
00000010
00000001
,  // measure 65
00000100
00001000
00010000
00011000
,  // measure 66
01001000
02000000
03200000
10300000
,  // measure 67
02000000
03020000
00031000
00000010
,  // measure 68
00000001
00000200
00002300
00013000
,  // measure 69
00200000
20300000
31000000
00100000
,  // measure 70
00001000
00010000
00020020
00030030
,  // measure 71
00001000
00202000
00303000
00010200
,  // measure 72
00000000
00000000
00001300
00000000
00001000
00000001
00000100
00000000
,  // measure 73
00002000
00000000
00000000
00013000
,  // measure 74
00011000
00200000
00000000
01300000
;
