#TITLE:The Chariot ~REVIIVAL~;
#SUBTITLE:;
#ARTIST:Attoclef;
#TITLETRANSLIT:;
#SUBTITLETRANSLIT:;
#ARTISTTRANSLIT:;
#GENRE:VARIETY;
#CREDIT:MUINELIM;
#BANNER:The Chariot ~REVIIVAL~.png;
#BACKGROUND:The Chariot ~REVIIVAL~-bg.png;
#LYRICSPATH:;
#CDTITLE:;
#MUSIC:The Chariot ~REVIIVAL~.ogg;
#OFFSET:-0.057000;
#SAMPLESTART:82.248253;
#SAMPLELENGTH:15.157890;
#SELECTABLE:YES;
#DISPLAYBPM:190.000000;
#BPMS:0.000000=190.000000
;
#STOPS:130.000000=0.079000,
130.500000=0.079000,
191.500000=0.316000,
192.000000=0.316000,
192.500000=0.158000,
448.500000=0.474000
;
#BGCHANGES:;
#KEYSOUNDS:;
#ATTACKS:;

//---------------dance-single - ----------------
#NOTES:
     dance-single:
     :
     Beginner:
     4:
     0.200566,0.307845,0.013697,0.054789,0.000000,205.000000,203.000000,2.000000,8.000000,0.000000,0.000000,0.200566,0.307845,0.013697,0.054789,0.000000,205.000000,203.000000,2.000000,8.000000,0.000000,0.000000:
0000
0000
0000
0000
,
0000
0000
0000
0000
,
0000
0000
0000
0000
,
0000
0000
0000
0000
,
0000
0000
0000
0000
,
0001
0000
0000
0001
,
0000
0000
0000
0000
,
1000
0000
0000
1000
,
0000
0000
0000
0000
,
0001
0000
0100
0000
,
0001
0000
0100
0000
,
0010
0000
1000
0000
,
0010
0000
1000
0000
,
0100
0000
0010
0000
,
0100
0000
0010
0000
,
0001
0000
1000
0000
,
0001
0001
0002
0003
,
0100
0000
0001
0000
,
0100
0000
0100
0000
,
0010
0000
1000
0000
,
0010
0000
0010
0000
,
0100
0000
0001
0000
,
1000
0000
0010
0000
,
0100
0000
0010
0000
,
1000
1000
2000
3000
,
0100
0000
1000
0000
,
0100
0000
0100
0000
,
0010
0000
0001
0000
,
0010
0000
0010
0000
,
0100
0000
1000
0000
,
0001
0000
0010
0000
,
0100
0000
1000
0000
,
2002
0000
0000
0000
3003
0000
0000
0001
,
0000
0000
0000
0100
0000
0000
0000
1000
,
0000
0000
0000
1000
0000
0000
0000
1000
,
0000
0000
0000
0100
0000
0000
0000
0001
,
0000
0000
0000
0001
0000
0000
0000
0001
,
0000
0000
0000
0010
0000
0000
0000
1000
,
0000
0000
0000
1000
0000
0000
0000
1000
,
0000
0000
0000
0010
0000
0000
0000
0001
,
0000
0000
0000
0001
0000
0000
0000
1000
,
0000
0000
0000
0100
0000
0000
0000
0001
,
0000
0000
0000
0001
0000
0000
0000
0001
,
0000
0000
0000
0100
0000
0000
0000
1000
,
0000
0000
0000
1000
0000
0000
0000
1000
,
0000
0000
0000
0010
0000
0000
0000
0001
,
0000
0000
0000
0001
0000
0000
0000
0001
,
0000
0000
0000
0010
0000
0000
0000
2000
,
0000
3000
0001
0000
0000
0000
0000
0000
,
0000
0010
0000
0000
,
0000
0100
0000
0000
,
0000
1000
0000
0000
,
0000
1000
0000
0000
,
0000
0100
0000
0000
,
0000
0010
0000
0000
,
0000
0001
0000
0000
,
0000
0100
0000
0010
,
0000
1000
0000
0000
,
0000
0010
0000
0100
,
0000
0001
0000
0000
,
0000
1000
0000
0100
,
0000
0010
0000
0000
,
0000
0001
0000
0010
,
0000
0200
0000
0300
,
0000
1000
0000
0010
,
0000
1000
0000
0100
,
0000
1000
0000
0001
,
0000
1000
1000
1000
,
0000
0001
0000
0100
,
0000
0001
0000
0010
,
0000
0001
0000
1000
,
0000
0001
0001
0001
,
0000
0100
0000
0010
,
0000
1000
0000
0001
,
0000
0010
0000
0100
,
0000
0010
0010
0010
,
0000
0001
0000
0100
,
0000
1000
0000
0100
,
0000
0001
0000
0010
,
0000
0100
0100
0200
,
0300
1000
0000
0010
,
0000
0001
0000
0010
,
0000
1000
0000
0100
,
0000
0001
0000
0100
,
0000
1000
0000
0010
,
0000
0001
0000
0100
,
0000
0001
0000
0010
,
0000
1000
0000
0100
,
0000
0010
0000
0001
,
0000
0100
0000
1000
,
0000
0100
0000
0001
,
0000
0010
0000
1000
,
0000
0010
0000
0001
,
0000
0100
0000
1000
,
0000
0010
0000
1000
,
0000
0100
0100
0200
,
0300
0001
0000
0000
,
0000
0001
0000
0000
,
0000
1000
0000
0000
,
0000
1000
0000
0000
,
0000
0010
0000
0000
,
0000
0010
0000
0000
,
0000
0100
0000
0000
,
0000
0100
0000
0000
,
0000
0001
0000
0001
,
0000
0010
0000
0010
,
0000
0100
0000
0100
,
0000
1000
0000
1000
,
0000
0010
0010
0010
,
0000
0100
0100
0100
,
0000
0001
0001
0001
,
0000
1000
1000
1000
,
1000
0000
0000
1001
0000
0000
0000
0000
;

//---------------dance-single - ----------------
#NOTES:
     dance-single:
     :
     Easy:
     9:
     0.359063,0.463309,0.136972,0.178064,0.000000,367.000000,347.000000,20.000000,26.000000,0.000000,0.000000,0.359063,0.463309,0.136972,0.178064,0.000000,367.000000,347.000000,20.000000,26.000000,0.000000,0.000000:
0000
0000
0000
0000
,
0000
0000
0000
0000
,
0000
0000
0000
0000
,
0000
0000
0000
0000
,
0000
0000
0000
0000
,
1001
0000
1000
0000
,
0001
0000
1000
0000
,
1001
0000
0001
0000
,
1000
0000
0001
0000
,
1001
0000
1000
0000
,
1001
0000
0001
0000
,
0110
0000
0100
0000
,
0110
0000
0010
0000
,
1000
0100
1000
0100
,
0010
0001
0010
0001
,
1000
0010
0100
0001
,
2000
0000
3002
0000
,
1003
0100
1000
0001
,
1000
0100
1000
1000
,
0001
0100
0001
1000
,
0001
0100
0002
0003
,
0010
0100
1000
0100
,
0010
0100
1000
1000
,
0001
0010
0100
0010
,
0001
0010
0220
0330
,
0100
1000
0010
0100
,
0001
0010
0001
0100
,
0010
1000
0100
1000
,
0010
0100
0002
0003
,
0100
0010
1000
0010
,
0100
0001
0100
0010
,
1000
0100
0010
0001
,
2000
0000
0000
0000
3020
0000
0000
0130
,
0000
0000
0000
0001
0000
0000
0000
0100
,
0000
0001
0000
0010
0000
0100
0000
1000
,
0000
0000
0000
0010
0000
0000
0000
1000
,
0000
0010
0000
0100
0000
0001
0000
0010
,
0000
0000
0000
0100
0000
0000
0000
0010
,
0000
0100
0000
1000
0000
0001
0000
0100
,
0000
0000
0000
0001
0000
0000
0000
0100
,
0000
0010
0000
1000
0000
0001
0000
1001
,
0000
1000
0000
0010
0000
0100
0000
0010
,
0000
0001
0000
0010
0000
0000
0000
0100
,
0000
0001
0000
0010
0000
0100
0000
0010
,
0000
1000
0000
0010
0000
0000
0000
0100
,
0000
0010
0000
0001
0000
1000
0000
0100
,
0000
0010
0000
0100
0000
0000
0000
1000
,
0000
0010
0000
0100
0000
0001
0000
1000
,
1000
1000
2000
0000
0000
0000
3010
0000
,
0000
0002
0000
0103
,
0000
2000
0000
3100
,
0000
0002
0000
0013
,
0000
0200
0000
0310
,
0000
0002
0000
1003
,
0000
0020
0000
0130
,
0000
2000
0000
3001
,
0000
0001
0100
0010
,
0010
0001
0000
0101
,
0000
1000
0010
0100
,
0100
1000
0000
1010
,
0000
0001
0010
0100
,
0100
0001
0000
0011
,
0000
1000
0100
0010
,
0010
2000
0000
0000
,
3000
0001
0100
0010
,
1000
0100
1000
0000
0010
0000
0100
0000
,
0001
0010
0100
1000
,
0100
0000
0010
0000
0001
1000
0001
0000
,
0100
0110
0010
1000
,
0001
0100
0001
0000
1000
0000
0010
0000
,
0100
0001
0010
0100
,
1000
0001
1000
0000
0010
0000
1000
0001
,
1000
1001
0001
0100
,
0010
1000
0010
0000
0100
0000
0001
0000
,
0010
0100
0001
0100
,
1000
0000
0100
0000
0010
0001
0010
0000
,
0100
1000
0010
0100
,
0001
0010
0001
0000
0100
0000
0010
0000
,
1000
0100
0100
0010
,
0010
0000
0001
0000
1000
0000
0010
0100
,
0010
0200
0001
0000
,
0301
0000
0010
0000
0100
0000
1000
0010
,
0100
0002
0010
0000
,
0013
2000
0100
0000
,
3100
0002
1000
0000
,
1003
0000
0010
0000
0100
0000
0001
0010
,
0001
0200
0010
0000
,
0310
0002
1000
0000
,
1003
0100
0010
0001
,
1000
0010
0100
0000
0001
0000
1000
0000
,
0100
0020
1000
0000
,
0001
0000
1000
0000
,
0031
0100
0010
1000
,
0001
0010
0100
0000
1000
0000
0010
0000
,
0100
0001
0001
0010
,
0010
1000
1000
0100
,
0100
0010
0000
0000
,
0000
0010
0000
0000
,
0000
1000
0000
0000
,
0000
1000
0000
0000
,
0000
0001
0000
0000
,
0000
0001
0000
0000
,
0000
0100
0000
0000
,
0000
0100
0000
0000
,
0000
0110
0000
0010
,
0000
0110
0000
0100
,
0000
1001
0000
0001
,
0000
1001
0000
1000
,
0000
0101
0001
0100
,
0010
1010
1000
0010
,
0100
0001
0010
1000
,
0100
0000
0010
0010
0000
0100
0100
0000
,
0010
0010
0000
2002
0000
0000
3003
0000
;

//---------------dance-single - ----------------
#NOTES:
     dance-single:
     :
     Hard:
     17:
     0.861947,1.042444,0.431463,0.609526,0.681437,881.000000,818.000000,63.000000,89.000000,0.000000,0.000000,0.861947,1.042444,0.431463,0.609526,0.681437,881.000000,818.000000,63.000000,89.000000,0.000000,0.000000:
0000
0000
0000
0000
,
0000
0000
0000
0000
,
0000
0000
0000
0000
,
0000
0000
0000
0000
,
0000
0000
0000
0000
,
1001
0000
1000
0001
1000
0001
0200
0000
,
0301
1000
0001
1000
0020
0000
1030
0000
,
0110
0000
0100
0010
0100
0010
2000
0000
,
3010
0100
0010
0100
0002
0000
0103
0000
,
0120
1030
0210
0301
,
0120
1030
1100
0011
,
0102
1003
2010
3001
,
0102
1003
1010
0101
,
0011
0011
1010
1010
,
0101
0101
1100
1100
,
1000
0010
0100
0001
1000
0100
0010
0001
,
0100
0010
0100
0010
0100
0010
0100
0010
0200
0000
0000
0000
0302
0000
0000
0000
,
1003
0000
0000
1000
0010
0000
1000
0000
0100
0000
0001
0000
0100
0000
1000
0000
,
1010
0000
0000
0010
1000
0000
0100
1000
0000
0001
1000
0000
0100
1000
0100
0000
,
1000
0000
0000
0001
0100
0000
0001
0000
0010
0000
1000
0000
0010
0000
0001
0000
,
0100
0000
0010
0100
0010
0000
0100
0000
0001
0000
0010
0000
0100
1000
0100
1000
,
0001
0000
0000
0001
0010
0000
0001
0000
0100
0000
1000
0000
0100
0000
0001
0000
,
0011
0000
0000
0010
0001
0000
0100
0001
0000
1000
0001
0000
0100
0001
0100
0000
,
0001
0000
0000
1000
0100
0000
1000
0000
0010
0000
0001
0000
0010
0000
1000
0000
,
0100
0000
0010
0100
0010
0000
0001
0000
2000
0000
3020
0000
0230
0000
0302
0000
,
0013
0000
0000
0010
0001
0000
0100
0000
0010
1000
0010
0000
0100
0000
0001
0000
,
0011
0000
0000
0010
0100
0000
0010
0001
0000
0010
0100
0000
1000
0010
1000
0000
,
0100
0000
0000
0100
1000
0000
0010
0000
0100
0001
0100
0000
0010
0000
1000
0000
,
0100
0000
0010
0001
0010
0000
0100
0000
1000
0000
0010
0000
0100
0001
0100
0001
,
1000
0000
0000
1000
0010
0000
0100
0000
0001
0010
0001
0000
0100
0000
0010
0000
,
1010
0000
0000
1000
0100
0000
0010
0001
0000
0100
0010
0000
1000
0001
1000
0000
,
0001
0000
0000
0001
0100
0000
0010
0000
1000
0100
1000
0000
0010
0000
0100
0000
,
0202
0000
0000
0303
0011
1100
2000
3001
,
0000
0001
0000
0100
0000
0010
0000
0100
0000
0001
0000
0010
0000
0100
0000
0010
0000
0001
0000
0100
0000
0010
0000
0000
,
0000
0010
0000
1000
0000
0000
0000
1000
0000
0002
0000
0000
0100
0000
0000
0003
0000
0000
1000
0000
0000
1000
0000
0001
,
0000
1000
0000
0100
0000
0010
0000
0100
0000
1000
0000
0010
0000
0100
0000
0010
0000
1000
0000
0100
0000
0010
0000
0000
,
0000
0010
0000
0001
0000
0000
0000
0001
0000
2000
0000
0000
0100
0000
0000
3000
0000
0000
0001
0000
0000
0001
0000
0010
,
0000
0100
0000
1000
0000
0010
0000
1000
0000
0001
0000
0100
0000
0001
0000
0010
0000
0100
0000
1000
0000
0010
0000
0000
,
0000
0010
0000
0001
0000
0000
0000
0001
0000
0020
0000
0000
0100
0000
0000
0030
0000
0000
1000
0000
0000
1000
0000
0010
,
0000
0100
0000
0001
0000
0010
0000
0001
0000
1000
0000
0100
0000
1000
0000
0010
0000
0100
0000
0001
0000
0010
0000
0000
,
0000
0010
0000
1000
0000
0000
0000
1000
0000
0020
0000
0000
0100
0000
0000
0030
0000
0000
0001
0000
0000
0001
0000
1000
,
0000
0010
0000
0100
0000
0001
0000
0100
0000
0010
0000
1000
0000
0010
0000
0100
0000
0001
0000
0100
0000
0010
0000
1000
,
0000
0100
0000
0010
0000
0001
0000
0100
0000
0010
0000
0000
1010
0000
0000
1000
0000
0000
0001
0000
0000
1000
0000
0001
,
0000
0010
0000
0100
0000
1000
0000
0100
0000
0010
0000
0001
0000
0010
0000
0100
0000
1000
0000
0100
0000
0010
0000
0001
,
0000
0100
0000
0010
0000
1000
0000
0100
0000
0010
0000
0000
0011
0000
0000
0001
0000
0000
1000
0000
0000
0010
0000
0100
,
0000
0001
0000
1000
0000
0001
0000
0100
0000
0010
0000
0100
0000
0001
0000
1000
0000
0001
0000
0100
0000
0010
0000
0100
,
0000
0001
0000
0010
0000
0100
0000
1000
0000
0010
0000
0000
0110
0000
0000
0100
0000
0000
0001
0000
0000
0010
0000
0100
,
0000
1000
0000
0001
0000
1000
0000
0010
0000
0100
0000
0001
0000
1000
0000
0100
0000
0010
0000
0001
0000
1001
0000
0000
,
1010
0101
0120
0000
1030
0100
0001
0100
,
1000
0020
0100
0030
0100
0001
0010
1000
,
0010
0002
0100
0003
1000
1000
1020
0000
,
0230
0000
0000
0000
0302
0000
0000
0010
0000
0000
1003
0000
1100
0000
0000
0000
,
0011
0000
1002
0000
1003
0010
0001
0010
,
1000
0200
0010
0300
0010
0001
0100
1000
,
0100
0001
0020
0000
0230
0000
2300
0000
,
3020
0000
0000
0000
0230
0000
0000
0001
0000
0000
0301
0000
0001
0000
0010
0000
,
0100
0000
1000
0000
1001
0000
0000
0001
0100
0000
0010
0000
0001
0000
0010
0000
,
1000
0000
0100
0000
0010
0000
0000
0010
0100
0000
1000
0000
0100
0000
0001
0000
,
0100
0000
1000
0000
0010
0000
0000
0010
0100
0000
0001
0000
0010
0000
0100
0000
,
1000
0000
0010
0000
0001
0000
0000
0001
0010
0000
1000
0000
0010
0000
0100
0000
,
1000
0000
0100
0000
0001
0000
0010
0100
0010
0000
0100
0000
1000
0000
0010
0000
,
0100
0000
0001
0000
1000
0000
0100
0010
0100
0000
0010
0000
0001
0000
1000
0000
,
0010
0000
0100
0000
0001
0000
0010
0100
0010
0000
0100
0000
1000
0001
1000
0001
,
1000
0001
1000
0001
2000
0000
0000
0000
0000
0000
0000
0000
3020
0000
0000
0100
,
0000
0130
0210
0000
0302
0000
0023
0000
,
0031
0100
2000
0000
3100
0001
0010
0100
,
0001
0100
2000
0000
3020
0000
0032
0000
,
0023
0000
2030
0000
3100
0010
0001
1000
,
0100
0010
0210
0000
2300
0000
3020
0000
,
1030
0100
0002
0000
0103
1000
0010
0100
,
1000
0100
0002
0000
2003
0000
3010
0001
,
0010
1000
0100
0010
0001
1000
0010
0010
,
0100
0000
0100
0000
0001
0000
0010
0000
0100
1000
0100
0000
1000
0000
0010
0000
,
0100
0001
0100
0000
0001
0000
0010
0000
0100
1000
0010
0000
0100
0001
0010
0000
,
0100
1000
0001
0000
0100
0000
0010
0000
1000
0001
1000
0000
0010
0000
0100
0000
,
0001
1000
0001
0000
0100
0000
0010
0000
1000
0001
1000
0000
0010
0100
0010
0000
,
1000
0001
0010
0100
1000
0000
0010
0000
0100
0001
0100
0000
0001
0000
0010
0000
,
0100
1000
0100
0000
1000
0000
0010
0000
0100
0001
0010
0000
0100
1000
0010
0000
,
0100
0001
1000
0000
1100
0000
0000
0000
0101
0000
0000
0000
0011
0000
0000
0000
,
1010
0000
0000
0000
1000
0000
0100
0000
0010
0000
0001
0000
0100
0010
0100
0010
,
0100
0010
0100
0010
0200
0000
0000
0301
0010
0000
0001
0000
0100
0000
0010
0000
,
0001
0010
0200
0000
0301
0010
0100
0001
,
0100
0000
0010
0000
0002
0000
0000
0000
0103
0010
0100
0010
1000
0000
0200
0000
,
0000
0000
1300
0010
0100
0000
0001
0010
0100
0000
1000
0001
0100
0000
0001
1000
,
0010
0000
0100
0001
2000
0000
0000
3020
0000
0000
0230
0000
0301
0000
0010
0000
,
1000
0000
0010
0000
0002
0000
0000
0000
0103
0010
0100
0010
1000
0001
1000
0001
,
0010
0100
0010
0100
2000
0000
0000
0000
3002
0000
0000
0000
0103
0000
0010
0000
,
1000
0000
0001
0000
0010
0000
0100
0000
1000
0000
0010
0000
0100
0001
0100
0000
,
0010
0000
1000
0000
1002
0000
0000
0103
0010
0000
1000
0000
0100
0000
0010
0000
,
0100
1000
0020
0000
0130
1000
0100
0010
,
1000
0000
0100
0000
0010
0000
0001
0100
0010
1000
0001
0100
0010
0000
2000
0000
,
0000
0000
3001
0010
0002
0000
0103
0010
0100
0001
1000
0001
0100
0010
1000
0100
,
0010
0001
0100
0010
2000
0000
0000
3002
0000
0000
0203
0000
0310
0000
1000
0000
,
0100
0000
0010
0000
0002
0000
0000
0000
1003
0010
0100
0010
1000
0001
1000
0100
,
0010
0001
0100
0001
0020
0000
0000
0000
0230
0000
0000
0000
1300
0000
0010
0000
,
0001
0000
1000
0000
0100
0000
0001
0000
0010
0000
0100
0000
1000
0001
1000
0001
,
1000
0001
1000
0001
2000
0000
0000
0000
0000
0000
0000
0000
0000
0000
0000
0000
,
0000
0000
0000
0000
,
0000
3000
0000
0000
,
0000
0000
0000
0000
,
0000
0002
0100
0000
,
0103
2000
0010
0000
,
3010
0002
1000
0000
,
1003
0200
0010
0000
,
0310
0120
1030
0210
,
0301
0120
0031
0210
,
1300
0120
1030
2100
,
3010
0012
0103
0210
,
0301
1010
1010
0011
,
0011
1100
1100
0101
,
0101
0000
0001
0010
1000
0001
0100
1000
,
0010
0000
0001
0000
1000
0000
0100
0010
1000
0001
0010
0000
0100
0010
0001
1000
,
0010
0200
0300
2002
0000
0000
3003
0000
;

//---------------dance-single - ----------------
#NOTES:
     dance-single:
     :
     Medium:
     14:
     0.685840,0.810790,0.349279,0.445160,0.243126,701.000000,650.000000,51.000000,65.000000,0.000000,0.000000,0.685840,0.810790,0.349279,0.445160,0.243126,701.000000,650.000000,51.000000,65.000000,0.000000,0.000000:
0000
0000
0000
0000
,
0000
0000
0000
0000
,
0000
0000
0000
0000
,
0000
0000
0000
0000
,
0000
0000
0000
0000
,
1001
0000
0001
0100
0010
0000
0100
0000
,
0010
0100
0001
0000
1000
0000
0001
0000
,
1001
0000
1000
0010
0100
0000
0010
0000
,
0100
0010
1000
0000
0001
0000
1000
0000
,
2002
3003
0101
0000
,
0101
0000
1100
0000
,
1100
0000
0011
0000
,
0011
0000
1010
0000
,
1010
1000
1100
0010
,
0011
0001
0101
0100
,
0010
1000
0010
1000
0001
0100
0001
0100
,
0020
2030
3200
0320
,
0031
0000
0001
0100
0010
0100
0001
1000
,
0001
0000
0010
0100
0010
0001
1000
0001
,
0010
0000
0100
0010
0100
1000
0001
1000
,
0100
0010
0001
1000
0100
0010
0002
0000
,
1003
0000
1000
0100
0010
0100
1000
0001
,
1000
0000
0010
0100
0010
1000
0001
1000
,
0010
0000
0100
0010
0100
0001
1000
0001
,
0100
0000
0010
0000
1000
0000
0001
0000
0100
0010
0100
0000
0020
0000
0000
0000
,
1030
0000
1000
0100
0010
0100
1000
0001
,
1000
0000
0001
0100
0001
0010
0100
0010
,
0001
0000
1000
0100
0010
0100
1000
0010
,
1000
0001
0010
0100
1000
0010
0200
0000
,
0301
0000
0001
0100
0010
0100
0001
1000
,
0001
0000
1000
0100
1000
0010
0100
0010
,
1000
0000
0001
0100
0010
0100
0001
1000
,
2002
0000
0000
3003
1010
0101
0110
0010
,
0000
0010
0000
1000
0000
0000
0000
1000
0000
0001
0000
0000
0000
0001
0000
0100
0000
0000
0000
0100
0000
0010
0000
0000
,
0000
0010
0000
1000
0000
0000
0000
1000
0000
0100
0000
0000
0100
0000
0000
0000
0000
0000
0010
0000
0000
0010
0000
0000
,
0000
0010
0000
0001
0000
0000
0000
0001
0000
0100
0000
0000
0000
0100
0000
0010
0000
0000
0000
0010
0000
1000
0000
0000
,
0000
1000
0000
0001
0000
0000
0000
0001
0000
0010
0000
0000
0010
0000
0000
0000
0000
0000
0100
0000
0000
0100
0000
0000
,
0000
0100
0000
1000
0000
0000
0000
1000
0000
0010
0000
0000
0000
0010
0000
0100
0000
0000
0000
0100
0000
0001
0000
0000
,
0000
0001
0000
1000
0000
0000
0000
1000
0000
0010
0000
0000
0010
0000
0000
0000
0000
0000
0100
0000
0000
0100
0000
0000
,
0000
0100
0000
0001
0000
0000
0000
0001
0000
0010
0000
0000
0000
0010
0000
0100
0000
0000
0000
0100
0000
1000
0000
0000
,
0000
1000
0000
0010
0000
0000
0000
0010
0000
0100
0000
0000
0100
0000
0000
0000
0000
0000
0001
0000
0000
1001
0000
0000
,
0000
1000
0000
0010
0000
0000
0000
0010
0000
0100
0000
0000
0000
0100
0000
0001
0000
0000
0000
0001
0000
0010
0000
0001
,
0000
0010
0000
0100
0000
0000
0000
0100
0000
1000
0000
0000
0010
0000
0000
1000
0000
0000
0001
0000
0000
0101
0000
0000
,
0000
0100
0000
0010
0000
0000
0000
0010
0000
1000
0000
0000
0000
1000
0000
0100
0000
0000
0000
0100
0000
0010
0000
0100
,
0000
0010
0000
0001
0000
0000
0000
0001
0000
0100
0000
0000
0001
0000
0000
0010
0000
0000
0100
0000
0000
1100
0000
0000
,
0000
1000
0000
0010
0000
0000
0000
0010
0000
0001
0000
0000
0000
0001
0000
0010
0000
0000
0000
0010
0000
1000
0000
0100
,
0000
1000
0000
0100
0000
0000
0000
0100
0000
0010
0000
0000
0001
0000
0000
0010
0000
0000
0100
0000
0000
0110
0000
0000
,
0000
0010
0000
0001
0000
0000
0000
0001
0000
0100
0000
0000
0000
0100
0000
0010
0000
0000
0000
0010
0000
1010
0000
0000
,
0101
0110
0020
0000
1030
0100
0010
0001
,
0010
0100
2000
0000
3001
0100
0010
1000
,
0010
0100
0002
0000
0023
0000
2030
0000
,
3020
0000
0000
0000
0032
0000
0000
0100
0000
0000
1000
0000
1003
0000
0000
0000
,
1010
0000
0101
0000
0001
0100
0010
1000
,
0010
0100
0002
0000
1003
0100
0010
0001
,
0010
0100
2000
0000
3020
0000
0032
0000
,
0023
0000
0000
0000
2030
0000
0000
0100
0000
0000
0001
0000
3001
0000
0010
0000
,
0100
1000
1001
0000
0001
0200
0010
0300
,
0020
1000
0030
1000
0100
0001
0100
0000
,
0100
2000
3001
0000
1000
0200
0010
0300
,
0020
0001
0030
0001
0100
1000
0100
0000
,
0100
0002
1003
0000
1000
0020
0001
0030
,
2000
0100
3000
0010
0100
0001
0010
0100
,
1000
0000
0001
0000
1001
0000
0000
0000
1000
0000
0010
0000
0100
0001
0100
0000
,
0010
1000
0010
0000
0100
0000
0001
0000
0010
0000
0100
0000
1000
0000
0000
0001
,
0000
0100
0120
0000
1000
0000
0001
0000
,
1030
0100
0020
0000
0031
0100
0010
0001
,
0010
0100
0002
0000
0023
0000
2030
0000
,
3002
0000
0203
0000
1300
0010
0100
0001
,
1000
0010
0210
0000
0001
0000
1000
0000
,
0301
0010
0200
0000
1300
0010
0100
1000
,
0100
0010
2000
0000
3002
0000
0103
0010
,
0001
0010
1000
0001
0100
1000
0100
0010
,
1000
0001
2001
0000
0010
0000
0100
0000
,
3010
0100
0002
0000
0103
0010
1000
0100
,
0001
0100
2000
0000
3020
0000
0032
0000
,
0203
0000
2300
0000
3010
0100
0001
0010
,
1000
0010
0002
0000
0100
0000
0010
0000
,
0103
0010
2000
0000
3010
0100
0001
1000
,
0100
0010
0001
0100
0001
0100
1000
0001
,
1000
0000
0001
0000
0010
0000
1000
0000
0010
0000
1000
0000
0100
0010
0100
0010
,
0100
0000
0010
0000
0001
0000
0000
0001
0000
0000
0001
0000
0100
0000
0010
0000
,
1000
0001
0020
0000
0130
1000
0001
0100
,
0010
0000
1000
0000
1100
0000
0000
0000
0100
1000
0100
0000
1000
0000
0010
0000
,
0100
0000
0010
0000
1000
0000
0000
0000
0010
0100
0010
0000
0100
0000
0001
0000
,
0010
0000
0001
0000
0100
0000
0000
0100
0000
0000
0100
0000
0010
0000
1000
0000
,
0001
0010
0100
0000
1000
0010
0001
0010
,
1000
0100
0020
0000
0001
0000
0130
1000
,
0010
0000
0100
0000
0001
0000
0010
0000
0100
0000
1000
0000
0001
0100
0001
0000
,
0010
0000
0100
0000
1000
0000
0000
1000
0000
0000
1000
0000
0001
0000
0100
0000
,
0010
1000
0200
0000
0310
0001
0010
0010
,
0100
0100
1000
0010
0001
1000
0100
0020
,
0000
0000
0130
0000
0100
0000
0001
0010
0001
0010
0001
0000
1000
0000
0010
0000
,
0100
0000
0001
0000
0010
0000
0000
0010
0000
0000
0010
0000
0100
0000
1000
0000
,
0001
0000
0100
0000
0020
0000
0000
0000
1030
0100
1000
0000
0001
0000
0010
0000
,
0100
1000
1010
0000
0011
0000
1100
0000
,
0101
0000
0000
0000
0001
0000
0010
0000
0100
0000
1000
0000
0010
0100
0010
0000
,
1000
0001
1000
0000
2002
0000
0000
0000
0000
0000
0000
0000
0000
0000
0000
0000
,
0000
0000
0000
0000
,
0000
3003
0000
0000
,
0000
0000
0000
0000
,
0000
0002
0100
0000
,
0103
2000
0100
0000
,
3100
0002
0010
0000
,
0013
2000
0010
0000
,
3010
0101
0000
0101
,
0000
1100
0000
1100
,
0000
0011
0000
0011
,
0000
1010
0000
1010
,
0000
0101
1000
0011
,
0100
1010
0001
1100
,
0010
0000
0100
0001
0010
1000
0001
0100
,
1000
0000
0010
0000
0100
0000
0001
0010
0001
0000
1000
0000
0001
0010
0001
0000
,
0100
0100
0000
2002
0000
0000
3003
0000
;

//---------------dance-double - ----------------
#NOTES:
     dance-double:
     :
     Hard:
     17:
     0.835531,0.965226,0.431463,0.650618,0.599253,854.000000,791.000000,63.000000,95.000000,0.000000,0.000000,0.835531,0.965226,0.431463,0.650618,0.599253,854.000000,791.000000,63.000000,95.000000,0.000000,0.000000:
// measure 0
00000000
00000000
00000000
00000000
,  // measure 1
00000000
00000000
00000000
00000000
,  // measure 2
00000000
00000000
00000000
00000000
,  // measure 3
00000000
00000000
00000000
00000000
,  // measure 4
00000000
00000000
00000000
00000000
,  // measure 5
00011000
00000000
00001000
00010000
00001000
00010000
00000010
00000000
,  // measure 6
00010000
00001000
00010000
00001000
01000000
00000000
00001000
00000000
,  // measure 7
00011000
00000000
00010000
00001000
00010000
00001000
00100000
00000000
,  // measure 8
00001000
00010000
00001000
00010000
00000100
00000000
00010000
00000000
,  // measure 9
00021000
00030010
00012000
00003100
,  // measure 10
00021000
00030010
00010100
01001000
,  // measure 11
00012000
00103000
00021000
01030000
,  // measure 12
00012000
00103000
01001000
00010100
,  // measure 13
00101000
00101000
00010010
00010010
,  // measure 14
01001000
01001000
00010100
00010100
,  // measure 15
00000100
00000010
00000001
00001000
00000100
00000010
00000001
00000100
,  // measure 16
00001000
00010000
00001000
00010000
00001000
00010000
00001000
00010000
00002000
00000000
00000000
00000000
00023000
00000000
00000000
00000000
,  // measure 17
00130000
00000000
00000000
00100000
10000000
00000000
01000000
00000000
00010000
00000000
00001000
00000000
00010000
00000000
01000000
00000000
,  // measure 18
11000000
00000000
00000000
10000000
00100000
00000000
01000000
00100000
00000000
00010000
00100000
00000000
01000000
00100000
00010000
00000000
,  // measure 19
00001000
00000000
00000000
00001000
00000010
00000000
00000001
00000000
00000100
00000000
00001000
00000000
00000100
00000000
00000001
00000000
,  // measure 20
00000020
00000100
00001030
00000010
00000001
00000100
00001000
00000100
,  // measure 21
00000001
00000000
00000000
00000010
00000001
00000000
00000100
00000000
00001000
00000000
00010000
00000000
00001000
00000000
00000100
00000000
,  // measure 22
00000101
00000000
00000000
00000001
00000010
00000000
00000100
00000010
00000000
00001000
00000010
00000000
00000100
00000010
00001000
00000000
,  // measure 23
00010000
00000000
00000000
00010000
00100000
00000000
10000000
00000000
01000000
00000000
00010000
00000000
01000000
00000000
10000000
00000000
,  // measure 24
00200000
01000000
00310000
00100000
20000000
32000000
03200000
00320000
,  // measure 25
10030000
00000000
00000000
10000000
00100000
00000000
00010000
00000000
00100000
00000000
00001000
00000000
00000010
00000000
00000100
00000000
,  // measure 26
00000101
00000000
00000000
00000001
00000010
00000000
00001000
00000010
00000000
00000001
00000010
00000000
00000100
00000010
00000001
00000000
,  // measure 27
00000100
00000000
00000000
00000100
00001000
00000000
00010000
00000000
00001000
00000000
01000000
00000000
10000000
00000000
01000000
00000000
,  // measure 28
00020000
00100000
10030000
00010000
00100000
01000000
00010000
00001000
,  // measure 29
00000010
00000000
00000000
00000001
00000010
00000000
00001000
00000000
00000010
00000000
00010000
00000000
00100000
00000000
01000000
00000000
,  // measure 30
11000000
00000000
00000000
10000000
00100000
00000000
00010000
00100000
00000000
10000000
00100000
00000000
01000000
00100000
10000000
00000000
,  // measure 31
01000000
00000000
00000000
01000000
00010000
00000000
00001000
00000000
00010000
00000000
00000100
00000000
00000001
00000000
00000100
00000000
,  // measure 32
00002000
00000000
00000000
00003000
00001001
00011000
00020000
01030000
,  // measure 33
00000000
01000000
00000000
00010000
00000000
01000000
00000000
00100000
00000000
10000000
00000000
00100000
00000000
01000000
00000000
00010000
00000000
00100000
00000000
01000000
00000000
10000000
00000000
00000000
,  // measure 34
00000000
10000000
00000000
00100000
00000000
00000000
00000000
00100000
00000000
00010000
00000000
00000000
00010000
00000000
00000000
00000000
00000000
00000000
00001000
00000000
00000000
00001000
00000000
00010000
,  // measure 35
00000000
00000100
00000000
00001000
00000000
00000100
00000000
00010000
00000000
00001000
00000000
00010000
00000000
00000010
00000000
00001000
00000000
00000100
00000000
00000010
00000000
00000001
00000000
00000000
,  // measure 36
00000000
00000001
00000000
00000100
00000000
00000000
00000000
00000100
00000000
00000010
00000000
00000000
00000010
00000000
00000000
00000000
00000000
00000000
00001000
00000000
00000000
00001000
00000000
00000001
,  // measure 37
00000000
00000100
00000000
00000010
00000000
00000100
00000000
00001000
00000000
00010000
00000000
00001000
00000000
00100000
00000000
00010000
00000000
00100000
00000000
01000000
00000000
10000000
00000000
00000000
,  // measure 38
00000000
10000000
00000000
00100000
00000000
00000000
00000000
00100000
00000000
01000000
00000000
00000000
01000000
00000000
00000000
00000000
00000000
00000000
00010000
00000000
00000000
00010000
00000000
00100000
,  // measure 39
00000000
01000000
00000000
00100000
00000000
00001000
00000000
00010000
00000000
00001000
00000000
00000010
00000000
00000100
00000000
00001000
00000000
00000001
00000000
00000010
00000000
00000100
00000000
00000000
,  // measure 40
00000000
00000100
00000000
00010000
00000000
00000000
00000000
00010000
00000000
00001000
00000000
00000000
00001000
00000000
00000000
00000000
00000000
00000000
00100000
00000000
00000000
00100000
00000000
00010000
,  // measure 41
00000000
00100000
00000000
01000000
00000000
10000000
00000000
01000000
00000000
00100000
00000000
00010000
00000000
00100000
00000000
01000000
00000000
10000000
00000000
01000000
00000000
00100000
00000000
00010000
,  // measure 42
00000000
01000000
00000000
00100000
00000000
00010000
00000000
00001000
00000000
00020000
00000000
00000000
00030010
00000000
00000000
00000000
00000000
00000000
00001010
00000000
00000000
00001000
00000000
00000001
,  // measure 43
00000000
00000100
00000000
00000010
00000000
00001000
00000000
00000010
00000000
00000100
00000000
00000001
00000000
00000100
00000000
00000010
00000000
00001000
00000000
00000010
00000000
00000100
00000000
00000001
,  // measure 44
00000000
00000010
00000000
00000100
00000000
00001000
00000000
00000010
00000000
00020000
00000000
00000000
00031000
00000000
00000000
00000000
00000000
00000000
00101000
00000000
00000000
00100000
00000000
00010000
,  // measure 45
00000000
01000000
00000000
00010000
00000000
00100000
00000000
00001000
00000000
00100000
00000000
00010000
00000000
01000000
00000000
00010000
00000000
00100000
00000000
01000000
00000000
10000000
00000000
00100000
,  // measure 46
00000000
01000000
00000000
00010000
00000000
00100000
00000000
01000000
00000000
00020000
00000000
00000000
00030100
00000000
00000000
00000000
00000000
00000000
00001100
00000000
00000000
00001000
00000000
00000010
,  // measure 47
00000000
00000100
00000000
00001000
00000000
00000100
00000000
00000010
00000000
00000001
00000000
00000010
00000000
00000100
00000000
00000001
00000000
00000010
00000000
00001000
00000000
00011000
00000000
00000000
,  // measure 48
00010100
01001000
00020010
00000000
00031000
00001000
00010000
01000000
,  // measure 49
10000000
00200000
00010000
00300000
10000000
01000000
00010000
00001000
,  // measure 50
00010000
02000000
00100000
03000000
10000000
00100000
00120000
00000000
,  // measure 51
00032000
00000000
00000000
00000000
00003020
00000000
00000000
00000100
00000000
00000000
00000031
00000000
00001001
00000000
00000000
00000000
,  // measure 52
00000110
00000000
00001020
00000000
00000130
00000001
00000010
00000100
,  // measure 53
00001000
00000020
00000001
00000030
00001000
00000100
00000010
00001000
,  // measure 54
00010000
01000000
20000000
00000000
30200000
00000000
00320000
00000000
,  // measure 55
00032000
00000000
00000000
00000000
02003000
00000000
00000000
00010000
00000000
00000000
03100000
00000000
00100000
00000000
10000000
00000000
,  // measure 56
01000000
00010000
00011000
00000000
00001000
00100000
01000000
10000000
,  // measure 57
00010000
00100000
01000000
00000000
00010000
00000100
00000010
00000001
,  // measure 58
00001000
00000100
00000010
00000000
00001000
01000000
00010000
00001000
,  // measure 59
00010000
01000000
00001000
00000000
00010000
00000100
00001000
00010000
,  // measure 60
00001000
00000000
00000100
00000000
00010000
00000000
00001000
00000100
00001000
00000000
00010000
00000000
00001000
00000000
00000010
00000000
,  // measure 61
00000001
00000000
00000100
00000000
00001000
00000000
00010000
01000000
00010000
00000000
00001000
00000000
00010000
00000000
00100000
00000000
,  // measure 62
10000000
00000000
01000000
00000000
00010000
00000000
00001000
00010000
00001000
00000000
00000100
00000000
00000001
00000010
00000001
00000010
,  // measure 63
00000001
00000010
00000001
00000010
00000200
00000000
00000000
00000000
00000000
00000000
00000000
00000000
00010300
00000000
00000000
00001000
,  // measure 64
00000000
01000000
01020000
00000000
00230000
00000000
02300000
00000000
,  // measure 65
13000000
00100000
00020000
00000000
00031000
00100000
01000000
00010000
,  // measure 66
00001000
00000010
00000200
00000000
00002300
00000000
00003002
00000000
,  // measure 67
00000203
00000000
00000320
00000000
00001030
00000100
00000010
00000001
,  // measure 68
00000100
00001000
00020000
00000000
00230000
00000000
00302000
00000000
,  // measure 69
00003010
00010000
00002000
00000000
00003100
00010000
01000000
00100000
,  // measure 70
10000000
01000000
00200000
00000000
00302000
00000000
00013000
00000100
,  // measure 71
00000010
00000001
00001000
00000010
00000100
00001000
00021000
00030100
,  // measure 72
00012000
00000000
01003000
00000000
01000000
00000000
00010000
00000000
00100000
01000000
00100000
00000000
01000000
00000000
10000000
00000000
,  // measure 73
00100000
01000000
00100000
00000000
01000000
00000000
00010000
00000000
00200000
00000000
02300000
00000000
03020000
00000000
00032000
00000000
,  // measure 74
00003010
00000100
00000010
00000100
00000010
00000000
00000001
00000000
00000100
00000010
00000100
00000000
00000010
00000000
00001000
00000000
,  // measure 75
00000100
00000010
00000100
00000000
00000010
00000000
00000001
00000000
00000200
00000000
00002300
00000000
00023000
00000000
00230000
00000000
,  // measure 76
10300000
00010000
10000000
00010000
10000000
00000000
01000000
00000000
00010000
00001000
00010000
00000000
00001000
00000000
00000100
00000000
,  // measure 77
00000001
00001000
00000001
00000000
00000010
00000000
00001000
00000000
00020000
00000000
00230000
00000000
20300000
00000000
32000000
00000000
,  // measure 78
03100000
00001000
00010000
00000000
00010010
00000000
00000000
00000000
00101000
00000000
00000000
00000000
00010100
00000000
00000000
00000000
,  // measure 79
01001000
00000000
00000000
00000000
00001000
00000000
00010000
00000000
00000100
00000000
00000010
00000000
00000001
00000100
00000001
00000100
,  // measure 80
00000010
00001000
00000010
00001000
00000200
00000000
00000000
00010300
00001000
00000000
01000000
00000000
00010000
00000000
00100000
00000000
,  // measure 81
00010000
01000000
00200000
00000000
00310000
00001000
00100000
01000000
,  // measure 82
00100000
00000000
00001000
00000000
00020000
00000000
00000000
00000000
00130000
01000000
00100000
00000000
10000000
00000000
02000000
00000000
,  // measure 83
00000000
00000000
03100000
00010000
00100000
00000000
00010000
01000000
00010000
01000000
00001000
00000000
00100000
00000000
00010000
01000000
,  // measure 84
00010000
01000000
00001000
00000000
00020000
00000000
00000000
00100000
00000000
00000000
00001000
00000000
00030010
00000000
00000010
00000000
,  // measure 85
00001000
00000000
00000100
00000000
00000020
00000000
00000000
00000000
00000031
00000100
00000001
00000100
00000010
00001000
00000010
00001000
,  // measure 86
00000100
00000010
00000100
00000010
00000002
00000000
00000000
00000000
00000203
00000000
00000000
00000000
00001300
00000000
00010000
00000000
,  // measure 87
00100000
00000000
01000000
00000000
00001000
00000000
00010000
00000000
00100000
00000000
10000000
00000000
01000000
00100000
01000000
00000000
,  // measure 88
00010000
00000000
00001000
00000000
00021000
00000000
00000000
00030100
00001000
00000000
00000010
00000000
00010000
00000000
00001000
00000000
,  // measure 89
00010000
00000010
00002000
00000000
00003100
00000010
00001000
00010000
,  // measure 90
00001000
00000000
00000010
00000000
00000100
00000000
00001000
00000010
00001000
00000000
00000100
00000000
00000010
00000000
00000002
00000000
,  // measure 91
00000000
00000000
00000103
00001000
00020000
00000000
00031000
00100000
00001000
00100000
00010000
00000000
01000000
00000000
00001000
00100000
,  // measure 92
00001000
00100000
00010000
00000000
02000000
00000000
00000000
10000000
00000000
00000000
00100000
00000000
03010000
00000000
00010000
00000000
,  // measure 93
00100000
00000000
01000000
00000000
20000000
00000000
00000000
00000000
30100000
01000000
00010000
01000000
00010000
00100000
00001000
00010000
,  // measure 94
00000100
00001000
00000100
00001000
00000020
00000000
00000000
00000000
00000230
00000000
00000000
00000000
00000301
00000000
00000010
00000000
,  // measure 95
00000100
00000000
00001000
00000000
00010000
00000000
00100000
00000000
01000000
00000000
10000000
00000000
00100000
01000000
00100000
01000000
,  // measure 96
00100000
01000000
00100000
01000000
00200000
00000000
00000000
00000000
00000000
00000000
00000000
00000000
00000000
00000000
00000000
00000000
,  // measure 97
00000000
00000000
00000000
00000000
,  // measure 98
00000000
00300000
00000000
00000000
,  // measure 99
00000000
00000000
00000000
00000000
,  // measure 100
00000000
00000020
00000100
00000000
,  // measure 101
00001030
00002000
00000100
00000000
,  // measure 102
00013000
00020000
00001000
00000000
,  // measure 103
01030000
02000000
10000000
00000000
,  // measure 104
03100000
01200000
00310000
00012000
,  // measure 105
00003010
00000012
00000103
00002100
,  // measure 106
00013000
00021000
00130000
20100000
,  // measure 107
30010000
00210000
01300000
01020000
,  // measure 108
00031000
00010010
00010010
00101000
,  // measure 109
00101000
00010100
00010100
01001000
,  // measure 110
01001000
00000000
01000000
00100000
00010000
00001000
00000100
00000010
,  // measure 111
00001000
00000000
00000100
00000000
00000010
00000000
00000001
00000100
00000010
00001000
00000100
00010000
00001000
00100000
00010000
01000000
,  // measure 112
00100000
10000000
02000000
00000000
03000000
00000000
00022000
00000000
00000000
00000000
00000000
00000000
00033000
00000000
00000000
00000000
;

//---------------dance-double - ----------------
#NOTES:
     dance-double:
     :
     Medium:
     14:
     0.668229,0.772181,0.349279,0.438311,0.188337,683.000000,632.000000,51.000000,64.000000,0.000000,0.000000,0.668229,0.772181,0.349279,0.438311,0.188337,683.000000,632.000000,51.000000,64.000000,0.000000,0.000000:
// measure 0
00000000
00000000
00000000
00000000
,  // measure 1
00000000
00000000
00000000
00000000
,  // measure 2
00000000
00000000
00000000
00000000
,  // measure 3
00000000
00000000
00000000
00000000
,  // measure 4
00000000
00000000
00000000
00000000
,  // measure 5
00011000
00010000
01000000
10000000
,  // measure 6
01000000
00010000
00001000
00010000
,  // measure 7
00011000
00001000
00000100
00000001
,  // measure 8
00000100
00001000
00010000
00001000
,  // measure 9
00022000
00033000
00010010
00000000
,  // measure 10
00010010
00000000
00101000
00000000
,  // measure 11
00101000
00000000
00010100
00000000
,  // measure 12
00010100
00000000
01001000
00000000
,  // measure 13
01001000
00001000
00011000
00000010
,  // measure 14
00010010
00010000
00011000
00100000
,  // measure 15
00010000
01000000
00001000
00010000
00000100
00001000
00000010
00010000
,  // measure 16
00002000
00203000
02300000
23000000
,  // measure 17
30010000
00000000
00010000
01000000
00100000
01000000
00010000
10000000
,  // measure 18
00010000
00000000
00100000
01000000
00100000
00010000
10000000
00010000
,  // measure 19
00100000
00000000
00001000
00010000
00001000
01000000
00010000
01000000
,  // measure 20
00001000
00010000
00100000
00010000
00001000
00000010
00000002
00000000
,  // measure 21
00001003
00000000
00001000
00000100
00000010
00000100
00001000
00000001
,  // measure 22
00001000
00000000
00000010
00000100
00000010
00001000
00000001
00001000
,  // measure 23
00000010
00000000
00010000
00001000
00010000
00000100
00001000
00000100
,  // measure 24
00010000
00001000
01000000
00010000
00100000
00100000
02000000
00000000
,  // measure 25
13000000
00000000
10000000
00100000
00010000
00100000
10000000
01000000
,  // measure 26
00100000
00000000
00010000
01000000
00100000
00010000
00100000
01000000
,  // measure 27
00010000
00000000
00100000
01000000
00010000
00001000
00010000
01000000
,  // measure 28
00100000
00001000
00010000
00000100
00000010
00000100
00002000
00000000
,  // measure 29
00003001
00000000
00000001
00000010
00001000
00000010
00000001
00000100
,  // measure 30
00000010
00000000
00001000
00000100
00000010
00001000
00000010
00000100
,  // measure 31
00001000
00000000
00000010
00000100
00001000
00010000
00001000
00000100
,  // measure 32
00000020
00000000
00000000
00000030
00001010
00011000
00110000
00100000
,  // measure 33
00000000
00100000
00000000
01000000
00000000
00000000
00000000
01000000
00000000
10000000
00000000
00000000
00000000
10000000
00000000
00100000
00000000
00000000
00000000
00100000
00000000
01000000
00000000
00000000
,  // measure 34
00000000
01000000
00000000
00010000
00000000
00000000
00000000
00010000
00000000
00100000
00000000
00000000
01000000
00000000
00000000
00000000
00000000
00000000
00010000
00000000
00000000
00001000
00000000
00000000
,  // measure 35
00000000
00001000
00000000
00100000
00000000
00000000
00000000
00100000
00000000
00010000
00000000
00000000
00000000
00010000
00000000
01000000
00000000
00000000
00000000
01000000
00000000
00001000
00000000
00000000
,  // measure 36
00000000
00001000
00000000
00010000
00000000
00000000
00000000
00010000
00000000
00000100
00000000
00000000
00000010
00000000
00000000
00000000
00000000
00000000
00000001
00000000
00000000
00001000
00000000
00000000
,  // measure 37
00000000
00001000
00000000
00000010
00000000
00000000
00000000
00000010
00000000
00000100
00000000
00000000
00000000
00000100
00000000
00001000
00000000
00000000
00000000
00001000
00000000
00010000
00000000
00000000
,  // measure 38
00000000
00010000
00000000
00100000
00000000
00000000
00000000
00100000
00000000
10000000
00000000
00000000
01000000
00000000
00000000
00000000
00000000
00000000
00100000
00000000
00000000
00010000
00000000
00000000
,  // measure 39
00000000
00010000
00000000
01000000
00000000
00000000
00000000
01000000
00000000
00001000
00000000
00000000
00000000
00001000
00000000
00010000
00000000
00000000
00000000
00010000
00000000
00000100
00000000
00000000
,  // measure 40
00000000
00000100
00000000
00000010
00000000
00000000
00000000
00000010
00000000
00001000
00000000
00000000
00010000
00000000
00000000
00000000
00000000
00000000
00000100
00000000
00000000
00000110
00000000
00000000
,  // measure 41
00000000
00000010
00000000
00000001
00000000
00000000
00000000
00000001
00000000
00000100
00000000
00000000
00000000
00000100
00000000
00001000
00000000
00000000
00000000
00001000
00000000
00010000
00000000
00000000
,  // measure 42
00000000
00010000
00000000
00100000
00000000
00000000
00000000
00100000
00000000
10000000
00000000
00000000
01000000
00000000
00000000
00100000
00000000
00000000
00010000
00000000
00000000
01010000
00000000
00000000
,  // measure 43
00000000
01000000
00000000
00100000
00000000
00000000
00000000
00100000
00000000
10000000
00000000
00000000
00000000
10000000
00000000
01000000
00000000
00000000
00000000
01000000
00000000
00010000
00000000
00000000
,  // measure 44
00000000
00010000
00000000
00001000
00000000
00000000
00000000
00001000
00000000
00000010
00000000
00000000
00000100
00000000
00000000
00001000
00000000
00000000
00000001
00000000
00000000
00000101
00000000
00000000
,  // measure 45
00000000
00000100
00000000
00000010
00000000
00000000
00000000
00000010
00000000
00001000
00000000
00000000
00000000
00001000
00000000
00010000
00000000
00000000
00000000
00010000
00000000
00100000
00000000
00000000
,  // measure 46
00000000
00100000
00000000
01000000
00000000
00000000
00000000
01000000
00000000
10000000
00000000
00000000
00100000
00000000
00000000
01000000
00000000
00000000
00010000
00000000
00000000
00110000
00000000
00000000
,  // measure 47
00000000
00100000
00000000
01000000
00000000
00000000
00000000
01000000
00000000
00010000
00000000
00000000
00000000
00010000
00000000
00001000
00000000
00000000
00000000
00001000
00000000
00000010
00000000
00000000
,  // measure 48
00000011
00001100
00000200
00000000
00010300
00001000
00100000
00010000
,  // measure 49
00100000
00001000
00020000
00000000
00031000
00010000
00000010
00001000
,  // measure 50
00000010
00010000
00002000
00000000
00203000
00000000
02300000
00000000
,  // measure 51
23000000
00000000
00000000
00000000
30200000
00000000
00000000
00320000
00000000
00000000
00001000
00000000
00031000
00000000
00000000
00000000
,  // measure 52
00101000
00000000
00010010
00000000
00010000
00001000
00000100
00000010
,  // measure 53
00000100
00001000
00020000
00000000
00031000
00010000
01000000
00100000
,  // measure 54
01000000
00010000
00002000
00000000
00003200
00000000
00000302
00000000
,  // measure 55
00000023
00000000
00000000
00000000
00000230
00000000
00000000
00002300
00000000
00000000
00000001
00000000
00003001
00000000
00000100
00000000
,  // measure 56
00000010
00010000
00011000
00000000
00001000
00200000
00010000
00300000
,  // measure 57
02000000
10000000
03000000
00100000
01000000
00010000
00001000
00100000
,  // measure 58
01000000
00010000
00011000
00000000
00010000
00000020
00001000
00000030
,  // measure 59
00000200
00000001
00000300
00000010
00000100
00001000
00010000
00000010
,  // measure 60
00000100
00001000
00011000
00000000
00010000
00002000
00100000
00003000
,  // measure 61
00020000
00000010
00030000
00001000
00100000
00010000
01000000
00001000
,  // measure 62
00010000
00000100
00000110
00000000
00000010
00000001
00000100
00000100
,  // measure 63
00001000
00000000
00001000
00000000
00010000
00000000
00100000
00000000
10000000
00000000
01000000
00000000
00100000
00000000
00000000
00001000
,  // measure 64
00000000
00010000
00020010
00000000
00001000
00000000
00100000
00000000
,  // measure 65
00031000
00000100
00000002
00000000
00000013
00000100
00000001
00000100
,  // measure 66
00001000
00000100
00000020
00000000
00000032
00000000
00000203
00000000
,  // measure 67
00002300
00000000
00023000
00000000
00130000
10000000
01000000
00100000
,  // measure 68
00010000
00100000
00102000
00000000
00010000
00000000
00000010
00000000
,  // measure 69
00013000
01000000
20000000
00000000
30100000
01000000
10000000
01000000
,  // measure 70
00010000
01000000
00200000
00000000
00320000
00000000
00031000
00000010
,  // measure 71
00001000
00010000
00100000
00010000
00001000
00000100
00000001
00000010
,  // measure 72
00000100
00001000
00001002
00000000
00000100
00000000
00000010
00000000
,  // measure 73
00001003
00000100
00000020
00000000
00001030
00010000
01000000
10000000
,  // measure 74
00100000
00010000
00002000
00000000
00203000
00000000
02300000
00000000
,  // measure 75
23000000
00000000
30200000
00000000
00310000
00001000
00100000
01000000
,  // measure 76
00010000
00001000
00000020
00000000
00000100
00000000
00000001
00000000
,  // measure 77
00001030
00010000
02000000
00000000
13000000
00100000
01000000
10000000
,  // measure 78
01000000
00010000
00100000
01000000
00100000
01000000
00010000
00001000
,  // measure 79
00010000
00000000
00001000
00000000
00000010
00000000
00000100
00000000
00000010
00000000
00000100
00000000
00001000
00000001
00001000
00000000
,  // measure 80
00000100
00000000
00000010
00000000
00001000
00000000
00000000
00001000
00000000
00000000
00001000
00000000
00010000
00000000
01000000
00000000
,  // measure 81
10000000
01000000
00020000
00000000
00031000
00100000
01000000
00010000
,  // measure 82
00001000
00000010
00000110
00000000
00000100
00000100
00001000
00000001
,  // measure 83
00000010
00000100
00001000
00000000
00000010
00000010
00010000
00001000
,  // measure 84
00000100
00000000
00010000
00000000
01000000
00000000
00000000
01000000
00000000
00000000
01000000
00000000
00100000
00000000
10000000
00000000
,  // measure 85
00010000
00100000
01000000
00000000
10000000
00100000
00010000
00001000
,  // measure 86
00100000
01000000
00020000
00000000
00001000
00000000
00030100
00000010
,  // measure 87
00000001
00001000
00000010
00000100
00001000
00010000
00100000
00100000
,  // measure 88
10000000
00000000
01000000
00000000
00100000
00000000
00000000
00100000
00000000
00000000
00100000
00000000
01000000
00000000
10000000
00000000
,  // measure 89
00100000
00010000
00002000
00000000
00103000
00010000
01000000
01000000
,  // measure 90
00001000
00001000
00010000
00100000
00001000
00000010
00010000
00002000
,  // measure 91
00000000
00000000
00003100
00000000
00000100
00000000
00000001
00000010
00000001
00000000
00000010
00000000
00001000
00000000
00010000
00000000
,  // measure 92
01000000
00000000
10000000
00000000
00010000
00000000
00000000
00010000
00000000
00000000
00010000
00000000
01000000
00000000
00100000
00000000
,  // measure 93
00010000
00001000
00000020
00000000
00000130
00000100
00001000
00000001
,  // measure 94
00000100
00000010
00010010
00000000
00101000
00000000
00010100
00000000
,  // measure 95
01001000
00000000
01000000
00010000
00100000
01000000
10000000
00100000
,  // measure 96
00010000
00001000
00022000
00000000
00000000
00000000
00000000
00000000
,  // measure 97
00000000
00000000
00000000
00000000
,  // measure 98
00000000
00033000
00000000
00000000
,  // measure 99
00000000
00000000
00000000
00000000
,  // measure 100
00000000
00200000
00001000
00000000
,  // measure 101
00301000
00000020
00010000
00000000
,  // measure 102
00010030
02000000
00001000
00000000
,  // measure 103
03001000
00000200
00010000
00000000
,  // measure 104
00010300
00010100
00000000
00010100
,  // measure 105
00000000
01001000
00000000
01001000
,  // measure 106
00000000
00010010
00000000
00010010
,  // measure 107
00000000
00101000
00000000
00101000
,  // measure 108
00000000
01100000
01000000
01010000
,  // measure 109
00010000
00011000
00001000
00001010
,  // measure 110
00000010
00000000
00000001
00000100
00001000
00010000
00100000
10000000
,  // measure 111
01000000
00010000
00001000
00001000
00100000
00010000
00010000
00000010
,  // measure 112
00001000
00010000
00000000
00022000
00000000
00000000
00033000
00000000
;

//---------------dance-double - ----------------
#NOTES:
     dance-double:
     :
     Easy:
     9:
     0.344387,0.463309,0.150669,0.191761,0.000000,352.000000,330.000000,22.000000,28.000000,0.000000,0.000000,0.344387,0.463309,0.150669,0.191761,0.000000,352.000000,330.000000,22.000000,28.000000,0.000000,0.000000:
// measure 0
00000000
00000000
00000000
00000000
,  // measure 1
00000000
00000000
00000000
00000000
,  // measure 2
00000000
00000000
00000000
00000000
,  // measure 3
00000000
00000000
00000000
00000000
,  // measure 4
00000000
00000000
00000000
00000000
,  // measure 5
00011000
00000000
00001000
00000000
,  // measure 6
00010000
00000000
00001000
00000000
,  // measure 7
00011000
00000000
00010000
00000000
,  // measure 8
00001000
00000000
00010000
00000000
,  // measure 9
00011000
00000000
00001000
00000000
,  // measure 10
01001000
00000000
00001000
00000000
,  // measure 11
00011000
00000000
00010000
00000000
,  // measure 12
00010010
00000000
00010000
00000000
,  // measure 13
00001000
00100000
00001000
00100000
,  // measure 14
00001000
00010000
00001000
00010000
,  // measure 15
00000100
00010000
00000100
00010000
,  // measure 16
00022000
00000000
00000000
00033000
,  // measure 17
00001000
00100000
00010000
01000000
,  // measure 18
00001000
00100000
00010000
00000000
,  // measure 19
01000000
00100000
00010000
00001000
,  // measure 20
01000000
00100000
00010000
00001000
,  // measure 21
00010000
00000010
00001000
00000100
,  // measure 22
00010000
00000010
00001000
00000000
,  // measure 23
00000100
00000010
00001000
00010000
,  // measure 24
00000100
00000010
00002002
00003003
,  // measure 25
00000001
00000100
00001000
00010000
,  // measure 26
00000100
00001000
00010000
00000000
,  // measure 27
10000000
01000000
00010000
00001000
,  // measure 28
01000000
00010000
00001000
00000000
,  // measure 29
00000001
00000010
00000100
00010000
,  // measure 30
00001000
00100000
01000000
10000000
,  // measure 31
00100000
00010000
00001000
00010000
,  // measure 32
00022000
00000000
00000000
00000000
00000000
00033000
00000000
00001000
,  // measure 33
00000000
00000000
00000000
00100000
00000000
00000000
00000000
01000000
,  // measure 34
00000000
10000000
00000000
00100000
00000000
01000000
00000000
00100000
,  // measure 35
00000000
00000000
00000000
00010000
00000000
00000000
00000000
00001000
,  // measure 36
00000000
00010000
00000000
00001000
00000000
00000100
00000000
00000010
,  // measure 37
00000000
00000000
00000000
00001000
00000000
00000000
00000000
00000010
,  // measure 38
00000000
00000100
00000000
00000001
00000000
00000100
00000000
00000010
,  // measure 39
00000000
00000000
00000000
00001000
00000000
00000000
00000000
00000100
,  // measure 40
00000000
00000010
00000000
00000001
00000000
00000100
00000000
00011000
,  // measure 41
00000000
00010000
00000000
00001000
00000000
00000010
00000000
00001000
,  // measure 42
00000000
00010000
00000000
00001000
00000000
00000000
00000000
00010000
,  // measure 43
00000000
00001000
00000000
00010000
00000000
00100000
00000000
00010000
,  // measure 44
00000000
00001000
00000000
00010000
00000000
00000000
00000000
00001000
,  // measure 45
00000000
00100000
00000000
01000000
00000000
00010000
00000000
00001000
,  // measure 46
00000000
00000010
00000000
00000100
00000000
00000000
00000000
00000010
,  // measure 47
00000000
00000001
00000000
00000100
00000000
00001000
00000000
00010000
,  // measure 48
00010000
00010000
00020000
00000000
00000000
00000000
00030010
00000000
,  // measure 49
00000000
00002000
00000000
01003000
,  // measure 50
00000000
00020000
00000000
00030100
,  // measure 51
00000000
00002000
00000000
00103000
,  // measure 52
00000000
02000000
00000000
03010000
,  // measure 53
00000000
00020000
00000000
00031000
,  // measure 54
00000000
00002000
00000000
00003100
,  // measure 55
00000000
00000200
00000000
00000301
,  // measure 56
00000000
00000001
00000010
00001000
,  // measure 57
00000000
00010000
00000000
00011000
,  // measure 58
00000000
00001000
00010000
01000000
,  // measure 59
00000000
10000000
00000000
10010000
,  // measure 60
00000000
00010000
00100000
01000000
,  // measure 61
00000000
00010000
00000000
00011000
,  // measure 62
00000000
00001000
00000010
00000100
,  // measure 63
00000000
00002100
00000000
00000001
,  // measure 64
00003001
00000100
00001000
00000100
,  // measure 65
00000001
00000010
00000001
00000000
00000100
00000000
00001000
00000000
,  // measure 66
00010000
00100000
10000000
01000000
,  // measure 67
00100000
00000000
01000000
00000000
10000000
00010000
10000000
00000000
,  // measure 68
00200000
01300000
01000000
00010000
,  // measure 69
10000000
00100000
10000000
00000000
00010000
00000000
01000000
00000000
,  // measure 70
00100000
00010000
00001000
00000100
,  // measure 71
00000001
00000000
00000010
00000000
00001000
00000000
00010000
00001000
,  // measure 72
00010000
00011000
00001000
00100000
,  // measure 73
00010000
01000000
00010000
00000000
00100000
00000000
00001000
00000000
,  // measure 74
00010000
00100000
10000000
01000000
,  // measure 75
00100000
00001000
00020000
00130000
,  // measure 76
00010000
00001000
00000010
00000001
,  // measure 77
00000100
00000010
00000100
00000000
00001000
00000000
00010000
00000000
,  // measure 78
00100000
10000000
10000000
01000000
,  // measure 79
01000000
00010000
00001000
00000100
,  // measure 80
00000001
00000020
00000100
00000000
,  // measure 81
00000130
00000010
00000001
00001000
,  // measure 82
00000100
00000020
00001000
00000000
,  // measure 83
00001030
00002000
00010000
00000000
,  // measure 84
00013000
00020000
00100000
00000000
,  // measure 85
00130000
00100000
10000000
01000000
,  // measure 86
00100000
00020000
01000000
00000000
,  // measure 87
01030000
00002000
00010000
00000000
,  // measure 88
00013000
00010000
00100000
00001000
,  // measure 89
00000010
00000100
00000001
00000010
,  // measure 90
00001000
00020000
00000010
00000000
,  // measure 91
00001000
00000000
00100000
00000000
,  // measure 92
00031000
00001000
00100000
01000000
,  // measure 93
10000000
00100000
00010000
00001000
,  // measure 94
00000100
00000001
00000001
00000010
,  // measure 95
00000010
00000100
00000100
00001000
,  // measure 96
00001000
00022000
00000000
00000000
,  // measure 97
00000000
00000000
00000000
00000000
,  // measure 98
00000000
00033000
00000000
00000000
,  // measure 99
00000000
00000000
00000000
00000000
,  // measure 100
00000000
00010000
00000000
00000000
,  // measure 101
00000000
00001000
00000000
00000000
,  // measure 102
00000000
00010000
00000000
00000000
,  // measure 103
00000000
00001000
00000000
00000000
,  // measure 104
00000000
00011000
00000000
00010000
,  // measure 105
00000000
00010100
00000000
00010000
,  // measure 106
00000000
00011000
00000000
00001000
,  // measure 107
00000000
00101000
00000000
00001000
,  // measure 108
00000000
00011000
00010000
00000100
,  // measure 109
00000010
00001000
00010000
01000000
,  // measure 110
00100000
00010000
00001000
00000100
,  // measure 111
00000010
00000001
00000100
00001000
,  // measure 112
00010000
00010000
00000000
00022000
00000000
00000000
00033000
00000000
;
