#TITLE:The Bha Bha Song;
#SUBTITLE:;
#ARTIST:TRI.BE;
#TITLETRANSLIT:;
#SUBTITLETRANSLIT:;
#ARTISTTRANSLIT:;
#GENRE:K-POP;
#CREDIT:MUINELIM;
#BANNER:The Bha Bha Song.png;
#BACKGROUND:The Bha Bha Song-bg.png;
#LYRICSPATH:;
#CDTITLE:;
#MUSIC:The Bha Bha Song.ogg;
#OFFSET:0.178000;
#SAMPLESTART:8.325937;
#SAMPLELENGTH:15.078112;
#SELECTABLE:YES;
#DISPLAYBPM:127.000000;
#BPMS:0.000000=126.999992
;
#STOPS:158.000000=0.945000
;
#BGCHANGES:0.000=The Bha Bha Song.avi=1.000=1=0=0=StretchNoLoop==CrossFade==,
99999=-nosongbg-=1.000=0=0=0 // don't automatically add -songbackground-
;
#KEYSOUNDS:;
#ATTACKS:;

//---------------dance-single - ----------------
#NOTES:
     dance-single:
     :
     Beginner:
     2:
     0.084611,0.128044,0.000000,0.019419,0.000000,61.000000,61.000000,0.000000,2.000000,0.000000,0.000000,0.084611,0.128044,0.000000,0.019419,0.000000,61.000000,61.000000,0.000000,2.000000,0.000000,0.000000:
0000
0000
0000
0000
,
0000
0000
0000
0000
,
0000
0000
0000
0000
,
0000
0000
0000
0000
,
0000
0000
1000
0000
,
0000
0000
0100
0000
,
0000
0000
0010
0000
,
0000
0000
0001
0000
,
0000
0000
1000
0000
,
0000
0000
0100
0000
,
0000
0000
0010
0000
,
0000
0000
0001
0000
,
0000
0000
1000
1000
,
0000
0000
0000
0000
,
0000
0000
0001
0000
,
1000
0000
0001
0000
,
1000
0000
0010
0010
,
0000
0000
0000
0000
,
0000
0000
0100
0000
,
0010
0000
0100
0000
,
0010
0000
1000
0000
,
0000
0000
0100
0000
,
0000
0000
0001
0000
,
0000
0000
0010
0000
,
0000
0000
1000
0000
,
0000
0000
0100
0000
,
0000
0000
0001
0000
,
0000
0000
0010
0000
,
0000
0000
1000
0000
,
0100
0000
0010
0000
,
0001
0000
1000
0000
,
0100
0000
0010
0000
,
0010
0000
0001
0000
,
0010
0000
0100
0000
,
1000
0000
0001
0000
,
0010
0000
0100
0000
,
0100
0000
1000
0000
,
0000
0000
0010
0000
,
0000
0000
0001
0000
,
0000
0000
0100
0000
,
1000
0000
0000
0000
,
0100
0000
0000
0000
,
0001
0000
0000
0000
,
0020
0000
0030
0000
,
1000
0000
0000
0000
,
0001
0000
0000
0000
,
1000
0000
0000
0000
,
0001
0000
0000
0000
,
0100
0000
0000
0000
,
0010
0000
0000
0000
,
0100
0000
0000
0000
,
0010
0000
0000
0000
,
0200
0000
0000
0300
;

//---------------dance-single - ----------------
#NOTES:
     dance-single:
     :
     Easy:
     4:
     0.158126,0.204870,0.116514,0.038838,0.000000,114.000000,102.000000,12.000000,4.000000,0.000000,0.000000,0.158126,0.204870,0.116514,0.038838,0.000000,114.000000,102.000000,12.000000,4.000000,0.000000,0.000000:
0000
0000
0000
0000
,
0000
0000
0000
0000
,
0000
0000
0000
0000
,
0000
0000
0000
0000
,
0000
0000
1000
0000
,
0001
0000
1000
0000
,
0001
0000
1000
0000
,
0001
0001
0001
0000
,
1000
0000
0010
0000
,
0100
0000
0010
0000
,
0100
0000
0010
0000
,
0100
0100
0100
0000
,
0010
0000
1000
1000
,
0001
0001
0000
0100
,
0000
1000
0000
0010
,
0000
0001
0000
0100
,
0010
0100
0010
0010
,
0100
0100
0000
0001
,
0000
0010
0000
1000
,
0000
0100
0000
0001
,
1000
0001
1001
0000
,
0100
0000
1001
0000
,
0100
0000
1001
0000
,
0010
0000
1001
0000
,
0010
0000
0110
0000
,
1000
0000
0110
0000
,
0001
0000
0100
0010
,
1000
0001
0200
0300
,
0010
0010
1000
0000
,
0001
0000
1000
0000
,
0001
0000
1000
0000
,
0001
0000
1000
0001
,
1000
1000
0010
0000
,
0100
0000
0010
0000
,
0100
0000
0010
0000
,
0100
0000
0010
0100
,
0010
0010
1000
0000
,
0100
0000
0001
0000
,
0010
0000
1000
0000
,
0100
0000
1001
0000
,
0010
0000
0001
0000
,
0100
0000
1000
0000
,
0010
0000
0001
0000
,
0200
0000
0300
0000
,
1001
0000
0000
0000
,
1000
0000
0000
0000
,
1001
0000
0000
0000
,
0001
0000
0000
0000
,
0110
0000
0000
0000
,
0100
0000
0000
0000
,
0110
0000
0000
0000
,
0010
0000
0000
0000
,
2002
0000
0000
3003
;

//---------------dance-double - ----------------
#NOTES:
     dance-double:
     :
     Easy:
     4:
     0.151191,0.204870,0.126223,0.048547,0.000000,109.000000,96.000000,13.000000,5.000000,0.000000,0.000000,0.151191,0.204870,0.126223,0.048547,0.000000,109.000000,96.000000,13.000000,5.000000,0.000000,0.000000:
00000000
00000000
00000000
00000000
,
00000000
00000000
00000000
00000000
,
00000000
00000000
00000000
00000000
,
00000000
00000000
00000000
00000000
,
00000000
00000000
00001000
00000000
,
01000000
00000000
00001000
00000000
,
01000000
00000000
00001000
00000000
,
00010000
00010000
00010000
00000000
,
00001000
00000000
00010000
00000000
,
00000010
00000000
00010000
00000000
,
00000010
00000000
00010000
00000000
,
00001000
00001000
00001000
00000000
,
00010000
00000000
01000000
01000000
,
10000000
10000000
00000000
00100000
,
00000000
00010000
00000000
00001000
,
00000000
00010000
00000000
01000000
,
00000000
00010000
00001000
00001000
,
00000010
00000010
00000000
00000001
,
00000000
00000100
00000000
00001000
,
00000000
00010000
00000000
00001000
,
00010000
00001000
00011000
00000000
,
00000000
00000000
10010000
00000000
,
00000000
00000000
00011000
00000000
,
00000000
00000000
00001001
00000000
,
00000000
00000000
00011000
00000000
,
00000000
00000000
10010000
00000000
,
10000000
00000000
00100000
00010000
,
00001000
00010000
00000020
00000030
,
00001000
00001000
00000001
00000000
,
00000100
00000000
00000001
00000000
,
00000100
00000000
00000001
00000000
,
00000100
00000000
00001000
00010000
,
00100000
10000000
01000000
00000000
,
10000000
00000000
01000000
00000000
,
10000000
00000000
01000000
00000000
,
10000000
00000000
01000000
00010000
,
00001000
00000010
00000001
00000000
,
00000100
00000000
00001000
00000000
,
00010000
00000000
00100000
00000000
,
10000000
00000000
10010000
00000000
,
01000000
00000000
00100000
00000000
,
00010000
00000000
00001000
00000000
,
00000100
00000000
00000010
00000000
,
00000220
00000000
00000330
00000000
,
00001001
00000000
00000000
00000000
,
00001000
00000000
00000000
00000000
,
00011000
00000000
00000000
00000000
,
00010000
00000000
00000000
00000000
,
10010000
00000000
00000000
00000000
,
00010000
00000000
00000000
00000000
,
00011000
00000000
00000000
00000000
,
00001000
00000000
00000000
00000000
,
00002002
00000000
00000000
00003003
;

//---------------dance-single - ----------------
#NOTES:
     dance-single:
     :
     Medium:
     6:
     0.263543,0.332914,0.058257,0.407799,0.000000,190.000000,184.000000,6.000000,42.000000,0.000000,0.000000,0.263543,0.332914,0.058257,0.407799,0.000000,190.000000,184.000000,6.000000,42.000000,0.000000,0.000000:
0000
0000
0000
0000
,
0000
0000
0000
0000
,
0000
0000
0000
0000
,
0000
0000
0000
0000
,
0000
0000
0000
0000
2000
0000
3000
0001
,
0100
0001
0000
2000
0000
0000
3000
0001
,
0010
0001
0000
2000
0000
0000
3000
0001
,
0100
0001
0000
2000
0000
0000
3010
0000
,
0010
0000
0100
0000
0002
0000
0003
1000
,
0010
1000
0000
0002
0000
0000
0003
1000
,
0100
1000
0000
0002
0000
0000
0003
1000
,
0010
1000
0000
0002
0000
0000
0103
0000
,
0100
0010
1010
0101
,
0001
0010
0001
0000
1000
0000
0001
0000
,
1000
0100
1000
0000
0001
0000
0100
0000
,
0010
1000
0002
0103
,
2000
3010
0011
1100
,
1000
0010
1000
0000
0010
0000
0100
0000
,
0001
0100
0001
0000
1000
0000
0010
0000
,
0100
0001
2000
3100
,
0002
0013
2000
0100
,
0100
3100
0002
0010
,
0010
0013
2000
0010
,
0010
3010
0002
0100
,
0100
0103
2000
0001
,
0001
0010
0010
0100
,
0100
3010
0002
1000
,
0100
0010
2000
3003
,
0010
0100
0000
0100
0020
0000
0030
1000
,
0100
0010
0000
0020
0000
0000
0030
0001
,
0100
0010
0000
0020
0000
0000
0030
1000
,
0100
0010
0000
0020
0000
0000
0031
0000
,
0001
1000
0010
0000
0200
0000
0300
0001
,
0010
0100
0000
0200
0000
0000
0300
1000
,
0010
0100
0000
0200
0000
0000
0300
0001
,
0010
0100
0000
0200
0000
0000
1300
0000
,
1000
0000
0001
0000
0010
0001
0000
0100
,
0001
0000
1000
0000
0010
1000
0000
0100
,
1000
0000
0001
0000
0100
0001
0000
0010
,
0001
1000
1001
0000
,
0001
0100
0000
1000
0100
0000
0010
0000
,
1000
0010
0000
0001
0010
0000
1000
0000
,
0001
0100
0000
1000
0010
0000
0001
0000
,
2002
3003
0100
0010
,
2000
0000
0100
3000
,
0002
0000
0100
0003
,
2000
0000
0010
3000
,
0002
0000
0010
0003
,
2000
0000
3200
0000
,
0320
0000
0032
0000
,
0203
0000
2300
0000
,
3020
0000
0032
0000
,
2000
0000
0000
3003
;

//---------------dance-double - ----------------
#NOTES:
     dance-double:
     :
     Medium:
     7:
     0.263543,0.332914,0.058257,0.427218,0.000000,190.000000,184.000000,6.000000,44.000000,0.000000,0.000000,0.263543,0.332914,0.058257,0.427218,0.000000,190.000000,184.000000,6.000000,44.000000,0.000000,0.000000:
00000000
00000000
00000000
00000000
,
00000000
00000000
00000000
00000000
,
00000000
00000000
00000000
00000000
,
00000000
00000000
00000000
00000000
,
00000000
00000000
00000000
00000000
00002000
00000000
00003000
01000000
,
00010000
01000000
00000000
00002000
00000000
00000000
00003000
00100000
,
00010000
00100000
00000000
00002000
00000000
00000000
00003000
01000000
,
00010000
01000000
00000000
00002000
00000000
00000000
00103000
00000000
,
00100000
00000000
00001000
00000000
00020000
00000000
00030000
00000010
,
00001000
00000010
00000000
00020000
00000000
00000000
00030000
00000100
,
00001000
00000100
00000000
00020000
00000000
00000000
00030000
00000010
,
00001000
00000010
00000000
00020000
00000000
00000000
00030100
00000000
,
00000100
00010000
00010010
01001000
,
01000000
00010000
00100000
00000000
00001000
00000000
00010000
00000000
,
00000100
00001000
00000010
00000000
00010000
00000000
00001000
00000000
,
00100000
00010000
02000000
03002000
,
00023000
00030010
00101000
00010100
,
00000100
00000010
00001000
00000000
00010000
00000000
00001000
00000000
,
00100000
01000000
00010000
00000000
00001000
00000000
00010000
00000000
,
00000010
00001000
00000200
00020300
,
00032000
00103000
00200000
00010000
,
01000000
00310000
00000200
00001000
,
00000010
00001300
00200000
00010000
,
10000000
00310000
00000200
00001000
,
00000001
00001300
00020000
00000010
,
00001000
00100000
01000000
00100000
,
00001000
00030010
00002000
00100000
,
00000010
01000000
00020000
00033000
,
00010000
00001000
00000000
00001000
00020000
00000000
00030000
00000100
,
00001000
00000010
00000000
00020000
00000000
00000000
00030000
00000100
,
00000010
00001000
00000000
00020000
00000000
00000000
00030000
00000100
,
00001000
00000010
00000000
00020000
00000000
00000000
00031000
00000000
,
00010000
00001000
00010000
00000000
00002000
00000000
00003000
00100000
,
00010000
01000000
00000000
00002000
00000000
00000000
00003000
00100000
,
01000000
00010000
00000000
00002000
00000000
00000000
00003000
00100000
,
00010000
01000000
00000000
00002000
00000000
00000000
00013000
00000000
,
00001000
00000000
00010000
00000000
00100000
10000000
00000000
01000000
,
00010000
00000000
00001000
00000000
00000100
00000001
00000000
00000010
,
00001000
00000000
00010000
00000000
00100000
10000000
00000000
01000000
,
00010000
00001000
00011000
00000000
,
00010000
00100000
00000000
10000000
01000000
00000000
00010000
00000000
,
00001000
00000100
00000000
00000001
00000010
00000000
00001000
00000000
,
00010000
00100000
00000000
10000000
01000000
00000000
00010000
00000000
,
00022000
00033000
00001000
00000010
,
00000002
00000000
00000100
00000003
,
00002000
00000000
00000010
00003000
,
00020000
00000000
00100000
00030000
,
20000000
00000000
01000000
30000000
,
00020000
00000000
02030000
00000000
,
03200000
00000000
00320000
00000000
,
00032000
00000000
00003200
00000000
,
00000320
00000000
00020030
00000000
,
00002000
00000000
00000000
00033000
;

//---------------dance-single - ----------------
#NOTES:
     dance-single:
     :
     Hard:
     9:
     0.373122,0.437413,0.359251,0.466056,0.009709,269.000000,232.000000,37.000000,48.000000,0.000000,0.000000,0.373122,0.437413,0.359251,0.466056,0.009709,269.000000,232.000000,37.000000,48.000000,0.000000,0.000000:
0000
0000
0000
0000
,
0000
0000
0000
0000
,
0000
0000
0000
0000
,
0000
0000
0000
0000
,
0000
0000
0000
0000
2002
3000
0000
1000
,
1000
1003
0000
2020
0000
3000
0000
1000
,
1000
1030
0000
2200
0000
3000
0000
1000
,
1000
1300
0000
1100
0000
0000
0011
0000
,
0010
0100
1000
0000
2002
0003
0000
0001
,
0001
3001
0000
0022
0000
0003
0000
0001
,
0001
0031
0000
0202
0000
0003
0000
0001
,
0001
0301
0000
0101
0000
0000
1010
0000
,
0010
0100
0001
0000
0011
0000
1100
0000
,
1000
0010
0100
0000
0010
1000
0100
1000
,
0001
1000
0100
0000
0110
0000
0010
0001
,
0100
0001
1000
0001
0000
0101
0000
1100
,
0000
0011
0000
0010
1010
0000
0101
0000
,
0001
0010
0100
0000
0010
0001
0100
0001
,
1000
0001
0010
0000
0220
0330
0000
0100
,
1000
0010
0100
0001
0000
0011
0000
1010
,
0000
1100
0100
0010
0002
0000
0100
0000
,
1000
0010
0100
1000
,
0010
0103
2000
0010
,
0100
0001
0010
0100
,
0001
3010
0200
0001
,
0010
1000
0001
0010
,
1000
0000
0000
0000
0301
0000
0000
0000
0001
0000
0000
0010
0000
0000
1000
0000
,
0000
0100
0000
0000
0001
0000
1000
0000
2002
0000
0000
0000
3003
0000
0000
0000
,
0010
0100
0000
0100
0220
0300
0000
0100
,
0100
0130
0000
2020
0000
3000
0000
1000
,
1000
1030
0000
0022
0000
0003
0000
0001
,
0001
0031
0000
0110
0000
0100
0010
0100
,
0001
0010
0100
1000
2020
3000
0000
0001
,
0001
0031
0000
0202
0000
0003
0000
1000
,
1000
1300
0000
2020
0000
3000
0000
0100
,
0100
0130
0000
0110
0000
0001
1000
0000
,
1010
0000
0101
0000
0001
0010
0000
0010
,
1000
0100
0010
0000
0001
0100
0000
0100
,
1000
0010
0100
0000
0001
0010
0000
0010
,
1000
0100
0001
0000
0220
0000
0330
0000
,
1000
0010
0000
0010
0001
0100
0010
0000
,
1000
0100
0000
0100
0001
0010
0100
0000
,
1000
0010
0000
0010
0001
0100
1000
0000
,
0220
0000
0330
0000
1000
0010
0100
0001
,
2000
0000
0000
0010
0010
0010
0000
3020
,
0000
0000
0000
0001
0001
0001
0000
0032
,
0000
0000
0000
0100
0100
0100
0000
0203
,
0000
1000
1300
0000
2002
0000
3003
0000
,
0020
0000
0000
1000
0100
1000
0000
2030
,
0000
0000
0000
0100
0001
0100
0000
3200
,
0000
0000
0000
0001
0010
0001
0000
0302
,
0000
0010
1003
0000
2002
0000
3003
0000
,
0001
0010
0100
1000
0001
0010
0200
0000
,
0300
0000
0000
0000
;

//---------------dance-double - ----------------
#NOTES:
     dance-double:
     :
     Hard:
     10:
     0.352316,0.437413,0.378670,0.378670,0.000000,254.000000,215.000000,39.000000,39.000000,0.000000,0.000000,0.352316,0.437413,0.378670,0.378670,0.000000,254.000000,215.000000,39.000000,39.000000,0.000000,0.000000:
// measure 0
00000000
00000000
00000000
00000000
,  // measure 1
00000000
00000000
00000000
00000000
,  // measure 2
00000000
00000000
00000000
00000000
,  // measure 3
00000000
00000000
00000000
00000000
,  // measure 4
00000000
00000000
00000000
00000000
00021000
00000000
00000000
00000100
,  // measure 5
00000100
00030100
00000000
00012000
00000000
00000000
00000000
00100000
,  // measure 6
00100000
00103000
00000000
00021000
00000000
00000000
00000000
00000010
,  // measure 7
00000010
00030010
00000000
00011000
00000000
00000000
01001000
00000000
,  // measure 8
01000000
00001000
00010000
00000000
00012000
00000000
00000000
00000010
,  // measure 9
00000010
00003010
00000000
00021000
00000000
00000000
00000000
00100000
,  // measure 10
00100000
00130000
00000000
00012000
00000000
00000000
00000000
00000100
,  // measure 11
00000100
00003100
00000000
00011000
00000000
00000000
01010000
00000000
,  // measure 12
01000000
10000000
00100000
00000000
01100000
00000000
10010000
00000000
,  // measure 13
00010000
01000000
00001000
00000000
00010000
00001000
00100000
00001000
,  // measure 14
00010000
00001000
01000000
00000000
01100000
00000000
00100000
00010000
,  // measure 15
00001000
00010000
00100000
00010000
00000000
00011000
00000000
00001100
,  // measure 16
00000000
00000101
00000000
00000001
00000011
00000000
00001100
00000000
,  // measure 17
00001000
00000010
00010000
00000000
00001000
00010000
00000100
00010000
,  // measure 18
00001000
00010000
00000010
00000000
00000220
00000330
00000000
00000100
,  // measure 19
00001000
00010000
00100000
01000000
00000000
01010000
00000000
10100000
,  // measure 20
00000000
11000000
01000000
00010000
00002000
00000000
00100000
00000000
,  // measure 21
01000000
00010000
00000100
00000010
,  // measure 22
00010000
00103000
00020000
00000100
,  // measure 23
00000010
00001000
00100000
01000000
,  // measure 24
00001000
00030100
00002000
00100000
,  // measure 25
01000000
00010000
00000100
00000001
,  // measure 26
00000010
00013000
02002000
00000000
,  // measure 27
00000000
03003000
00020200
00030300
,  // measure 28
00010000
00001000
00000000
00001000
00021000
00000000
00000000
01000000
,  // measure 29
01000000
01030000
00000000
00012000
00000000
00000000
00000000
00000010
,  // measure 30
00000010
00003010
00000000
00021000
00000000
00000000
00000000
10000000
,  // measure 31
10000000
10030000
00000000
01100000
00000000
10000000
01000000
00100000
,  // measure 32
00010000
01000000
00100000
00010000
00012000
00000000
00000000
00000100
,  // measure 33
00000100
00003100
00000000
00021000
00000000
00000000
00000000
01000000
,  // measure 34
01000000
01030000
00000000
00012000
00000000
00000000
00000000
00000001
,  // measure 35
00000001
00003001
00000000
00000110
00000000
00000001
00000100
00000000
,  // measure 36
00001100
00110000
00100000
01000000
,  // measure 37
10000000
00100000
00010000
00000000
00000100
00000000
00000010
00000000
,  // measure 38
00000001
00000100
00001000
00000000
01000000
00000000
00100000
00000000
,  // measure 39
10000000
01000000
00010000
00000000
00022000
00000000
00033000
00000000
,  // measure 40
00000010
00000000
00000100
00000000
00000001
00000010
00001000
00000000
,  // measure 41
01000000
00000000
00100000
00000000
10000000
01000000
00010000
00000000
,  // measure 42
00000100
00000000
00000010
00000000
00000001
00000100
00001000
00000000
,  // measure 43
00022000
00000000
00033000
00000000
00010000
00001000
00010000
00100000
,  // measure 44
20000000
00000000
00000000
01000000
01000000
01000000
00000000
32000000
,  // measure 45
00000000
00000000
00000000
00010000
00010000
00010000
00000000
03020000
,  // measure 46
00000000
00000000
00000000
00001000
00001000
00001000
00000000
00032000
,  // measure 47
00000000
00000010
00003010
00000000
00000022
00000000
00000033
00000000
,  // measure 48
00000002
00000000
00000000
00000100
00001000
00000100
00000000
00000203
,  // measure 49
00000000
00000000
00000000
00001000
00000001
00001000
00000000
00002300
,  // measure 50
00000000
00000000
00000000
00010000
00000100
00010000
00000000
00023000
,  // measure 51
00000000
00001000
01030000
00000000
22000000
00000000
33000000
00000000
,  // measure 52
20020000
00000000
00000000
00000000
,  // measure 53
30030000
00000000
00000000
00000000
;
