#VERSION:0.83;
#TITLE:Teddy Bear;
#SUBTITLE:;
#ARTIST:STAYC;
#TITLETRANSLIT:;
#SUBTITLETRANSLIT:;
#ARTISTTRANSLIT:;
#GENRE:K-POP;
#ORIGIN:;
#CREDIT:MUINELIM;
#BANNER:Teddy Bear.png;
#BACKGROUND:Teddy Bear-bg.png;
#PREVIEWVID:;
#JACKET:Teddy Bear-jacket.png;
#CDIMAGE:;
#DISCIMAGE:;
#LYRICSPATH:;
#CDTITLE:;
#MUSIC:Teddy Bear.mp3;
#OFFSET:-0.126000;
#SAMPLESTART:41.974739;
#SAMPLELENGTH:14.117645;
#SELECTABLE:YES;
#DISPLAYBPM:119.000000;
#BPMS:0.000=119.000;
#STOPS:;
#DELAYS:;
#WARPS:;
#TIMESIGNATURES:0.000=4=4;
#TICKCOUNTS:0.000=4;
#COMBOS:0.000=1;
#SPEEDS:0.000=1.000=0.000=0;
#SCROLLS:0.000=1.000;
#FAKES:;
#LABELS:0.000=Song Start;
#BGCHANGES:0.000=Teddy Bear.avi=1.000=0=0=0=StretchNoLoop====,
99999=-nosongbg-=1.000=0=0=0 // don't automatically add -songbackground-
;
#KEYSOUNDS:;
#ATTACKS:
;

//---------------dance-single - ----------------
#NOTEDATA:;
#CHARTNAME:;
#STEPSTYPE:dance-single;
#DESCRIPTION:;
#CHARTSTYLE:;
#DIFFICULTY:Beginner;
#METER:3;
#RADARVALUES:0.109128,0.169514,0.047251,0.000000,0.000000,97.000000,91.000000,6.000000,0.000000,0.000000,0.000000,0.000000,0.000000,0.000000,0.109128,0.169514,0.047251,0.000000,0.000000,97.000000,91.000000,6.000000,0.000000,0.000000,0.000000,0.000000,0.000000,0.000000;
#CREDIT:MILEN;
#DISPLAYBPM:119.000000;
#NOTES:
0000
0000
0000
0000
,
0000
0000
0000
0000
,
0000
0000
0000
0000
,
0000
0000
0000
0000
,
0000
0000
0000
0100
,
0000
0100
0000
0100
,
0000
0000
0000
0010
,
0000
0010
0000
0010
,
0000
0000
0000
1000
,
0000
0000
0000
0001
,
0000
0000
0000
1000
,
0000
0000
0000
0001
,
0000
0000
0000
1001
,
0000
0000
0000
0000
,
0000
0000
0100
0000
,
0100
0000
0000
0010
,
0000
0010
0000
1001
,
0000
0000
0000
0000
,
0000
0000
0010
0010
,
0000
0100
0000
0010
,
0000
0100
0000
0001
,
0000
1000
0000
0001
,
0000
0001
0000
1000
,
0000
0001
0000
1000
,
0000
1000
0000
0010
,
0000
0100
0000
0010
,
0000
0100
0100
0000
,
0000
1001
0000
1000
,
0000
0001
0000
1000
,
0000
0100
0000
0100
,
0000
0100
0000
1000
,
0000
0010
0000
0010
,
0000
0010
0000
0001
,
0000
0100
0000
0100
,
0000
0100
0100
0000
,
0000
0000
0000
1000
,
0000
0001
0000
1000
,
0000
0000
0000
0000
,
0000
0000
0000
0001
,
0000
0000
0000
0000
,
0000
0000
0000
0100
,
0000
0000
0000
0000
,
0000
0000
0000
0010
,
0000
0000
0000
0000
,
0000
0000
0000
1001
,
0000
0000
0000
1000
,
0000
0001
0000
1000
,
0000
1000
0000
0001
,
0000
1000
0000
0001
,
0000
0001
0000
0100
,
0000
0010
0000
0100
,
0000
0010
0010
0000
,
0000
1001
0000
0001
,
0000
1000
0000
0001
,
0000
0010
0000
0010
,
0000
0010
0000
0001
,
0000
0100
0000
0100
,
0000
0100
0000
1000
,
0000
0010
0000
0010
,
0000
0010
0010
0000
,
0100
0100
0100
0100
,
0000
0000
1001
0000
;

//---------------dance-single - ----------------
#NOTEDATA:;
#CHARTNAME:;
#STEPSTYPE:dance-single;
#DESCRIPTION:;
#CHARTSTYLE:;
#DIFFICULTY:Easy;
#METER:4;
#RADARVALUES:0.163129,0.218832,0.133878,0.063002,0.000000,145.000000,128.000000,17.000000,8.000000,0.000000,0.000000,0.000000,0.000000,0.000000,0.163129,0.218832,0.133878,0.063002,0.000000,145.000000,128.000000,17.000000,8.000000,0.000000,0.000000,0.000000,0.000000,0.000000;
#CREDIT:MILEN;
#DISPLAYBPM:119.000000;
#NOTES:
0000
0000
0000
0000
,
0000
0000
0000
0000
,
0000
0000
0000
0000
,
0000
0000
0000
0000
,
0000
0000
0000
1000
,
0000
0001
0000
1000
,
0000
0100
0100
0001
,
0000
1000
0000
0001
,
0000
0010
0010
1000
,
0000
0100
0000
0010
,
0000
0001
0000
1001
,
0000
0100
0000
0010
,
0000
1000
0001
1000
,
0000
0010
0010
0020
,
0000
0030
0100
0000
,
0100
0000
0100
0100
,
0001
1000
0010
0010
,
0000
1000
0000
0001
,
0000
0100
0000
0020
,
0030
0010
1000
0001
,
0100
0100
0000
1001
,
0000
0110
0000
1000
,
0001
1000
0000
0001
,
0000
0100
0000
1000
,
0000
0010
0000
1001
,
0000
0110
0000
0001
,
1000
0001
0001
0000
,
0100
0200
0300
0010
,
1000
0001
0100
0010
,
0000
1000
0000
0100
,
0000
0010
0000
1001
,
0000
0001
0000
0010
,
0000
0100
0000
1001
,
0000
1000
0000
0100
,
0000
0010
0010
0000
,
0001
1000
0001
0010
,
0100
1000
0000
1001
,
0000
0000
0000
0000
,
0000
0000
0000
0001
,
0000
0000
0000
1000
,
0000
0000
0000
1001
,
0000
0000
0000
0000
,
0000
0000
0000
1000
,
0000
0000
0000
0001
,
0000
0000
0000
0220
,
0000
0330
0000
0110
,
0000
1001
0000
0100
,
0010
0100
0000
0001
,
0000
0010
0000
1000
,
0000
0100
0000
0110
,
0000
1001
0000
0010
,
0100
0010
0010
0000
,
1000
2000
3000
0001
,
0100
0010
1000
0001
,
0000
0100
0000
0010
,
0000
1000
0000
0110
,
0000
0010
0000
0100
,
0000
0001
0000
0110
,
0000
0100
0000
0010
,
0000
1000
0001
0000
,
0001
0100
0010
1000
,
0001
0100
0220
0330
;

//---------------dance-double - ----------------
#NOTEDATA:;
#CHARTNAME:;
#STEPSTYPE:dance-double;
#DESCRIPTION:;
#CHARTSTYLE:;
#DIFFICULTY:Easy;
#METER:5;
#RADARVALUES:0.159754,0.218832,0.133878,0.063002,0.000000,142.000000,125.000000,17.000000,8.000000,0.000000,0.000000,0.000000,0.000000,0.000000,0.159754,0.218832,0.133878,0.063002,0.000000,142.000000,125.000000,17.000000,8.000000,0.000000,0.000000,0.000000,0.000000,0.000000;
#CREDIT:MILEN;
#DISPLAYBPM:119.000000;
#NOTES:
00000000
00000000
00000000
00000000
,
00000000
00000000
00000000
00000000
,
00000000
00000000
00000000
00000000
,
00000000
00000000
00000000
00000000
,
00000000
00000000
00000000
00001000
,
00000000
00010000
00000000
01000000
,
00000000
00010000
00010000
00010000
,
00000000
00001000
00000000
00000010
,
00000000
00001000
00001000
00001000
,
00000000
00010000
00000000
01000000
,
00000000
10000000
00000000
10010000
,
00000000
00010000
00000000
01000000
,
00000000
00001000
00010000
00001000
,
00000000
00000100
00000000
00000002
,
00000000
00000003
00000010
00000000
,
00000010
00000000
00001000
00001000
,
00010000
00001000
00010000
00010000
,
00000000
01000000
00000000
10000000
,
00000000
00100000
00000000
00020000
,
00030000
00001000
00010000
00001000
,
00010000
00001000
00000000
00011000
,
00000000
00011000
00000000
00010000
,
01000000
10000000
00000000
00100000
,
00000000
01000000
00000000
00001000
,
00000000
00010000
00000000
00011000
,
00000000
00011000
00000000
00001000
,
00000100
00000001
00000001
00000000
,
00000010
00000200
00000300
00000010
,
00000000
00000001
00000000
00000100
,
00000000
00001000
00000000
00010000
,
00000000
00001000
00000000
01001000
,
00000000
00010000
00000000
00001000
,
00000000
00010000
00000000
00010100
,
00000000
00001000
00000000
00010000
,
00000000
00001000
00001000
00000000
,
00010000
00000100
00001000
00000100
,
00000010
00000001
00000000
00001001
,
00000000
00000000
00000000
00000000
,
00000000
00000000
00000000
00001000
,
00000000
00000000
00000000
00010000
,
00000000
00000000
00000000
00011000
,
00000000
00000000
00000000
00000000
,
00000000
00000000
00000000
00001000
,
00000000
00000000
00000000
00010000
,
00000000
00000000
00000000
20020000
,
00000000
30030000
00000000
01100000
,
00000000
01100000
00000000
10000000
,
01000000
00010000
00000000
00001000
,
00000000
00000010
00000000
00000001
,
00000000
00000100
00000000
00000110
,
00000000
00000110
00000000
00000001
,
00000010
00001000
00001000
00000000
,
00010000
00020000
00030000
00001000
,
00100000
00010000
01000000
00001000
,
00000000
00010000
00000000
00000100
,
00000000
00001000
00000000
00001001
,
00000000
00000001
00000000
00000100
,
00000000
00001000
00000000
00011000
,
00000000
00010000
00000000
00100000
,
00000000
10000000
01000000
00000000
,
01000000
00010000
00001000
00010000
,
00000010
00000100
00000220
00000330
;

//---------------dance-single - ----------------
#NOTEDATA:;
#CHARTNAME:;
#STEPSTYPE:dance-single;
#DESCRIPTION:;
#CHARTSTYLE:;
#DIFFICULTY:Medium;
#METER:7;
#RADARVALUES:0.281257,0.366197,0.322883,0.283507,0.000000,250.000000,209.000000,41.000000,36.000000,0.000000,0.000000,0.000000,0.000000,0.000000,0.281257,0.366197,0.322883,0.283507,0.000000,250.000000,209.000000,41.000000,36.000000,0.000000,0.000000,0.000000,0.000000,0.000000;
#CREDIT:MILEN;
#DISPLAYBPM:119.000000;
#NOTES:
0000
0000
0000
0000
,
0000
0000
0000
0000
,
0000
0000
0000
0000
,
0000
0000
0000
0000
,
0000
0000
0000
1000
,
0001
0100
0100
0001
,
1000
0010
0200
0301
,
1000
0010
0010
1000
,
0001
0100
0020
1030
,
1000
0001
0101
0100
,
0001
1000
1010
0010
,
1000
0001
1001
1000
,
0001
0100
0110
0020
,
0000
0000
0030
2000
,
0000
0000
3001
0000
,
0001
0000
0001
0010
,
0100
1000
0010
0200
,
0301
0010
0001
1000
,
0100
1000
0001
0100
,
0010
1000
0100
0010
,
1001
0110
1001
1000
,
0001
0100
0000
0100
0001
0000
1000
0000
,
0100
0000
0020
0000
0031
0000
0001
0100
,
0001
0000
1000
0100
1000
0000
0001
0000
,
0010
0200
1300
0001
,
1000
0010
0000
0010
1000
0000
0001
0000
,
0010
0100
2002
3003
,
0100
0010
0100
0000
0010
0000
1000
0000
,
0100
0010
0001
2002
,
3003
1100
0001
0101
,
1000
1100
0001
2002
,
3003
1010
0001
0011
,
1000
1010
0001
2002
,
3003
1010
0010
0110
,
0100
0101
2002
3003
,
1000
0100
0010
0001
0010
0000
0001
0000
,
0100
0220
0000
0330
,
0010
1000
0100
0000
,
0010
0001
0100
0010
,
0000
0010
0000
0020
,
0000
0000
0000
0030
,
1000
0001
0100
0000
,
0001
1000
0010
0100
,
0000
0100
0000
0100
,
0001
1000
2002
0000
,
0000
0000
3003
0001
,
1000
0100
0000
0100
1000
0000
0001
0000
,
0100
0000
0020
0000
1030
0000
1000
0100
,
1000
0000
0001
0100
0001
0000
1000
0000
,
0010
0200
0301
1000
,
0001
0010
0000
0010
0001
0000
1000
0000
,
0010
0100
2002
3003
,
0100
0010
0100
0000
0010
0000
0001
0000
,
0100
0010
1000
2002
,
3003
0101
1000
1100
,
0001
0101
1000
2002
,
3003
0011
1000
1010
,
0001
0011
1000
2002
,
3003
0011
0010
0110
,
0100
1100
2002
3003
,
0001
0100
0010
1000
0010
0000
0110
0000
,
1010
0101
2002
0000
,
3003
0000
0000
0000
;

//---------------dance-double - ----------------
#NOTEDATA:;
#CHARTNAME:;
#STEPSTYPE:dance-double;
#DESCRIPTION:;
#CHARTSTYLE:;
#DIFFICULTY:Medium;
#METER:7;
#RADARVALUES:0.262131,0.292957,0.189005,0.283507,0.000000,233.000000,209.000000,24.000000,36.000000,0.000000,0.000000,0.000000,0.000000,0.000000,0.262131,0.292957,0.189005,0.283507,0.000000,233.000000,209.000000,24.000000,36.000000,0.000000,0.000000,0.000000,0.000000,0.000000;
#CREDIT:MILEN;
#DISPLAYBPM:119.000000;
#NOTES:
00000000
00000000
00000000
00000000
,
00000000
00000000
00000000
00000000
,
00000000
00000000
00000000
00000000
,
00000000
00000000
00000000
00000000
,
00000000
00000000
00000000
00001000
,
00010000
00000010
00000010
00010000
,
00001000
00100000
00002000
00013000
,
00001000
01000000
01000000
00001000
,
00010000
00000100
00020000
00031000
,
00010000
00000100
00010100
00010000
,
00001000
00100000
00101000
00001000
,
00010000
00000010
00010010
00010000
,
00001000
01000000
01001000
00002000
,
00000000
00000000
00003000
00020000
,
00000000
00000000
00031000
00000000
,
00001000
00000000
00001000
00000100
,
00000010
00001000
00000100
00000020
,
00000031
00000100
00000001
00000100
,
00001000
00010000
00001000
00010000
,
00100000
10000000
00100000
10000000
,
01000000
00010000
00011000
00001000
,
00100000
00010000
00000000
00010000
00100000
00000000
00001000
00000000
,
00010000
00000000
00000020
00000000
00001030
00000000
00001000
00000100
,
00000010
00000000
00000100
00000010
00000001
00000000
00000100
00000000
,
00001000
00020000
00031000
00010000
,
00000010
00001000
00000000
00001000
00000010
00000000
00010000
00000000
,
00001000
01000000
20020000
30030000
,
00100000
01000000
00100000
00000000
10000000
00000000
01000000
00000000
,
00010000
00001000
00000010
00002002
,
00003003
00000101
00001000
00010000
,
00100000
10000000
00010000
20020000
,
30030000
10100000
00010000
00001000
,
00000100
00000001
00001000
00002002
,
00003003
00000101
00001000
00010000
,
00100000
10000000
20020000
30030000
,
00010000
01000000
00001000
00010000
00000100
00000000
00001000
00000000
,
00000010
00000220
00000000
00000330
,
00000001
00000010
00001000
00000000
,
00010000
01000000
10000000
00100000
,
00000000
00100000
00000000
00200000
,
00000000
00000000
00000000
00300000
,
10000000
01000000
00010000
00000000
,
00001000
00000010
00000001
00000100
,
00000000
00000100
00000000
00000100
,
00000010
00010000
00022000
00000000
,
00000000
00000000
00033000
00001000
,
01000000
00010000
00000000
00010000
01000000
00000000
00001000
00000000
,
00010000
00000000
00000200
00000000
00001300
00000000
00001000
00000010
,
00000100
00000000
00000010
00000100
00000001
00000000
00000010
00000000
,
00001000
00020000
00031000
00010000
,
00000100
00001000
00000000
00001000
00000100
00000000
00010000
00000000
,
00001000
00100000
20020000
30030000
,
01000000
00100000
01000000
00000000
10000000
00000000
00100000
00000000
,
00010000
00001000
00000100
00002002
,
00003003
00000011
00001000
00010000
,
01000000
10000000
00010000
20020000
,
30030000
11000000
00010000
00001000
,
00000010
00000001
00001000
00002002
,
00003003
00000011
00001000
00010000
,
01000000
10000000
20020000
30030000
,
00010000
00100000
00001000
00010000
00000010
00000000
00001000
00000000
,
00000100
00010000
00022000
00000000
,
00033000
00000000
00000000
00000000
;

//---------------dance-single - ----------------
#NOTEDATA:;
#CHARTNAME:;
#STEPSTYPE:dance-single;
#DESCRIPTION:;
#CHARTSTYLE:;
#DIFFICULTY:Hard;
#METER:10;
#RADARVALUES:0.389260,0.486293,0.322883,0.283507,0.114190,346.000000,305.000000,41.000000,36.000000,0.000000,0.000000,0.000000,0.000000,0.000000,0.389260,0.486293,0.322883,0.283507,0.114190,346.000000,305.000000,41.000000,36.000000,0.000000,0.000000,0.000000,0.000000,0.000000;
#CREDIT:MILEN;
#DISPLAYBPM:119.000000;
#NOTES:
0000
0000
0000
0000
,
0000
0000
0000
0000
,
0000
0000
0000
0000
,
0000
0000
0000
0000
,
0000
0000
0000
1000
,
0001
0000
1000
0001
0100
0000
0001
0000
,
1000
0000
0001
1000
0010
0100
0110
0000
,
0001
1000
0010
0000
1000
0000
0001
0000
,
1000
0001
0010
0100
0110
0000
0001
0000
,
1000
0100
0010
0001
1000
0000
0001
0000
,
1000
0100
0010
0001
1000
0000
1001
0000
,
0001
0100
0010
1000
0001
0000
1000
0000
,
0001
0100
0010
1000
0001
1000
0002
0000
,
0000
0000
0000
0203
,
0000
0000
0010
0000
,
0010
0000
0000
0000
0310
1000
0100
0000
,
1000
0001
0010
0002
,
1003
1100
0001
0011
,
1000
0000
1010
0000
0001
0000
0101
0100
,
0001
0010
0001
1000
0100
1000
0020
0000
,
0230
0000
0000
0000
0302
0000
0000
0000
1003
0000
0000
0000
0001
0000
0000
0011
,
0000
0000
1000
0000
0000
1010
0000
0000
0001
0000
0010
0000
0100
0000
0000
1100
,
0000
0022
0000
0033
0001
0100
0010
1000
,
0001
0000
0010
0000
0100
0000
1000
0000
0010
0000
0000
0000
0110
0000
0000
1010
,
0000
0000
0101
0000
0000
0000
0001
0000
1000
0000
0000
0000
0001
0000
0000
0101
,
0000
0000
1000
0000
0000
1100
0000
0000
0001
0000
0100
0000
0010
0000
0000
1010
,
0000
0101
0000
0100
0020
0000
0000
0031
,
0010
1000
0100
0000
0110
0001
0100
0010
,
1000
0010
0100
0001
0100
0010
2000
0000
,
0000
0000
3001
0000
0010
0000
0100
0000
1000
0000
0010
0000
0100
0000
0000
0001
,
0000
2000
0000
0000
3100
0010
0002
0000
,
0000
0000
1003
0000
0100
0000
0010
0000
0001
0000
0100
0000
0010
0000
0000
1000
,
0000
0002
0000
0000
0013
0100
2000
0000
,
0000
0000
3001
0000
0100
0000
0010
0000
1000
0000
0100
0000
0010
0000
0000
0001
,
0000
1000
0000
0010
0220
0330
0000
0100
,
0001
0000
1000
0000
0010
0000
0100
0010
0100
0000
0000
0000
0101
0000
0000
1010
,
0000
2002
0000
0000
0000
0000
3003
0000
,
0001
0010
0100
1000
0010
0000
0000
0000
,
1000
0000
0100
0000
0010
0000
0001
0000
1000
0000
0100
0000
0010
0000
0000
0001
,
0000
0000
0200
0000
0000
0000
0000
0000
0000
0000
0000
0000
0310
0000
0000
1000
,
0000
0002
0000
0023
0000
0230
0000
0000
,
1300
0010
0100
0001
1000
0000
0000
0000
,
0001
0000
0100
0000
0010
0000
1000
0000
0001
0000
0100
0000
0010
0000
0000
1000
,
0000
0200
0000
0000
0000
0310
0001
1000
,
0010
0100
0001
0000
1001
2002
0000
0000
,
0000
0000
0000
0000
0000
0000
0000
0000
3003
0000
0000
0000
1000
0000
0000
1010
,
0000
0000
0001
0000
0000
0011
0000
0000
1000
0000
0010
0000
0100
0000
0000
0101
,
0000
2020
0000
3030
1000
0100
0010
0001
,
1000
0000
0010
0000
0100
0000
0001
0000
0010
0000
0000
0000
0110
0000
0000
1100
,
0000
0000
0011
0000
0000
0000
0001
0000
1000
0000
0000
0000
1000
0000
0000
1100
,
0000
0000
0001
0000
0000
0101
0000
0000
1000
0000
0100
0000
0010
0000
0000
0011
,
0000
1100
0000
0100
0020
0000
0000
1030
,
0010
0001
0100
0000
0110
1000
0100
0010
,
0001
0010
0100
1000
0100
0010
0002
0000
,
0000
0000
1003
0000
0100
0000
0001
0000
0100
0000
0010
0000
0001
0000
0000
1000
,
0000
0020
0000
0000
0130
0001
2000
0000
,
0000
0000
3001
0000
0010
0000
1000
0000
0010
0000
0100
0000
1000
0000
0000
0001
,
0000
0200
0000
0000
0310
1000
0002
0000
,
0000
0000
1003
0000
0100
0000
0001
0000
1000
0000
0010
0000
0001
0000
0000
0100
,
0000
0010
0000
1000
2002
3003
0000
0001
,
0100
0000
0010
0000
1000
0000
0001
1000
0001
0000
0000
0000
0011
0000
0000
1010
,
0000
0000
1100
0000
0100
0010
0100
0010
0002
0000
0000
0000
0003
0000
0000
0000
;

//---------------dance-double - ----------------
#NOTEDATA:;
#CHARTNAME:;
#STEPSTYPE:dance-double;
#DESCRIPTION:;
#CHARTSTYLE:;
#DIFFICULTY:Hard;
#METER:10;
#RADARVALUES:0.363384,0.389035,0.228381,0.252006,0.098440,323.000000,294.000000,29.000000,32.000000,0.000000,0.000000,0.000000,0.000000,0.000000,0.363384,0.389035,0.228381,0.252006,0.098440,323.000000,294.000000,29.000000,32.000000,0.000000,0.000000,0.000000,0.000000,0.000000;
#CREDIT:MILEN;
#DISPLAYBPM:119.000000;
#NOTES:
// measure 0
00000000
00000000
00000000
00000000
,  // measure 1
00000000
00000000
00000000
00000000
,  // measure 2
00000000
00000000
00000000
00000000
,  // measure 3
00000000
00000000
00000000
00000000
,  // measure 4
00000000
00000000
00000000
00001000
,  // measure 5
00010000
00000000
01000000
10000000
01000000
00000000
00010000
00000000
,  // measure 6
00001000
00000000
00000100
00000001
00000100
00000000
00001000
00000000
,  // measure 7
00010000
00100000
00010000
00000000
00001000
00000000
00010000
00000000
,  // measure 8
00001000
00000010
00001000
00000000
00010000
00000000
00001000
00000000
,  // measure 9
00000100
00000001
00000010
00000000
00001000
00000000
00010000
00000000
,  // measure 10
01000000
10000000
00100000
00000000
00010000
00000000
00011000
00000000
,  // measure 11
00001000
00010000
01000000
00000000
10000000
00000000
00100000
00000000
,  // measure 12
00010000
00001000
00000010
00000000
00000001
00000000
00002001
00000000
,  // measure 13
00000000
00000000
00000000
00003020
,  // measure 14
00000000
00000000
00010000
00000000
,  // measure 15
00010000
00000000
00000000
00000000
00010030
00001000
00100000
00000000
,  // measure 16
01000000
10000000
00100000
00020000
,  // measure 17
00031000
01001000
00010000
00010100
,  // measure 18
00001000
00101000
00010000
00010010
,  // measure 19
00000010
00001000
00000010
00000100
00000001
00000100
00000020
00000000
,  // measure 20
00020030
00000000
00000000
00000000
00032000
00000000
00000000
00000000
00103000
00000000
00000000
00000000
01000000
00000000
00000000
10000000
,  // measure 21
00000000
00000000
00100000
00000000
00000000
00010000
00000000
00000000
00001000
00000000
00010000
00000000
00000100
00000000
00000000
00001100
,  // measure 22
00000000
00000022
00000000
00000033
00000001
00000100
00000010
00001000
,  // measure 23
00000001
00000000
00000100
00000000
00000010
00000000
00010000
00000000
00001000
00000000
00000000
00000000
00011000
00000000
00000000
00100000
,  // measure 24
00000000
00000000
01100000
00000000
00000000
00000000
10000000
00000000
00100000
00000000
00010000
00000000
00001000
00000000
00000000
00100000
,  // measure 25
00000000
00000000
01000000
00000000
00000000
00010000
00000000
00000000
00001000
00000000
00000100
00000000
00000001
00000000
00000000
00000011
,  // measure 26
00000000
00001100
00000000
00001000
00000020
00000000
00000000
00000130
,  // measure 27
00000001
00000010
00001000
00000000
00010000
00001000
00100000
00010000
,  // measure 28
01000000
00001000
00010000
00000100
00001000
00000010
00020000
00000000
,  // measure 29
00000000
00000000
00031000
00000000
00100000
00000000
00010000
00000000
00100000
00000000
01000000
00000000
10000000
00000000
00000000
00100000
,  // measure 30
00000000
00020000
00000000
00000000
00031000
00010000
00011000
00000000
,  // measure 31
00000000
00000000
00010000
00000000
00000010
00000000
00001000
00000000
00000010
00000000
00000100
00000000
00000001
00000000
00000000
00000010
,  // measure 32
00000000
00002000
00000000
00000000
00013000
00001000
00011000
00000000
,  // measure 33
00000000
00000000
00001000
00000000
00100000
00000000
01000000
00000000
10000000
00000000
00100000
00000000
00010000
00000000
00000000
00001000
,  // measure 34
00000000
00000100
00000000
00000001
00002002
00003003
00000000
00001000
,  // measure 35
00000010
00000000
00010000
00000000
00001000
00000000
00100000
00000000
01000000
00000000
00000000
00000000
11000000
00000000
00000000
00100000
,  // measure 36
00000000
00022000
00000000
00000000
00000000
00000000
00033000
00000000
,  // measure 37
00001000
00010000
00100000
01000000
00001000
00000000
00000000
00000000
,  // measure 38
00010000
00000000
00001000
00000000
00000100
00000000
00000010
00000000
00010000
00000000
00001000
00000000
00000100
00000000
00000000
00000001
,  // measure 39
00000000
00000000
00000020
00000000
00000000
00000000
00000000
00000000
00000000
00000000
00000000
00000000
00001030
00000000
00000000
00010000
,  // measure 40
00000000
02000000
00000000
23000000
00000000
30200000
00000000
00000000
,  // measure 41
00310000
00001000
00000010
00000100
00010000
00000000
00000000
00000000
,  // measure 42
00001000
00000000
00010000
00000000
01000000
00000000
00100000
00000000
00001000
00000000
00010000
00000000
01000000
00000000
00000000
10000000
,  // measure 43
00000000
00200000
00000000
00000000
00000000
00000000
00310000
00001000
,  // measure 44
00000100
00000001
00000010
00000000
00001000
00022000
00000000
00000000
,  // measure 45
00000000
00000000
00000000
00000000
00000000
00000000
00000000
00000000
00033000
00000000
00000000
00000000
00000100
00000000
00000000
00000001
,  // measure 46
00000000
00000000
00000010
00000000
00000000
00001000
00000000
00000000
00010000
00000000
00001000
00000000
01000000
00000000
00000000
01010000
,  // measure 47
00000000
20200000
00000000
30300000
10000000
01000000
00100000
00010000
,  // measure 48
10000000
00000000
01000000
00000000
00100000
00000000
00001000
00000000
00010000
00000000
00000000
00000000
00011000
00000000
00000000
00000010
,  // measure 49
00000000
00000000
00000110
00000000
00000000
00000000
00000001
00000000
00000010
00000000
00001000
00000000
00010000
00000000
00000000
00000010
,  // measure 50
00000000
00000000
00000100
00000000
00000000
00001000
00000000
00000000
00010000
00000000
01000000
00000000
10000000
00000000
00000000
10100000
,  // measure 51
00000000
01010000
00000000
00010000
00200000
00000000
00000000
01300000
,  // measure 52
10000000
00100000
00010000
00000000
00001000
00010000
00000010
00001000
,  // measure 53
00000100
00010000
00001000
01000000
00010000
00100000
00002000
00000000
,  // measure 54
00000000
00000000
00013000
00000000
00000010
00000000
00001000
00000000
00000001
00000000
00000010
00000000
00000100
00000000
00000000
00001000
,  // measure 55
00000000
00000020
00000000
00000000
00010030
00001000
00011000
00000000
,  // measure 56
00000000
00000000
00001000
00000000
01000000
00000000
00010000
00000000
10000000
00000000
01000000
00000000
00100000
00000000
00000000
00010000
,  // measure 57
00000000
02000000
00000000
00000000
03001000
00010000
00011000
00000000
,  // measure 58
00000000
00000000
00010000
00000000
00000100
00000000
00000010
00000000
00000001
00000000
00000100
00000000
00001000
00000000
00000000
00010000
,  // measure 59
00000000
00100000
00000000
10000000
20020000
30030000
00000000
00010000
,  // measure 60
01000000
00000000
00001000
00000000
00000100
00000000
00000001
00000000
00000010
00000000
00000000
00000000
00000110
00000000
00000000
00000100
,  // measure 61
00000000
00011000
00010000
01000000
20000000
00000000
30000000
00000000
;
