#TITLE:Swing (feat. Park Kyung);
#SUBTITLE:;
#ARTIST:Lucy from WekiMeki;
#TITLETRANSLIT:;
#SUBTITLETRANSLIT:;
#ARTISTTRANSLIT:;
#GENRE:K-POP;
#CREDIT:;
#BANNER:Swing (feat. Park Kyung).png;
#BACKGROUND:Swing (feat. Park Kyung)-bg.png;
#LYRICSPATH:;
#CDTITLE:;
#MUSIC:Swing (feat. Park Kyung).ogg;
#OFFSET:-0.075000;
#SAMPLESTART:43.575001;
#SAMPLELENGTH:11.980000;
#SELECTABLE:YES;
#DISPLAYBPM:100.000000;
#BPMS:0.000000=100.000000
;
#STOPS:105.000000=1.800000
;
#BGCHANGES:;
#KEYSOUNDS:;
#ATTACKS:;

//---------------dance-single - ----------------
#NOTES:
     dance-single:
     :
     Beginner:
     2:
     0.086958,0.101286,0.000000,0.007905,0.000000,77.000000,77.000000,0.000000,1.000000,0.000000,0.000000,0.086958,0.101286,0.000000,0.007905,0.000000,77.000000,77.000000,0.000000,1.000000,0.000000,0.000000:
0000
0000
0000
0000
,
0000
0000
0000
0000
,
0000
0000
0000
0000
,
0000
0000
0000
0000
,
0000
0100
0000
0100
,
0000
0100
0000
0000
,
0000
0010
0000
0010
,
0000
0010
0000
0000
,
0000
1000
0000
1000
,
0000
1000
0000
0000
,
0000
0001
0000
0001
,
0000
0001
0000
0000
,
0000
0010
0000
0010
,
0000
0010
0000
0000
,
0000
0100
0000
0100
,
0000
0100
0000
0000
,
0000
1000
0000
1000
,
0000
1000
0000
1000
,
0000
0100
0000
0010
,
0000
0001
0000
0000
,
0000
0010
0000
0100
,
0000
1000
0000
0000
,
0000
0010
0000
0100
,
0000
0001
0000
0000
,
0000
0100
0000
0010
,
0000
1000
0000
0000
,
0000
0010
0010
0000
,
1000
0000
0010
0000
,
1000
0000
0001
0000
,
0100
0000
0001
0000
,
0100
0000
0001
0000
,
0010
0000
0100
0000
,
1000
0000
0020
0000
,
0000
0000
0000
0000
,
0000
0000
0030
0000
,
0000
0000
0010
0000
,
1000
0000
0001
0000
,
0000
0000
0010
0000
,
0001
0000
1000
0000
,
0000
0000
0100
0000
,
1000
0000
0001
0000
,
0000
0000
0100
0000
,
0001
0000
1000
0000
,
0000
0000
1000
0000
,
0100
0000
0010
0000
,
0001
0000
1000
0000
,
0100
0000
0100
0000
,
0010
0000
0001
0000
,
0010
0000
0100
0000
,
1000
0000
0001
0000
,
0010
0000
0100
0000
,
1000
1000
0000
0000
;

//---------------dance-single - ----------------
#NOTES:
     dance-single:
     :
     Easy:
     6:
     0.207795,0.263344,0.110674,0.063242,0.000000,184.000000,170.000000,14.000000,8.000000,0.000000,0.000000,0.207795,0.263344,0.110674,0.063242,0.000000,184.000000,170.000000,14.000000,8.000000,0.000000,0.000000:
0000
0000
0000
0000
,
0000
0000
0000
0000
,
0000
0000
0000
0000
,
0000
0000
0000
0000
,
0000
0010
1000
0010
,
0000
1000
0100
1000
,
0000
0100
0001
0100
,
0000
0001
0010
0001
,
0000
0100
0001
0100
,
0000
1000
0100
1000
,
0000
0010
1000
0010
,
1000
0001
0100
0001
,
0100
0001
0000
1000
,
0000
0001
0010
0001
,
0010
0100
1000
0100
,
1000
0100
0100
0000
,
1001
0010
0100
0010
,
0000
0020
0000
0230
,
0000
0310
1000
0010
,
0001
0010
1000
0010
,
0010
0100
0001
0100
,
1000
0100
0001
0100
,
0100
0010
1000
0100
,
0010
0001
1000
0100
,
0010
1001
0100
1001
,
0010
1001
0220
0000
,
0330
0000
1001
0000
1000
0000
0100
0100
,
0100
0000
0000
0000
0001
0000
0010
0010
,
0010
0000
1000
0001
,
0100
0010
0000
0001
,
0100
1000
1001
0010
,
0100
0010
0100
0000
1001
0000
0100
0000
,
0010
0100
0010
0000
2000
0000
0000
0000
,
0000
3000
0002
0000
,
0000
0003
0220
0000
,
0000
0330
0100
1000
,
0100
0001
0100
1000
,
0100
0100
0010
0001
,
0010
1000
0010
0001
,
0010
0010
1000
0100
,
0010
0001
1000
0010
,
0100
0001
1001
0010
,
1001
0000
0100
0000
0010
0100
0010
0000
,
1000
0001
1000
0000
0001
0000
0100
0000
,
1000
0010
0001
0100
,
1000
0010
0010
1000
,
0100
0001
0010
1000
,
0100
0001
0010
0100
,
1000
0001
0100
0010
,
1000
0001
1001
0010
,
1001
0000
0100
0000
0010
0100
0010
0000
,
0100
0110
0000
0000
;

//---------------dance-double - ----------------
#NOTES:
     dance-double:
     :
     Easy:
     6:
     0.205537,0.263344,0.102768,0.047432,0.000000,182.000000,169.000000,13.000000,6.000000,0.000000,0.000000,0.205537,0.263344,0.102768,0.047432,0.000000,182.000000,169.000000,13.000000,6.000000,0.000000,0.000000:
00000000
00000000
00000000
00000000
,
00000000
00000000
00000000
00000000
,
00000000
00000000
00000000
00000000
,
00000000
00000000
00000000
00000000
,
00000000
10000000
01000000
10000000
,
00000000
01000000
00010000
01000000
,
00000000
00010000
00001000
00010000
,
00000000
00001000
00010000
00001000
,
00000000
00000100
00001000
00000100
,
00000000
00000001
00000100
00000001
,
00000000
00000010
00000001
00000010
,
00000001
00001000
00000100
00001000
,
00000100
00001000
00000000
00011000
,
00000000
00010000
01000000
00010000
,
01000000
00100000
10000000
00100000
,
10000000
00100000
00100000
00000000
,
10010000
00010000
01000000
00001000
,
00000000
00020000
00000000
00032000
,
00000000
00013000
01000000
10000000
,
01000000
00010000
01000000
10000000
,
00100000
00010000
00001000
00010000
,
00100000
00010000
00001000
00000010
,
00000001
00000010
00001000
00000010
,
00000001
00000100
00001000
00010000
,
00001000
00011000
01000000
00011000
,
00000100
00011000
00200000
00000000
,
00300000
00000000
10010000
00000000
10000000
00000000
01000000
01000000
,
01000000
00000000
00000000
00000000
00010000
00000000
00001000
00001000
,
00001000
00000000
00100000
01000000
,
00010000
00001000
00000000
00000010
,
00000001
00001000
00001001
00000001
,
00000100
00001000
00011000
00010000
,
00100000
10000000
02000000
00000000
,
00000000
03000000
00020000
00000000
,
00000000
00030000
00002000
00000000
,
00000000
00013000
00001000
00000010
,
00000001
00000010
00001000
00000010
,
00000001
00000100
00001000
00010000
,
00001000
00000100
00001000
00010000
,
01000000
10000000
01000000
00010000
,
01000000
10000000
00100000
00010000
,
00001000
00010000
00011000
00000010
,
00011000
00000000
00100000
00000000
00001000
00010000
00001000
00000000
,
00010000
00001000
00010000
00000000
00001000
00000000
00000100
00000000
,
00000001
00000010
00001000
00010000
,
01000000
10000000
00100000
00010000
,
00001000
00000010
00000001
00000100
,
00001000
00010000
00100000
10000000
,
01000000
00010000
00001000
00000010
,
00000001
00001000
00001001
00000100
,
00011000
00000000
00100000
00000000
10000000
00010000
10000000
00000000
,
01000000
01100000
00000000
00000000
;

//---------------dance-single - ----------------
#NOTES:
     dance-single:
     :
     Hard:
     13:
     0.491256,0.590326,0.189726,0.142295,0.731237,435.000000,411.000000,24.000000,18.000000,0.000000,0.000000,0.491256,0.590326,0.189726,0.142295,0.731237,435.000000,411.000000,24.000000,18.000000,0.000000,0.000000:
// measure 0
0000
0000
0000
0000
,  // measure 1
0000
0000
0000
0000
,  // measure 2
0000
0000
0000
0000
,  // measure 3
0000
0000
0000
0000
,  // measure 4
0000
0000
0100
0001
0000
0000
0100
0010
0000
0000
0100
0001
0000
0100
0000
0010
,  // measure 5
1000
0000
0000
0000
0000
0000
1100
0000
0000
0000
0000
0000
0100
0000
0000
0000
0000
0000
0010
0000
0000
0001
0000
0000
0000
0000
0000
0010
0000
0000
0000
0000
0000
0100
0000
0000
0010
0000
0000
0000
0001
0000
0000
0000
0100
0000
0000
0000
,  // measure 6
1000
0000
0100
0010
0100
0000
0010
1000
0010
0000
0100
0001
0200
0000
0000
0000
,  // measure 7
0310
0000
0010
0000
1000
0000
0100
0010
0000
0100
0000
1000
0100
0000
0010
0000
,  // measure 8
0011
0000
0001
0000
0100
0000
0010
1000
0010
0000
0100
0001
0100
0000
0010
0100
,  // measure 9
0010
0000
1000
0000
1001
0000
0001
0100
0000
0001
0000
1000
0000
0010
0000
0000
,  // measure 10
0110
0000
0100
0000
1001
0000
0001
0010
0100
0000
1000
0010
0000
0100
0000
0000
,  // measure 11
0101
0000
0001
0000
1000
0000
0100
0010
0000
0100
0000
1000
0000
0100
0000
0001
,  // measure 12
0000
0000
0000
0100
0000
0000
0000
0000
0000
0010
0000
0000
0001
0000
0000
0000
0000
0000
0100
0000
0000
0000
0000
0000
1000
0000
0000
0000
0000
0000
0100
0000
0000
0000
0000
0000
0001
0000
0000
0000
0010
0000
0000
0000
0100
0000
0000
0000
,  // measure 13
0010
0000
0001
0000
0100
1000
0000
0100
0000
0001
0000
0010
0000
0100
0000
0010
,  // measure 14
0000
0000
0110
0000
0100
0000
1000
0010
1000
0000
0010
0100
0000
0001
0000
0000
,  // measure 15
0010
0000
0000
0000
0000
0000
0001
0000
0000
0000
0000
0000
0100
0000
0000
0000
0010
0000
0000
0000
1000
0000
0000
0000
0010
0000
0000
0000
0000
0000
1000
0000
0000
0000
0000
0000
1100
0000
0000
0000
0000
0000
0100
0000
0000
0010
0000
0000
,  // measure 16
0100
0010
0000
0001
0000
0100
0000
1000
0000
0001
0000
0020
0000
0000
0000
0000
,  // measure 17
1030
0100
0000
0110
0000
0000
0000
0000
0001
0100
0000
0110
0000
0000
0010
0000
,  // measure 18
1001
0000
1000
0001
0100
0000
0000
1000
0100
0000
0000
0001
0100
0000
0000
1000
,  // measure 19
0100
0000
0000
0001
0010
0000
0000
1000
0010
0000
0000
0001
0010
0000
0000
1000
,  // measure 20
0010
0000
0000
0001
0100
0000
0000
1000
0100
0000
0000
0001
0010
0000
0000
1000
,  // measure 21
0010
0000
0000
0001
0100
0000
0000
1000
0100
0000
0100
0000
0001
0000
0010
0000
,  // measure 22
0100
0000
1000
0000
1001
0000
0000
0001
0010
0000
0000
1000
0010
0000
0000
0001
,  // measure 23
0010
0000
0000
0100
1000
0000
0000
0100
0001
0000
0000
0100
1000
0000
0000
0100
,  // measure 24
0010
0000
0000
0001
0100
0000
0000
1000
0100
0000
0000
0001
0010
0000
0000
1000
,  // measure 25
0010
0000
0000
0001
0100
0000
0000
1000
0001
0000
0000
0010
1000
0000
0100
0000
,  // measure 26
0010
0000
0000
0100
0000
0000
0220
0000
0000
0330
0000
0000
1001
0000
0000
0001
0000
0100
0010
0000
1000
0010
0000
0000
,  // measure 27
0100
0000
0002
0000
0000
0000
0013
0000
0000
0010
0000
0100
0010
0000
0100
0010
0000
0100
1000
0000
0100
1000
0000
0001
,  // measure 28
1000
0000
0000
0002
0000
0000
0103
0000
0100
0010
0000
1000
0010
0000
0100
0000
0000
0001
0000
0000
0010
0000
0000
1000
,  // measure 29
0000
0000
0001
0000
0000
0100
0000
0000
2000
0000
0000
0000
0000
0000
0000
3010
0000
0100
0001
0000
0100
0010
0000
1000
,  // measure 30
0010
0000
0100
0000
0000
1001
0000
0000
0000
0001
0000
0010
0100
0000
1000
0100
0000
0010
0100
0000
0010
0001
0000
0100
,  // measure 31
0010
0000
1000
0000
0000
1100
0000
0000
0000
0001
0000
1000
0001
0000
1000
0100
0000
0020
0000
0000
0031
0100
0000
0010
,  // measure 32
0100
0000
1000
0000
0000
0200
0000
0000
0000
0000
0000
0000
0302
0000
0000
0000
0023
0000
0000
0230
0000
0000
2300
0000
,  // measure 33
0000
0000
0000
3010
0000
0000
0100
0000
0000
0001
0000
0000
0100
0000
0000
0000
0000
0000
0110
0000
0000
0000
0000
0000
1001
0000
0000
0000
0000
0000
0001
0000
0010
0000
0000
0000
0100
0000
1000
0000
0000
0000
0010
0000
0100
0000
0000
0000
,  // measure 34
0000
0001
0000
1000
0000
0000
0100
0000
0000
0010
0000
0000
2002
0000
0000
0000
0000
0000
0000
0000
0000
0000
0000
0000
,  // measure 35
0000
0000
0000
0000
3003
0000
0000
0000
1001
0000
0000
0001
0100
0000
0000
1000
,  // measure 36
0010
0000
0000
0001
0100
0000
0000
1000
0010
0000
0000
0001
0010
0000
0000
1000
,  // measure 37
0100
0000
0000
0001
0010
0000
0000
1000
0100
0000
0000
0010
0001
0000
0000
0100
,  // measure 38
1000
0000
0000
0001
0010
0000
0000
1000
0100
0000
0000
0010
0100
0000
1000
0000
,  // measure 39
0001
0000
0010
0000
0100
0000
1000
0000
1001
0000
0000
0001
0100
0000
0000
1000
,  // measure 40
0010
0000
0000
0001
0100
0000
0000
1000
0010
0000
0000
0001
0010
0000
0000
1000
,  // measure 41
0100
0000
0000
0001
0010
0000
0000
1000
0100
0000
0000
0010
0001
0000
0000
0100
,  // measure 42
1000
0000
0000
0000
0000
0000
0000
0000
0000
0010
0000
0000
0100
0000
0000
0000
0000
0000
0010
0000
0000
0000
1000
0000
0001
0000
0000
0000
0010
0000
0100
0000
0000
0000
1000
0000
0001
0000
0000
0000
0000
0000
0100
0000
0000
0000
1000
0000
,  // measure 43
0100
0000
0000
0000
0000
0000
0001
0000
0000
0000
0000
0000
0010
0000
0000
0000
0100
0000
0010
0000
0000
0000
0000
0000
0210
0000
0000
0000
0000
0000
0000
0000
0000
0000
0000
0000
1300
0000
0000
0000
0000
0000
0000
0000
0000
1000
0000
0000
,  // measure 44
0010
0000
0000
0001
0100
0000
0000
1000
0100
0000
0000
0001
0010
0000
0000
0100
,  // measure 45
1000
0000
0000
0010
0001
0000
0000
0010
1000
0000
0000
0100
0001
0000
0000
0010
,  // measure 46
0100
0000
0000
1000
0001
0000
0000
0100
1000
0000
0000
0010
0001
0000
0100
0000
,  // measure 47
0010
0000
1000
0000
0001
0000
0100
0000
0110
0000
0000
0010
1000
0000
0000
0100
,  // measure 48
0001
0000
0000
0010
0100
0000
0000
1000
0010
0000
0000
0001
0100
0000
0000
1000
,  // measure 49
0100
0000
0000
0001
0010
0000
0000
1000
0001
0000
0000
0100
1000
0000
0000
0010
,  // measure 50
0001
0000
0000
0100
0010
0000
0000
1000
0100
0000
0000
0001
0010
0000
0000
0100
,  // measure 51
0010
0100
2002
0000
3003
0000
0000
0000
;

//---------------dance-double - ----------------
#NOTES:
     dance-double:
     :
     Hard:
     14:
     0.528523,0.590326,0.308305,0.166011,0.691711,468.000000,429.000000,39.000000,21.000000,0.000000,0.000000,0.528523,0.590326,0.308305,0.166011,0.691711,468.000000,429.000000,39.000000,21.000000,0.000000,0.000000:
00000000
00000000
00000000
00000000
,
00000000
00000000
00000000
00000000
,
00000000
00000000
00000000
00000000
,
00000000
00000000
00000000
00000000
,
00000000
00000000
00010000
00001000
00000000
00000000
00010000
00000010
00000000
00000000
00010000
00001000
00000000
00010000
00000000
01000000
,
10000000
00000000
00000000
00000000
00000000
00000000
10100000
00000000
00000000
00000000
00000000
00000000
00100000
00000000
00000000
00000000
00000000
00000000
01000000
00000000
00000000
00010000
00000000
00000000
00000000
00000000
00000000
00100000
00000000
00000000
00000000
00000000
00000000
00001000
00000000
00000000
00010000
00000000
00000000
00000000
00000100
00000000
00000000
00000000
00001000
00000000
00000000
00000000
,
00000010
00000000
00000100
00000001
00000100
00000000
00000010
00001000
00000010
00000000
00010000
00001000
00020000
00000000
00000000
00000000
,
00030100
00000000
00000100
00000000
00000010
00000000
00000001
00000100
00000000
00001000
00000000
00000100
00000010
00000000
00010000
00000000
,
00011000
00000000
00001000
00000000
00100000
00000000
00010000
00100000
00010000
00000000
01000000
00100000
01000000
00000000
00100000
10000000
,
00100000
00000000
10000000
00000000
10010000
00000000
00010000
01000000
00000000
00001000
00000000
00010000
00000000
00000100
00000000
00000000
,
00000110
00000000
00000000
00000000
00001001
00000000
00001000
00000010
00010000
00000000
00001000
00100000
00000000
01000000
00000000
00000000
,
01100000
00000000
00100000
00000000
10000000
00000000
00100000
00010000
00000000
01000000
00000000
10000000
00000000
01000000
00000000
00100000
,
00000000
00000000
00000000
00010000
00000000
00000000
00000000
00000000
00000000
00001000
00000000
00000000
00000010
00000000
00000000
00000000
00000000
00000000
00000100
00000000
00000000
00000000
00000000
00000000
00000010
00000000
00000000
00000000
00000000
00000000
00000001
00000000
00000000
00000000
00000000
00000000
00000100
00000000
00000000
00000000
00001000
00000000
00000000
00000000
00010000
00000000
00000000
00000000
,
00100000
00000000
10000000
00000000
01000000
00100000
00000000
01000000
00000000
00010000
00000000
00001000
00000000
00000010
00000000
00000100
,
00000000
00000000
00000110
00000000
00000010
00000000
00000001
00000100
00000010
00000000
00001000
00000010
00000000
00010000
00000000
00000000
,
00001000
00000000
00000000
00000000
00000000
00000000
00010000
00000000
00000000
00000000
00000000
00000000
00100000
00000000
00000000
00000000
10000000
00000000
00000000
00000000
01000000
00000000
00000000
00000000
10000000
00000000
00000000
00000000
00000000
00000000
01000000
00000000
00000000
00000000
00000000
00000000
01100000
00000000
00000000
00000000
00000000
00000000
00100000
00000000
00000000
00010000
00000000
00000000
,
00100000
00001000
00000000
00010000
00000000
00001000
00000000
00000100
00000000
00000001
00000000
00000020
00000000
00000000
00000000
00000000
,
00001030
00010000
00000000
00010100
00000000
00000000
00000000
00000000
00010000
00001000
00000000
01001000
00000000
00000000
00001000
00000000
,
00011000
00000000
00010000
00000000
00010100
00000000
00000000
00001100
00000000
00000000
00001010
00000000
00000000
00000101
00000000
00000000
,
00000011
00000000
00000000
00000000
00000000
00000000
00000000
00000000
00000000
00001200
00000000
00000000
00000000
00000000
00000000
00000000
00000000
00000000
00010300
00000000
00000000
00000000
00000000
00000000
00010000
00000000
00000000
00000000
00000000
00000000
00001000
00000000
00000000
00000000
00010000
00000000
01000000
00000000
00000000
00000000
00100000
00000000
01000000
00000000
00000000
00000000
10000000
00000000
,
00000000
00000000
00000000
00000000
00200000
00000000
00000000
00000000
00000000
00000000
00000000
00000000
01300000
00000000
00000000
00000000
00000000
00000000
01000000
00000000
00000000
00000000
00000000
00000000
00010000
00000000
00000000
00000000
00000000
00000000
00100000
00000000
00000000
00001000
00000000
00000000
00000000
00000000
00000000
00010000
00000000
00000000
00000000
00000000
00000000
00001000
00000000
00000000
,
00000000
00000100
00000000
00000001
00000000
00000010
00000000
00000100
00000010
00000000
00000001
00000000
00000100
00000000
00001000
00000000
,
00010000
00000000
00100000
00000000
10000000
00000000
01000000
00100000
00000000
00000000
01100000
00000000
01000000
00000000
00010000
00000000
,
00001000
00000000
00010000
00000000
00001000
00000000
00000100
00000000
00000000
00000001
00000000
00000000
00000010
00000000
00000000
00000100
00000000
00000000
00000001
00000000
00000000
00000100
00000000
00000000
,
00001000
00000000
00000010
00000000
00010000
00000000
00001000
00100000
00010000
00000000
01000000
00000000
01100000
00000000
00100000
10000000
,
01000000
00000000
00010000
00000000
00011000
00000000
00000000
01001000
00000000
00000000
00010100
00000000
00000100
00001000
00000000
00000100
,
00000010
00000000
00000000
00000100
00000000
00000000
00000220
00000000
00000000
00000330
00000000
00000000
00001001
00000000
00000000
00001000
00000000
00000010
00010000
00000000
00001000
00010000
00000000
00000000
,
00100000
00000000
20000000
00000000
00000000
00000000
31000000
00000000
00000000
01000000
00000000
00100000
01000000
00000000
00100000
00010000
00000000
00100000
00001000
00000000
00010000
00001000
00000000
00010000
,
00000100
00000000
00000000
00002000
00000000
00000000
00003001
00000000
00001000
00000100
00000000
00000010
00000001
00000000
00000100
00000000
00000000
00001000
00000000
00000000
00010000
00000000
00000000
00100000
,
00000000
00000000
10000000
00000000
00000000
01000000
00000000
00000000
00200000
00000000
00000000
00000000
00000000
00000000
00000000
00310000
00000000
00010000
01000000
00000000
00001000
00010000
00000000
00000100
,
00001000
00000000
00000100
00000000
00000000
00000011
00000000
00000000
00000000
00000001
00000000
00000100
00001000
00000000
00010000
00001000
00000000
00010000
01000000
00000000
10000000
01000000
00000000
00100000
,
01000000
00000000
00010000
00000000
00000000
00011000
00000000
00000000
00000000
00001000
00000000
00010000
00000100
00000000
00001000
00000100
00000000
00000020
00000000
00000000
00000031
00000100
00000000
00001000
,
00010000
00000000
01000000
00000000
00000000
20000000
00000000
00000000
00000000
00000000
00000000
00000000
30200000
00000000
00000000
00000000
00320000
00000000
00000000
00032000
00000000
00000000
00003200
00000000
,
00000000
00000000
00000000
00000301
00000000
00000000
00000010
00000000
00000000
00000100
00000000
00000000
00000010
00000000
00000000
00000000
00000000
00000000
00001000
00000000
00000000
00000000
00000000
00000000
00011000
00000000
00000000
00000000
00000000
00000000
00010000
00000000
01000000
00000000
00000000
00000000
10000000
00000000
01000000
00000000
00000000
00000000
00100000
00000000
00010000
00000000
00000000
00000000
,
00000000
01000000
00000000
00001000
00000000
00000000
00010000
00000000
00000000
00001000
00000000
00000000
00022000
00000000
00000000
00000000
00000000
00000000
00000000
00000000
00000000
00000000
00000000
00000000
,
00000000
00000000
00000000
00000000
00033000
00000000
00000000
00000000
01001000
00000000
00000000
01010000
00000000
00000000
00110000
00000000
,
00000000
00000000
00000000
11000000
00000000
00000000
00000000
00000000
00000000
00000000
00000000
00000000
10100000
00000000
00000000
00000000
00000000
00000000
00000000
00000000
00000000
02010000
00000000
00000000
00000000
00000000
00000000
00000000
00000000
00000000
03001000
00000000
00000000
00000000
00000000
00000000
00001000
00000000
00000000
00000000
00000000
00000000
00010000
00000000
00000000
00000000
00001000
00000000
,
00000100
00000000
00000000
00000000
00000010
00000000
00000100
00000000
00000000
00000000
00000001
00000000
00000000
00000000
00000000
00000000
00000020
00000000
00000000
00000000
00000000
00000000
00000000
00000000
00000130
00000000
00000000
00000000
00000000
00000000
00000100
00000000
00000000
00000000
00000000
00000000
00001000
00000000
00000000
00000000
00000000
00000000
00000010
00000000
00000000
00010000
00000000
00000000
,
00000000
00001000
00000000
00010000
00000000
01000000
00000000
10000000
00000000
00100000
00000000
01000000
00100000
00000000
10000000
00000000
,
01000000
00000000
00010000
00000000
00001000
00000000
00000010
00000000
00000001
00000000
00000100
00000010
00000000
00000000
00000110
00000000
,
00000100
00000000
00000000
00001000
00000000
00000000
00010000
00000000
00001000
00000000
00010000
00000000
01000000
00000000
00000000
10000000
00000000
00000000
00100000
00000000
00000000
01000000
00000000
00000000
,
10000000
00000000
01000000
00000000
00010000
00000000
00100000
00000000
00001000
00000000
00010000
00000010
00001000
00000000
00000100
00000000
,
00000110
00000000
00000000
00000000
00000000
00000000
00000010
00000000
00000000
00000001
00000000
00000000
00000100
00000000
00000000
00000000
00000000
00000000
00001000
00000000
00000000
00000000
00010000
00000000
00001000
00000000
00000000
00000000
00010000
00000000
00100000
00000000
00000000
00000000
10000000
00000000
00100000
00000000
00000000
00000000
00000000
00000000
01000000
00000000
00000000
00000000
00010000
00000000
,
00100000
00000000
00000000
00000000
00000000
00000000
01000000
00000000
00000000
00000000
00000000
00000000
00010000
00000000
00000000
00000000
00001000
00000000
00010000
00000000
00000000
00000000
00000000
00000000
00000100
00000000
00000000
00001000
00000000
00000000
00000000
00000000
00000000
00001000
00000000
00000000
00000010
00000000
00000000
00000000
00000000
00000000
00000010
00000000
00000000
00000100
00000000
00000000
,
00000000
00000000
00000000
00000100
00000000
00000000
00000001
00000000
00000000
00000000
00000000
00000000
00000001
00000000
00000000
00000010
00000000
00000000
00000000
00000000
00000000
00000010
00000000
00000000
00001000
00000000
00000000
00000000
00000000
00000000
00010000
00000000
00000000
00000000
00000000
00000000
01000000
00000000
00000000
00000000
00000000
00000000
10000000
00000000
00000000
00000000
00100000
00000000
,
01000000
00000000
00000000
00000000
10000000
00000000
01000000
00000000
00000000
00000000
00010000
00000000
00000000
00000000
00000000
00000000
00200000
00000000
00000000
00000000
00000000
00000000
00000000
00000000
00301000
00000000
00000000
00000000
00000000
00000000
00001000
00000000
00000000
00000000
00000000
00000000
00010000
00000000
00000000
00000000
00000000
00000000
00000100
00000000
00000000
00001000
00000000
00000000
,
00000000
00000100
00000000
00000001
00000000
00000100
00000000
00000010
00000000
00000001
00000000
00000100
00001000
00000000
00010000
00000000
,
00100000
00000000
10000000
00000000
01000000
00000000
00100000
00000000
01000000
00000000
00010000
00001000
00000000
00000000
00011000
00000000
,
00010000
00000000
00000000
00000100
00000000
00000000
00000010
00000000
00000001
00000000
00001000
00000000
00001001
00000000
00000000
00000001
00000000
00000000
00000100
00000000
00000000
00001000
00000000
00000000
,
00010000
00000000
00000100
00000000
00000010
00000000
00001000
00000000
00010000
00000000
00100000
10000000
01000000
00000000
00100000
00000000
,
01100000
00000000
01000000
00010000
00001000
00000000
00000100
00001000
00010000
00000000
00100000
00010000
00001000
00000000
00000010
00001000
,
00010000
00000000
00001000
00000000
00000000
00010000
02000000
00000000
00000000
00000000
00000000
00000000
03000000
00000000
00000000
00000000
00000000
00000000
00000000
00000000
00000000
00000000
00000000
00000000
;

//---------------dance-single - ----------------
#NOTES:
     dance-single:
     :
     Medium:
     10:
     0.365901,0.366409,0.150200,0.055337,0.083005,324.000000,305.000000,19.000000,7.000000,0.000000,0.000000,0.365901,0.366409,0.150200,0.055337,0.083005,324.000000,305.000000,19.000000,7.000000,0.000000,0.000000:
0000
0000
0000
0000
,
0000
0000
0000
0000
,
0000
0000
0000
0000
,
0000
0000
0000
0000
,
0000
0100
0001
0100
0001
1000
0010
1000
,
0010
0000
1000
0100
1000
0100
0010
0001
,
0010
0000
0001
0100
0010
1000
0001
0000
,
0010
0001
0010
0100
1000
0010
0100
0000
,
0110
0000
0000
0000
0010
0000
0000
1000
0000
0000
0001
0000
0000
0000
0100
0000
,
0000
0000
0110
0010
1000
0001
0010
0100
,
1000
0000
0100
1000
0100
0010
0100
0000
,
0110
0000
0010
0100
1000
0000
0001
0010
,
0100
0010
0001
0000
1000
0010
0100
0000
,
0101
0000
0001
1000
0100
0010
0001
0100
,
0010
0000
1000
0010
0100
0001
0100
0010
,
1000
0010
0100
0001
0010
0000
0011
0001
,
1000
0100
0010
0100
0010
0001
0100
0000
,
0001
1000
0020
0000
1030
0001
0200
0000
,
0310
0000
0000
0000
0010
0000
0000
1000
0000
0000
0100
0000
0000
0010
0000
0000
,
0001
0000
0000
0100
0000
0000
0010
0000
0110
0000
0100
0000
0001
0000
0010
0000
,
0100
0010
0000
0100
0100
1000
0010
0100
,
0010
1000
0001
0100
0010
0100
0001
0010
,
0100
1000
0010
0100
0101
0000
0001
1000
,
0100
0010
0100
1000
0010
0100
0001
0000
,
0011
0000
0010
0000
0100
0000
0000
1000
0000
0000
0100
0000
0010
0000
0000
0001
,
0000
0000
0010
0000
0100
0000
0000
1000
0000
0000
0010
0000
0100
0000
0010
0000
,
0110
0000
1001
0000
1000
0010
0100
0001
,
1000
0010
0010
1000
0100
0010
0001
1000
,
0100
0010
0010
0001
0100
0010
1000
0001
,
0100
0100
0100
0100
0000
1000
0100
0001
,
0010
0100
0110
0010
1000
0010
0001
0010
,
1000
0010
0001
0000
1000
0100
0001
0100
,
1000
0100
0010
0000
2002
0000
0000
0000
,
0000
0000
0000
0000
,
0000
3003
0220
0000
,
0000
0000
0000
0000
0330
0000
0000
0000
0010
0000
0000
0001
0000
0000
0100
0000
,
0000
0010
0000
0000
1000
0000
0000
0100
0000
0000
0010
0000
0110
0000
0100
0000
,
1000
0010
0100
0010
0000
0100
0100
0001
,
0010
0100
0010
0001
1000
0100
0010
0100
,
1000
0010
0100
0001
0010
0100
1100
0000
,
1000
0001
0100
0010
0100
0001
0010
0100
,
1000
0000
0000
0000
1010
0000
0010
0000
0100
0000
0000
0001
0000
0000
0100
0000
,
0010
0000
0000
1000
0000
0000
0010
0000
0100
0000
0001
0000
0010
0000
0100
0000
,
1000
0000
0010
0000
0100
0010
0100
0000
0001
0000
0000
0010
0000
0000
1000
0000
,
0000
0010
0000
0000
0001
0000
0000
0100
0000
0000
0010
0000
0110
0000
0100
0000
,
0001
0100
0010
1000
0000
0100
0010
0001
,
0100
1000
0100
0001
0010
1000
0010
0001
,
0100
0010
1000
0100
0010
0001
1001
0000
,
1000
0010
0100
1000
0100
0001
0010
0100
,
1000
0000
0000
0000
1100
0000
0100
0000
0010
0000
0000
0001
0000
0000
0100
0000
,
1000
0000
0000
0001
0000
0000
0010
0000
1000
0000
0000
0100
0000
0000
0010
0000
,
0001
1000
0000
0010
0200
0000
0000
0000
0300
0000
0000
0000
0000
0000
0000
0000
;

//---------------dance-double - ----------------
#NOTES:
     dance-double:
     :
     Medium:
     11:
     0.360254,0.366409,0.134389,0.039526,0.079053,319.000000,302.000000,17.000000,5.000000,0.000000,0.000000,0.360254,0.366409,0.134389,0.039526,0.079053,319.000000,302.000000,17.000000,5.000000,0.000000,0.000000:
00000000
00000000
00000000
00000000
,
00000000
00000000
00000000
00000000
,
00000000
00000000
00000000
00000000
,
00000000
00000000
00000000
00000000
,
00000000
01000000
00010000
01000000
00001000
00010000
00001000
00010000
,
00000100
00000000
00001000
00000010
00010000
00001000
00010000
00001000
,
00100000
00000000
00010000
01000000
00001000
00010000
00000100
00000000
,
00001000
00000100
00000010
00000001
00001000
00000100
00000010
00000000
,
00000110
00000000
00000000
00000000
00000001
00000000
00000000
00000100
00000000
00000000
00001000
00000000
00000000
00000000
00010000
00000000
,
00000000
00000000
00011000
00001000
00100000
00010000
00100000
01000000
,
10000000
00000000
00100000
01000000
00010000
01000000
00100000
00000000
,
10100000
00000000
10000000
01000000
00010000
00000000
01000000
00100000
,
00010000
00100000
00001000
00000000
00010000
00001000
00000100
00000000
,
00000101
00000000
00000001
00000010
00000100
00000010
00001000
00010000
,
01000000
00000000
10000000
00100000
01000000
00100000
00010000
00001000
,
00000100
00000010
00000100
00000001
00000010
00000000
00001010
00001000
,
00010000
01000000
00010000
00001000
00010000
00100000
01000000
00000000
,
00100000
10000000
02000000
00000000
03100000
00010000
02000000
00000000
,
03001000
00000000
00000000
00000000
00001000
00000000
00000000
00010000
00000000
00000000
00000100
00000000
00000000
00001000
00000000
00000000
,
00000100
00000000
00000000
00000010
00000000
00000000
00000001
00000000
00000101
00000000
00001000
00000000
00000100
00000000
00000010
00000000
,
00000001
00000100
00000000
00001000
00001000
00010000
00100000
01000000
,
00010000
00100000
01000000
00010000
00001000
00100000
01000000
10000000
,
00100000
00010000
00001000
00010000
00011000
00000000
00001000
00010000
,
01000000
00010000
00001000
00000100
00001000
00000100
00000001
00000000
,
00000011
00000000
00000010
00000000
00000001
00000000
00000000
00000100
00000000
00000000
00001000
00000000
00010000
00000000
00000000
00001000
,
00000000
00000000
00010000
00000000
00100000
00000000
00000000
10000000
00000000
00000000
01000000
00000000
00100000
00000000
01000000
00000000
,
01100000
00000000
10010000
00000000
00010000
01000000
00001000
00010000
,
00000100
00000000
00000010
00000010
00000001
00000100
00001000
00010000
,
00100000
00000000
10000000
10000000
01000000
00100000
00010000
01000000
,
00001000
00001000
00001000
00001000
00000000
00010000
00001000
00000100
,
00000001
00000010
00000110
00001000
00000010
00010000
00001000
00100000
,
00010000
01000000
00001000
00000000
00100000
01000000
00010000
00001000
,
00000010
00000100
00010000
00000000
00002000
00000000
00000000
00000000
,
00000000
00000000
00000000
00000000
,
00000000
00000000
00020000
00000000
,
00000000
00000000
00000000
00000000
00033000
00000000
00000000
00000000
00010000
00000000
00000000
00001000
00000000
00000000
01000000
00000000
,
00000000
00010000
00000000
00000000
01000000
00000000
00000000
00100000
00000000
00000000
10000000
00000000
11000000
00000000
00010000
00000000
,
01000000
00100000
10000000
01000000
00000000
00010000
00010000
00001000
,
00000010
00000100
00001000
00000010
00000100
00001000
00010000
00000010
,
00000100
00000001
00000010
00001000
00010000
00001000
00011000
00000000
,
00010000
00001000
00000100
00001000
00010000
01000000
00010000
01000000
,
10000000
00000000
00000000
00000000
10100000
00000000
00100000
00000000
10000000
00000000
00000000
01000000
00000000
00000000
00010000
00000000
,
00001000
00000000
00000000
00010000
00000000
00000000
00001000
00000000
00000100
00000000
00000001
00000000
00000010
00000000
00000100
00000000
,
00001000
00000000
00000010
00000000
00010000
00001000
00010000
00000000
01000000
00000000
00000000
10000000
00000000
00000000
00100000
00000000
,
00000000
00010000
00000000
00000000
00001000
00000000
00000000
00000100
00000000
00000000
00000001
00000000
00000011
00000000
00000010
00000000
,
00000100
00000001
00000100
00001000
00000000
00010000
01000000
10000000
,
01000000
00100000
01000000
00010000
00100000
01000000
00010000
00001000
,
00000010
00000100
00001000
00000010
00000100
00000001
00001001
00000000
,
00001000
00000010
00010000
00001000
00100000
01000000
10000000
00100000
,
00010000
00000000
00000000
00000000
00011000
00000000
00001000
00000000
00100000
00000000
00000000
01000000
00000000
00000000
00010000
00000000
,
00001000
00000000
00000000
00000100
00000000
00000000
00000001
00000000
00000010
00000000
00000000
00000100
00000000
00000000
00001000
00000000
,
00010000
00000000
00000000
01000000
00200000
00000000
00000000
00000000
00300000
00000000
00000000
00000000
00000000
00000000
00000000
00000000
;
