#VERSION:0.83;
#TITLE:Sun Son Sunday (orange mix);
#SUBTITLE:;
#ARTIST:Vospi;
#TITLETRANSLIT:;
#SUBTITLETRANSLIT:;
#ARTISTTRANSLIT:;
#GENRE:XROSS;
#ORIGIN:;
#CREDIT:MUINELIM;
#BANNER:Sun Son Sunday (orange mix).png;
#BACKGROUND:Sun Son Sunday (orange mix)-bg.png;
#PREVIEWVID:;
#JACKET:Sun Son Sunday (orange mix)-jacket.png;
#CDIMAGE:;
#DISCIMAGE:;
#LYRICSPATH:;
#CDTITLE:;
#MUSIC:Sun Son Sunday (orange mix).ogg;
#OFFSET:-0.003000;
#SAMPLESTART:65.839569;
#SAMPLELENGTH:15.065716;
#SELECTABLE:YES;
#BPMS:0.000=87.500,
16.000=175.000,
112.000=87.500,
144.000=175.000,
208.000=87.500;
#STOPS:;
#DELAYS:;
#WARPS:;
#TIMESIGNATURES:0.000=4=4;
#TICKCOUNTS:0.000=2;
#COMBOS:0.000=1;
#SPEEDS:0.000=1.000=0.000=0;
#SCROLLS:0.000=1.000;
#FAKES:;
#LABELS:0.000=Song Start;
#BGCHANGES:;
#KEYSOUNDS:;
#ATTACKS:
;

//---------------dance-single - ----------------
#NOTEDATA:;
#CHARTNAME:;
#STEPSTYPE:dance-single;
#DESCRIPTION:;
#CHARTSTYLE:;
#DIFFICULTY:Beginner;
#METER:4;
#RADARVALUES:0.120306,0.166374,0.010270,0.020540,0.000000,82.000000,81.000000,1.000000,2.000000,0.000000,0.000000,0.000000,0.000000,0.000000,0.120306,0.166374,0.010270,0.020540,0.000000,82.000000,81.000000,1.000000,2.000000,0.000000,0.000000,0.000000,0.000000,0.000000;
#CREDIT:MILEN;
#NOTES:
0000
0000
0000
0000
,
0000
0000
0000
0000
,
0000
0000
0000
0000
,
0000
0000
0000
0000
,
1000
0000
1000
0000
,
0000
0000
1000
0000
,
0001
0000
0001
0000
,
0000
0000
0001
0000
,
0100
0000
0100
0000
,
0000
0000
0100
0000
,
0010
0000
0010
0000
,
0000
0000
0010
0000
,
1000
0000
0000
0000
,
0100
0000
0000
0000
,
0010
0000
0000
0000
,
0001
0000
0000
0000
,
0001
0000
0000
0000
,
0100
0000
0000
0000
,
0010
0000
0000
0000
,
1000
0000
0000
0000
,
1000
0000
0001
0000
,
1000
0000
0001
0000
,
1000
0000
0001
0000
,
1000
0000
1000
0000
,
0010
0000
0100
0000
,
0010
0000
0100
0000
,
0010
0000
0100
0000
,
0010
0000
0010
0000
,
0010
0000
0000
1000
,
1000
0000
0000
0100
,
0100
0000
0000
0001
,
0001
0000
0000
0010
,
0010
0000
1000
0000
,
0001
0000
0100
0000
,
1000
0000
0010
0000
,
0001
0000
0000
0000
,
1000
0000
1000
0000
,
1000
0000
0000
0000
,
0010
0000
0010
0000
,
0010
0000
0000
0000
,
0100
0000
0100
0000
,
0100
0000
0000
0000
,
0001
0000
0001
0000
,
0001
0001
0000
0000
,
1000
0000
1000
0000
,
0010
0000
0010
0000
,
0100
0000
0100
0000
,
0001
0000
0001
0000
,
0010
0000
0010
0000
,
0100
0000
0100
0000
,
1000
0000
1000
0000
,
0010
0010
0000
0000
,
2002
0000
0000
0000
,
0000
0000
0000
0000
,
3003
0000
0000
0000
;

//---------------dance-single - ----------------
#NOTEDATA:;
#CHARTNAME:;
#STEPSTYPE:dance-single;
#DESCRIPTION:;
#CHARTSTYLE:;
#DIFFICULTY:Hard;
#METER:11;
#RADARVALUES:0.419603,0.582309,0.379990,0.061620,0.082160,286.000000,249.000000,37.000000,6.000000,0.000000,0.000000,0.000000,0.000000,0.000000,0.419603,0.582309,0.379990,0.061620,0.082160,286.000000,249.000000,37.000000,6.000000,0.000000,0.000000,0.000000,0.000000,0.000000;
#CREDIT:MILEN;
#NOTES:
0000
0000
0000
0000
,
0000
0000
0000
0000
,
0000
0000
0000
0000
,
0000
0000
0000
0000
,
1000
0000
0000
0001
0000
0000
0000
0000
,
0100
0010
0000
0100
0000
0110
0000
0000
,
0001
0000
0000
1000
0000
0000
0000
0000
,
0010
0100
0000
0010
0000
0110
0000
0000
,
1000
0000
0000
0010
0000
0000
0000
0000
,
0001
0100
0000
0001
0000
0011
0000
0000
,
0001
0000
0000
0100
0000
0000
0000
0000
,
1000
0010
0000
1000
0000
1100
0000
0000
,
0001
0000
0000
0010
0000
0000
1010
0000
,
1000
0000
0000
0100
0000
0000
0101
0000
,
0001
0000
0000
0010
0000
0000
1010
0000
,
1000
0100
0000
0110
0000
0001
0100
0000
,
1000
0000
0000
0010
0000
0000
0011
0000
,
0001
0000
0000
0100
0000
0000
1100
0000
,
1000
0000
0000
0010
0000
0000
0011
0000
,
0001
0100
0000
0110
0000
1000
0100
0000
,
1001
0000
0000
0011
0000
0001
0000
1000
,
1001
0000
0000
1100
0000
1000
0000
0001
,
1001
0000
0000
0101
0000
1010
0000
1000
,
0100
0010
0000
0110
0000
1100
0000
0010
,
0011
0000
0000
0101
0000
0100
0000
1000
,
1010
0000
0000
0011
0000
0010
0000
0001
,
0101
0000
0000
1100
0000
1010
0000
0010
,
0100
0001
0000
0011
0000
0010
0100
1000
,
0010
0100
0010
0100
0000
0000
0000
0000
0000
0000
0000
0001
0010
0000
0010
0000
,
0100
1000
0100
1000
0000
0000
0000
0000
0000
0000
0000
0010
0100
0000
0100
0000
,
0001
1000
0001
1000
0000
0000
0000
0000
0000
0000
0000
0100
0010
0000
0010
0000
,
0001
0100
0001
0100
0000
0000
0000
0000
0000
0000
0000
1000
0100
0000
0100
0000
,
0001
0010
0001
0000
0010
0000
0100
0000
1000
0100
1000
0000
0010
0000
0100
0000
,
0001
0100
0001
0000
0100
0000
0010
0000
1000
0010
1000
0000
0010
0000
0100
0000
,
0002
0000
0000
0000
,
2003
0000
0000
0000
,
3001
0010
0100
1000
0001
0100
0010
1000
,
0001
0010
0100
0000
0000
0110
0000
0100
,
1000
0100
0010
0001
1000
0010
0100
0001
,
1000
0100
0010
0000
0000
0110
0000
0010
,
0001
0100
0010
1000
0001
0010
0100
1000
,
0001
0100
0010
0000
0000
0110
0000
0010
,
1000
0100
0010
0001
1000
0010
0100
0001
,
1000
0200
0020
0000
0330
0000
0110
0000
,
0001
0100
1000
0100
0001
0010
1000
0010
,
0001
0100
1000
0100
0001
0010
0000
0110
,
1000
0100
0001
0100
1000
0010
0001
0010
,
1000
0100
0001
0100
1000
0010
0000
0110
,
0001
0100
1000
0100
0001
0010
0100
0001
,
0100
1000
0010
0001
0010
1000
0000
1100
,
1000
0010
0001
0010
1000
0100
0010
1000
,
0010
0001
0100
1000
0100
0010
0000
0100
,
2002
0000
0000
0000
,
0000
0000
0000
0000
,
3003
0000
0000
0000
;

//---------------dance-double - ----------------
#NOTEDATA:;
#CHARTNAME:;
#STEPSTYPE:dance-double;
#DESCRIPTION:;
#CHARTSTYLE:;
#DIFFICULTY:Hard;
#METER:13;
#RADARVALUES:0.462150,0.526851,0.287560,0.071890,0.159185,315.000000,287.000000,28.000000,7.000000,0.000000,0.000000,0.000000,0.000000,0.000000,0.462150,0.526851,0.287560,0.071890,0.159185,315.000000,287.000000,28.000000,7.000000,0.000000,0.000000,0.000000,0.000000,0.000000;
#CREDIT:MILEN;
#NOTES:
00000000
00000000
00000000
00000000
,
00000000
00000000
00000000
00000000
,
00000000
00000000
00000000
00000000
,
00000000
00000000
00000000
00000000
,
00011000
00000000
00001000
00000100
00000000
00000000
00000000
00000000
,
00001000
00010000
00000000
01000000
00000000
00010000
00000000
00000000
,
00011000
00000000
00010000
00100000
00000000
00000000
00000000
00000000
,
00010000
00001000
00000000
00000010
00000000
00001000
00000000
00000000
,
00011000
00000000
00100000
10000000
00000000
00000000
00000000
00000000
,
01000000
00010000
00000000
00001000
00000000
00010000
00000000
00000000
,
00011000
00000000
00000100
00000001
00000000
00000000
00000000
00000000
,
00000010
00001000
00000000
00010000
00000000
00001000
00000000
00000000
,
00011000
00000000
00000000
00110000
00000000
00100000
10000000
01000000
,
11000000
00000000
00000000
01010000
00000000
00010000
00001000
00010000
,
00011000
00000000
00000000
00001010
00000000
00000010
00000001
00000100
,
00001000
00010000
00000000
00010100
00000000
01001000
00001000
00000000
,
00011000
00000000
00000000
00001010
00000000
00000010
00000001
00000100
,
00000101
00000000
00000000
00001100
00000000
00001000
00010000
00001000
,
00011000
00000000
00000000
00110000
00000000
00100000
10000000
01000000
,
00010000
00001000
00000000
01001000
00000000
00010100
00010000
00000000
,
00001000
00010000
00000000
00000000
00000000
00000000
00000100
00001000
00000100
00000000
00000010
00000000
00000000
00000000
00000010
00000000
,
00000001
00000100
00000000
00000000
00000000
00000000
00000010
00001000
00000010
00000000
00010000
00000000
00000000
00000000
00001000
00000000
,
00010000
00001000
00000000
00000000
00000000
00000000
00100000
00010000
00100000
00000000
01000000
00000000
00000000
00000000
10000000
00000000
,
10100000
00100000
00000000
01100000
00000000
01000000
00001000
00010000
,
00001000
00010000
00000000
00000000
00000000
00000000
00001000
00000100
00001000
00000000
00000100
00000000
00000000
00000000
00000001
00000000
,
00000010
00001000
00000000
00000000
00000000
00000000
00010000
00001000
00010000
00000000
01000000
00000000
00000000
00000000
10000000
00000000
,
00100000
00010000
00000000
00000000
00000000
00000000
00001000
00010000
00001000
00000000
00000100
00000000
00000000
00000000
00000001
00000000
,
00000011
00000010
00000000
00000110
00000000
00000100
00010000
00001000
,
00100000
00010000
00100000
00010000
00000000
00000000
00000000
00000000
00000000
00000000
00000000
10000000
01000000
10000000
01000000
00100000
,
00010000
00100000
00001000
00010000
00000000
00000000
00000000
00000000
00000000
00000000
00000000
00000100
00001000
00000000
00001100
00000000
,
00000001
00000010
00000001
00000010
00000000
00000000
00000000
00000000
00000000
00000000
00000000
00000100
00001000
00000100
00001000
00000010
,
00010000
00001000
00100000
00010000
00000000
00000000
00000000
00000000
00000000
00000000
00000000
00100000
01000000
00000000
11000000
00000000
,
10000000
00100000
00010000
00100000
00010000
00001000
00000100
00000001
,
00000010
00000001
00000010
00001000
00010000
01000000
10000000
00100000
,
00020000
00000000
00000000
00000000
,
00032000
00000000
00000000
00000000
,
00103000
00010000
01000000
00100000
00010000
00001000
00000100
00000010
,
00001000
00000100
00000020
00000000
00000000
00000000
00000000
00000000
,
00000031
00000100
00000010
00010000
00001000
01000000
00100000
10000000
,
01000000
00100000
00020000
00000000
00000000
00000000
00000000
00000000
,
10030000
00100000
01000000
00001000
00010000
00000010
00000100
00000001
,
00000010
00000100
00002000
00000000
00000000
00000000
00000000
00000000
,
00003010
00000100
00001000
00010000
00100000
01000000
00010000
00100000
,
01000000
00000000
10000000
00000000
00100000
00000000
00000000
00010000
00001000
00000000
00010000
00000000
00001000
00000000
00010000
00000000
,
00011000
00001000
00100000
00010000
01000000
00100000
10000000
01000000
,
00010000
00001000
00010000
01000000
00010000
00001000
00010000
01000000
,
00010000
00001000
00000010
00000100
00001000
00000001
00000010
00000100
,
00001000
00000010
00000001
00000010
00001000
00000010
00000001
00000010
,
00001000
00000100
00000010
00000001
00000100
00001000
00010000
00100000
,
10000000
01000000
00100000
01000000
10000000
01000000
00100000
01000000
,
10000000
01000000
00010000
00001000
00000010
00000001
00000100
00001000
,
00010000
00000000
01000000
00000000
10000000
00100000
10000000
00100000
10000000
00000000
00010000
00000000
00000000
00000000
00001000
00000000
,
00022000
00000000
00000000
00000000
,
00000000
00000000
00000000
00000000
,
00033000
00000000
00000000
00000000
;

//---------------dance-single - ----------------
#NOTEDATA:;
#CHARTNAME:;
#STEPSTYPE:dance-single;
#DESCRIPTION:;
#CHARTSTYLE:;
#DIFFICULTY:Easy;
#METER:5;
#RADARVALUES:0.192196,0.249561,0.020540,0.071890,0.000000,131.000000,129.000000,2.000000,7.000000,0.000000,0.000000,0.000000,0.000000,0.000000,0.192196,0.249561,0.020540,0.071890,0.000000,131.000000,129.000000,2.000000,7.000000,0.000000,0.000000,0.000000,0.000000,0.000000;
#CREDIT:MILEN;
#NOTES:
0000
0000
0000
0000
,
0000
0000
0000
0000
,
0000
0000
0000
0000
,
0000
0000
0000
0000
,
1000
0000
1000
0000
,
0001
0000
0001
0000
,
1000
0000
1000
0000
,
0001
0000
0001
0000
,
0100
0000
0100
0000
,
0010
0000
0010
0000
,
0100
0000
0100
0000
,
0010
0000
0010
0000
,
1000
0000
0001
0000
,
0100
0000
0010
0000
,
1000
0000
0001
0000
,
0100
0100
0100
0100
,
0001
0000
1000
0000
,
0010
0000
0100
0000
,
0001
0000
1000
0000
,
0010
0010
0010
0010
,
0010
0000
1000
0100
,
1000
0000
0001
0010
,
0001
0000
1000
0100
,
1000
1000
1000
1000
,
0001
0000
1000
0010
,
1000
0000
0001
0100
,
0001
0000
1000
0010
,
1000
1000
1000
1000
,
0001
0010
0000
0001
,
1000
0100
0000
1000
,
0001
0100
0000
0001
,
1000
0010
0000
1000
,
0001
0001
0100
0100
,
1000
1000
0010
0010
,
0002
0000
0000
0003
,
2000
0000
0000
3000
,
0001
0100
0000
0100
,
1000
0020
0000
0030
,
1000
0100
0000
0100
,
0001
0020
0000
0030
,
0001
0100
0000
0100
,
1000
0020
0000
0030
,
1000
0100
0000
0100
,
0001
0011
0000
0000
,
0010
0100
1000
0001
,
0010
0100
0000
0000
,
0100
0010
0001
1000
,
0100
0010
0000
0000
,
0001
0100
0010
1000
,
0001
0100
0000
0000
,
1000
0010
0100
0001
,
1000
0010
0000
0000
,
2002
0000
0000
0000
,
0000
0000
0000
0000
,
3003
0000
0000
0000
;

//---------------dance-double - ----------------
#NOTEDATA:;
#CHARTNAME:;
#STEPSTYPE:dance-double;
#DESCRIPTION:;
#CHARTSTYLE:;
#DIFFICULTY:Easy;
#METER:6;
#RADARVALUES:0.189261,0.249561,0.020540,0.071890,0.000000,129.000000,127.000000,2.000000,7.000000,0.000000,0.000000,0.000000,0.000000,0.000000,0.189261,0.249561,0.020540,0.071890,0.000000,129.000000,127.000000,2.000000,7.000000,0.000000,0.000000,0.000000,0.000000,0.000000;
#CREDIT:MILEN;
#NOTES:
00000000
00000000
00000000
00000000
,
00000000
00000000
00000000
00000000
,
00000000
00000000
00000000
00000000
,
00000000
00000000
00000000
00000000
,
01000000
00000000
01000000
00000000
,
00010000
00000000
00010000
00000000
,
00001000
00000000
00001000
00000000
,
00000010
00000000
00000010
00000000
,
00000100
00000000
00000100
00000000
,
00010000
00000000
00010000
00000000
,
00001000
00000000
00001000
00000000
,
00100000
00000000
00100000
00000000
,
00010000
00000000
01000000
00000000
,
00001000
00000000
00010000
00000000
,
00000100
00000000
00001000
00000000
,
00000010
00000010
00000010
00000010
,
00010000
00000000
00001000
00000000
,
00100000
00000000
00010000
00000000
,
01000000
00000000
00001000
00000000
,
00100000
00100000
00100000
00100000
,
00010000
00000000
01000000
00001000
,
00010000
00000000
00000100
00010000
,
00001000
00000000
00100000
00001000
,
00010000
00000000
00000010
00010000
,
00001000
00000000
00000100
00000001
,
00000010
00000000
00001000
00010000
,
01000000
00000000
10000000
00100000
,
00010000
00000000
00001000
00000100
,
00000001
00000010
00000000
00000010
,
00000100
00001000
00000000
00000100
,
00001000
00010000
00000000
00001000
,
00010000
00100000
00000000
00100000
,
01000000
10000000
00100000
00010000
,
00001000
00000100
00000001
00000010
,
00002000
00000000
00000000
00003000
,
00020000
00000000
00000000
00030000
,
00001000
00100000
00000000
00100000
,
01000000
00020000
00000000
00030000
,
00010000
00000100
00000000
00000100
,
00000010
00002000
00000000
00003000
,
00001000
01000000
00000000
01000000
,
00100000
00020000
00000000
00030000
,
00010000
00000010
00000000
00000010
,
00000100
00001100
00000000
00000000
,
00001000
00010000
00100000
10000000
,
01000000
00010000
00000000
00000000
,
00010000
00001000
00000010
00000001
,
00000100
00001000
00000000
00000000
,
00001000
00100000
01000000
10000000
,
00100000
00010000
00000000
00000000
,
00010000
00000100
00000010
00000001
,
00000100
00001000
00000000
00000000
,
00022000
00000000
00000000
00000000
,
00000000
00000000
00000000
00000000
,
00033000
00000000
00000000
00000000
;

//---------------dance-single - ----------------
#NOTEDATA:;
#CHARTNAME:;
#STEPSTYPE:dance-single;
#DESCRIPTION:;
#CHARTSTYLE:;
#DIFFICULTY:Medium;
#METER:8;
#RADARVALUES:0.283159,0.360477,0.143780,0.164320,0.000000,193.000000,179.000000,14.000000,16.000000,0.000000,0.000000,0.000000,0.000000,0.000000,0.283159,0.360477,0.143780,0.164320,0.000000,193.000000,179.000000,14.000000,16.000000,0.000000,0.000000,0.000000,0.000000,0.000000;
#CREDIT:MILEN;
#NOTES:
0000
0000
0000
0000
,
0000
0000
0000
0000
,
0000
0000
0000
0000
,
0000
0000
0000
0000
,
1000
0000
0000
1000
0000
0000
0000
0000
,
0010
0000
0000
0010
0000
0010
0000
0000
,
0001
0000
0000
0001
0000
0000
0000
0000
,
0100
0000
0000
0100
0000
0100
0000
0000
,
0001
0000
0000
0001
0000
0000
0000
0000
,
0010
0000
0000
0010
0000
0010
0000
0000
,
1000
0000
0000
1000
0000
0000
0000
0000
,
0100
0000
0000
0100
0000
0100
0000
0000
,
0110
0000
0010
0001
,
0010
0000
0100
1000
,
0100
0000
1000
0001
,
0100
0100
0010
0010
,
0110
0000
0100
0001
,
0100
0000
0010
1000
,
0010
0000
1000
0001
,
0010
0010
0100
0100
,
0110
0000
0010
0001
,
0100
0000
0010
1000
,
0100
0000
0010
0001
,
0100
0110
0010
0110
,
1001
0000
0001
1000
,
0010
0000
1000
0001
,
0100
0000
0001
1000
,
0010
0110
0100
0110
,
2010
0000
3001
0000
0000
0000
0100
0001
,
0012
0000
1003
0000
0000
0000
0010
1000
,
2100
0000
3001
0000
0000
0000
0010
0001
,
0102
0000
1003
0000
0000
0000
0100
1000
,
1020
0230
0302
2003
,
3200
0320
0032
2003
,
3020
0000
0000
0000
,
0230
0000
0000
0000
,
0301
0010
0001
0100
,
0001
0010
0001
0000
0000
0010
0000
0010
,
1000
0100
1000
0010
,
1000
0100
1000
0000
0000
0010
0000
0010
,
0001
0100
0001
0010
,
0001
0100
0001
0000
0000
0100
0000
0100
,
1000
0010
1000
0100
,
1000
0010
1000
0000
0000
0000
1001
0000
,
0001
0010
0001
0000
1000
0010
1000
0000
,
0001
0010
0001
0000
1000
0100
0000
0010
,
0001
0100
0001
0000
1000
0010
1000
0000
,
0001
0100
0001
0000
1000
0010
0000
0100
,
0001
1000
0001
0000
0100
0010
0100
0000
,
0001
1000
0001
0000
0010
0100
0000
0100
,
1000
0010
0100
0000
0001
0100
0010
0000
,
1000
0001
0200
0000
0000
0000
0000
0000
,
0020
0000
0000
0000
,
0000
0000
0000
0000
,
0330
0000
0000
0000
;

//---------------dance-double - ----------------
#NOTEDATA:;
#CHARTNAME:;
#STEPSTYPE:dance-double;
#DESCRIPTION:;
#CHARTSTYLE:;
#DIFFICULTY:Medium;
#METER:9;
#RADARVALUES:0.267020,0.360477,0.143780,0.164320,0.000000,182.000000,168.000000,14.000000,16.000000,0.000000,0.000000,0.000000,0.000000,0.000000,0.267020,0.360477,0.143780,0.164320,0.000000,182.000000,168.000000,14.000000,16.000000,0.000000,0.000000,0.000000,0.000000,0.000000;
#CREDIT:MILEN;
#NOTES:
// measure 0
00000000
00000000
00000000
00000000
,  // measure 1
00000000
00000000
00000000
00000000
,  // measure 2
00000000
00000000
00000000
00000000
,  // measure 3
00000000
00000000
00000000
00000000
,  // measure 4
01000000
00000000
00000000
01000000
00000000
00000000
00000000
00000000
,  // measure 5
00010000
00000000
00000000
00010000
00000000
00010000
00000000
00000000
,  // measure 6
00001000
00000000
00000000
00001000
00000000
00000000
00000000
00000000
,  // measure 7
00000010
00000000
00000000
00000010
00000000
00000010
00000000
00000000
,  // measure 8
00000100
00000000
00000000
00000100
00000000
00000000
00000000
00000000
,  // measure 9
00010000
00000000
00000000
00010000
00000000
00010000
00000000
00000000
,  // measure 10
00001000
00000000
00000000
00001000
00000000
00000000
00000000
00000000
,  // measure 11
00100000
00000000
00000000
00100000
00000000
00100000
00000000
00000000
,  // measure 12
01100000
00000000
10000000
00100000
,  // measure 13
00010000
00000000
00100000
00010000
,  // measure 14
00001000
00000000
00010000
00001000
,  // measure 15
00100000
01000000
00010000
00000100
,  // measure 16
00000110
00000000
00000001
00000010
,  // measure 17
00001000
00000000
00000010
00001000
,  // measure 18
00010000
00000000
00001000
00010000
,  // measure 19
00000010
00000100
00001000
01000000
,  // measure 20
01100000
00000000
00100000
10000000
,  // measure 21
01000000
00000000
01000000
00010000
,  // measure 22
00001000
00000000
00100000
01000000
,  // measure 23
00010000
00001000
00000010
00000100
,  // measure 24
00000110
00000000
00000010
00000001
,  // measure 25
00000100
00000000
00000100
00001000
,  // measure 26
00010000
00000000
00000010
00000100
,  // measure 27
00001000
00010000
00100000
01000000
,  // measure 28
01200000
10300000
00000000
10000000
,  // measure 29
12000000
03010000
00000000
00010000
,  // measure 30
00012000
00003010
00000000
00000010
,  // measure 31
00000012
00000103
00000000
00000100
,  // measure 32
00002100
00023000
02030000
23000000
,  // measure 33
30200000
00320000
00032000
00003200
,  // measure 34
00000302
00000000
00000000
00000000
,  // measure 35
00002003
00000000
00000000
00000000
,  // measure 36
00003010
00010000
00001000
00100000
,  // measure 37
01000000
00000000
11000000
00000000
00000000
00100000
00000000
00100000
,  // measure 38
01000000
00001000
00010000
00000100
,  // measure 39
00000010
00000000
00000011
00000000
00000000
00001000
00000000
00001000
,  // measure 40
00000010
00010000
00100000
10000000
,  // measure 41
01000000
00000000
01100000
00000000
00000000
00010000
00000000
00010000
,  // measure 42
00100000
00001000
00000010
00000001
,  // measure 43
00000100
00000110
00000000
00001001
,  // measure 44
00000001
00000100
00000001
00000000
00001000
00000010
00001000
00000000
,  // measure 45
00010000
00100000
00010000
00000000
01000000
00100000
00000000
00000000
,  // measure 46
10000000
01000000
10000000
00000000
00010000
00100000
00010000
00000000
,  // measure 47
00001000
00000010
00001000
00000000
00000010
00000100
00000000
00000000
,  // measure 48
00000001
00000100
00001000
00000000
00000100
00001000
00010000
00000000
,  // measure 49
00001000
00010000
00100000
00000000
10000000
00010000
00000000
00000000
,  // measure 50
10000000
01000000
00010000
00000000
00001000
00000010
00000001
00000000
,  // measure 51
00000100
00001000
00020000
00000000
00000000
00000000
00000000
00000000
,  // measure 52
00002000
00000000
00000000
00000000
,  // measure 53
00000000
00000000
00000000
00000000
,  // measure 54
00033000
00000000
00000000
00000000
;
