#VERSION:0.83;
#TITLE:Storm;
#SUBTITLE:;
#ARTIST:Perry;
#TITLETRANSLIT:;
#SUBTITLETRANSLIT:;
#ARTISTTRANSLIT:;
#GENRE:K-POP;
#ORIGIN:;
#CREDIT:MUINELIM;
#BANNER:Storm (Perry).png;
#BACKGROUND:Storm (Perry)-bg.png;
#PREVIEWVID:;
#JACKET:Storm (Perry)-jacket.png;
#CDIMAGE:;
#DISCIMAGE:;
#LYRICSPATH:;
#CDTITLE:;
#MUSIC:Storm (Perry).mp3;
#OFFSET:-0.046500;
#SAMPLESTART:49.327507;
#SAMPLELENGTH:12.000000;
#SELECTABLE:YES;
#BPMS:0.000=96.000;
#STOPS:;
#DELAYS:;
#WARPS:;
#TIMESIGNATURES:0.000=4=4;
#TICKCOUNTS:0.000=4;
#COMBOS:0.000=1;
#SPEEDS:0.000=1.000=0.000=0;
#SCROLLS:0.000=1.000;
#FAKES:;
#LABELS:0.000=Song Start;
#BGCHANGES:-10000.000=black.mpg=1.000=0=0=1=====,
0.000=Storm (Perry).mpg=1.000=1=0=0=StretchNoLoop==CrossFade==,
99999=-nosongbg-=1.000=0=0=0 // don't automatically add -songbackground-
;
#KEYSOUNDS:;
#ATTACKS:
;

//---------------dance-single - ----------------
#NOTEDATA:;
#CHARTNAME:;
#STEPSTYPE:dance-single;
#DESCRIPTION:;
#CHARTSTYLE:;
#DIFFICULTY:Beginner;
#METER:3;
#RADARVALUES:0.103866,0.118147,0.020196,0.020196,0.000000,72.000000,70.000000,2.000000,2.000000,0.000000,0.000000,0.000000,0.000000,0.000000,0.103866,0.118147,0.020196,0.020196,0.000000,72.000000,70.000000,2.000000,2.000000,0.000000,0.000000,0.000000,0.000000,0.000000;
#CREDIT:;
#NOTES:
0000
0000
0000
0000
,
0000
0000
0000
0000
,
0000
0000
0000
0000
,
0000
0000
0000
0000
,
0000
0000
0000
0000
,
1000
0000
0100
0000
,
0010
0000
0001
0000
,
1001
0000
0000
0000
,
1000
0000
0001
0000
,
1000
0000
0001
0000
,
0100
0000
0010
0000
,
0100
0100
0100
0000
,
0001
0000
1000
0000
,
0002
0000
0003
0000
,
1000
0000
0010
0000
,
0100
0000
0001
0000
,
0010
0000
0100
0000
,
0010
0010
0010
0010
,
0000
0000
0001
0000
,
1000
0000
1001
0000
,
0001
0000
0010
0000
,
0001
0000
0010
0000
,
0100
0000
1000
0000
,
0100
0000
1000
0000
,
0010
0000
0100
0000
,
0010
0000
0100
0000
,
0001
0000
1000
0000
,
0010
0010
0010
0000
,
0000
0000
0000
0000
,
1000
0000
0100
0000
,
0010
0000
0001
0001
,
0001
0000
0100
0000
,
0010
0000
1000
0000
,
0001
0000
0010
0000
,
0100
0100
0100
0000
,
1000
0000
0001
0000
,
1000
0000
0000
0000
,
0010
0000
0100
0000
,
0010
0010
0010
0020
,
0030
0000
0000
0000
;

//---------------dance-single - ----------------
#NOTEDATA:;
#CHARTNAME:;
#STEPSTYPE:dance-single;
#DESCRIPTION:;
#CHARTSTYLE:;
#DIFFICULTY:Hard;
#METER:14;
#RADARVALUES:0.578474,0.608471,0.605883,0.161569,0.540246,401.000000,341.000000,60.000000,16.000000,0.000000,0.000000,0.000000,0.000000,0.000000,0.578474,0.608471,0.605883,0.161569,0.540246,401.000000,341.000000,60.000000,16.000000,0.000000,0.000000,0.000000,0.000000,0.000000;
#CREDIT:;
#NOTES:
0000
0000
0000
0000
,
0000
0000
0000
0000
,
0000
0000
0000
0000
,
0000
0000
0000
0000
0000
0000
1000
0001
1000
0000
0100
0000
0010
0000
0001
0000
,
0101
0100
0110
0010
1010
1000
2002
3003
,
0110
0000
0010
0100
0001
0000
0010
0100
1000
0000
0010
0100
0001
0000
0010
0100
,
0000
0000
0110
0000
0000
0010
0001
0100
0000
0000
0110
0000
0000
0000
1010
0000
,
0202
0000
0000
0000
0300
0000
0000
1003
1000
0000
0010
0000
0110
0000
0000
0000
,
0001
0010
1000
0010
0001
0010
0100
1000
0010
0000
0110
0000
0101
0000
0000
0000
,
0001
0000
0000
0000
0000
0000
1000
0000
0000
0000
0000
0000
0100
0000
0000
0000
0000
0000
0010
0000
0100
0000
0010
0000
0100
0000
0000
0000
0000
0000
0010
0000
0000
0000
0000
0000
0001
0000
0000
0100
0000
0000
0010
0000
0000
1000
0000
0000
,
0001
0000
0011
0000
1000
0010
0100
0001
1000
0000
0000
0000
1100
0000
0000
0100
,
1000
0100
0010
0001
0100
0100
0010
0010
1000
0000
1001
0000
0000
0001
0100
0010
,
0100
0000
0000
0000
0000
0000
0110
0000
0000
0000
0000
0000
0001
0000
0010
0000
0100
0000
0000
0000
0000
0000
1100
0000
0000
0000
0000
0000
1000
0010
1000
0010
,
0100
0000
0001
0000
0100
0000
0010
0000
1000
0000
0100
0000
0010
0000
0000
0000
0000
0000
0010
0000
0001
0000
0100
0000
0010
0000
0000
0000
0000
0000
1010
0000
0000
0000
0000
0000
0000
0000
0000
0011
0000
0000
0000
0000
0000
0001
0000
0000
,
0100
0000
0010
0000
1010
0000
1000
0001
0010
0000
1000
0010
0000
0000
0001
0100
,
0010
0000
0001
0000
0011
0000
0010
0000
1000
0000
0100
0010
0000
0000
0011
0000
,
0000
0000
0000
0000
0101
0000
0000
0000
0000
0000
0000
0000
1100
0000
0000
0000
0000
0000
0000
0000
1010
0000
0000
0000
1001
0000
0000
0000
0001
0000
0100
0010
,
0100
0000
0000
0000
1000
0000
0100
0010
0100
0000
0000
0000
0001
0000
0100
0010
0100
0000
0000
0000
1000
0000
0100
0000
0010
0000
0100
0000
0001
0000
0010
0000
,
0000
0000
2020
0000
0030
0000
3100
0010
0001
0000
0100
0000
1000
0000
0001
0000
,
0011
0010
1010
1000
1100
0100
0220
0330
,
1001
0000
0000
0001
0100
1000
0100
0010
0100
0000
0001
0000
0011
0000
0000
0000
,
1000
0010
0001
0010
0100
0010
1000
0010
0001
0000
0010
0000
0110
0000
0000
0000
,
1001
0000
0000
1000
0010
0001
0010
0100
0010
0000
1000
0000
1100
0000
0000
0010
,
0002
0000
0103
0000
2000
0000
3010
0000
0010
0100
0010
0000
1000
0000
0001
0000
,
1001
0000
0000
1000
0010
0100
1000
0100
0010
0000
1000
0000
1100
0000
0000
0000
,
0001
0100
0010
0001
0010
0100
0001
0010
0100
0000
0010
0000
0110
0000
0000
0000
,
1001
0000
0000
0001
0100
0010
0001
0010
1000
0000
0100
0000
0011
0000
0000
0001
,
0200
0000
1300
0000
0020
0000
0031
0000
0100
0010
0100
0000
0000
0000
0000
0000
,
0110
0000
0000
0000
1001
0000
0000
0001
0001
0000
0100
0000
0010
0000
1000
0000
,
1200
0000
0000
0310
1000
0000
0010
0000
0021
0000
0000
0130
0001
0000
0100
0000
,
1100
0000
0000
0000
0011
0000
0000
0000
0001
0100
1000
0100
0001
0000
0010
0100
,
1001
0000
0000
1000
0010
0001
1000
0100
0001
0000
0010
0000
1010
0000
0000
0000
,
0001
0100
1000
0001
0010
1000
0100
0010
0001
0000
0100
0000
1100
0000
0000
0000
,
0110
0000
0000
0001
0010
1000
0001
0100
1000
0000
0010
0000
0011
0000
0000
1000
,
0200
0000
0000
0000
0000
0000
0301
0000
0000
0000
0000
0000
0020
0000
0000
0000
0000
0000
1030
0000
0000
0000
0000
0000
0100
0000
0000
0010
0000
0000
0100
0000
0000
0000
0000
0000
0010
0000
0000
0000
0100
0000
0010
0000
0000
0000
0000
0000
,
0110
0000
1000
0010
0100
0000
1000
0100
0001
0000
1000
0010
0100
0000
1000
0100
,
0001
0000
0010
0000
0100
0000
1000
0010
0000
0001
0100
0000
1000
0000
0001
0000
,
1001
0000
0100
0010
0001
0000
1000
0100
0001
0000
1000
0010
0001
0000
1000
0100
,
0110
0000
0000
0011
0000
0000
0101
0000
0000
1100
0000
0000
1010
0000
0000
0011
0000
0000
0001
0000
0100
0010
0000
0000
;

//---------------dance-double - ----------------
#NOTEDATA:;
#CHARTNAME:;
#STEPSTYPE:dance-double;
#DESCRIPTION:;
#CHARTSTYLE:;
#DIFFICULTY:Hard;
#METER:14;
#RADARVALUES:0.569819,0.569215,0.595785,0.181765,0.504903,395.000000,336.000000,59.000000,18.000000,0.000000,0.000000,0.000000,0.000000,0.000000,0.569819,0.569215,0.595785,0.181765,0.504903,395.000000,336.000000,59.000000,18.000000,0.000000,0.000000,0.000000,0.000000,0.000000;
#CREDIT:;
#NOTES:
// measure 0
00000000
00000000
00000000
00000000
,  // measure 1
00000000
00000000
00000000
00000000
,  // measure 2
00000000
00000000
00000000
00000000
,  // measure 3
00000000
00000000
00000000
00000000
00000000
00000000
00001000
00010000
00001000
00000000
00010000
00000000
00100000
00000000
10000000
00000000
,  // measure 4
11000000
01000000
01010000
00010000
00011000
00001000
00002020
00003030
,  // measure 5
00000011
00000000
00000001
00000100
00000010
00000000
00001000
00000100
00000010
00000000
00000001
00000100
00000010
00000000
00001000
00000100
,  // measure 6
00000000
00000000
00000110
00000000
00000000
00000010
00001000
00010000
00000000
00000000
00011000
00000000
00000000
00000000
01010000
00000000
,  // measure 7
22000000
00000000
00000000
00000000
03000000
00000000
00000000
30100000
01000000
00000000
00001000
00000000
00011000
00000000
00000000
00000000
,  // measure 8
00010000
00000100
00001000
00000100
00000010
00000001
00001000
00000100
00000010
00000000
00000100
00000000
00010100
00000000
00000000
00000000
,  // measure 9
00010000
00000000
00000000
00000000
00000000
00000000
00001000
00000000
00000000
00000000
00000000
00000000
00010000
00000000
00000000
00000000
00000000
00000000
01000000
00000000
00100000
00000000
01000000
00000000
00100000
00000000
00000000
00000000
00000000
00000000
01000000
00000000
00000000
00000000
00000000
00000000
10000000
00000000
00000000
00100000
00000000
00000000
00010000
00000000
00000000
00001000
00000000
00000000
,  // measure 10
00000010
00000000
00000001
00000000
00000100
00001000
00010000
01000000
10000000
00000000
00000000
00000000
10100000
00000000
00000000
00100000
,  // measure 11
01000000
00100000
00010000
00001000
00000100
00000100
00000001
00000010
00000100
00000000
00001001
00000000
00000000
00000001
00000100
00001000
,  // measure 12
00010000
00000000
00000000
00000000
00000000
00000000
00011000
00000000
00000000
00000000
00000000
00000000
00001000
00000000
00010000
00000000
01000000
00000000
00000000
00000000
00000000
00000000
11000000
00000000
00000000
00000000
00000000
00000000
10000000
00100000
10000000
00100000
,  // measure 13
01000000
00000000
00000000
00000000
00000000
00000000
00000000
00000000
00000000
00000000
00000000
00000000
00000000
00000000
00000000
00000000
00000000
00000000
01000000
00000000
00000000
00000000
00000000
00000000
00001000
00000000
00000000
00000000
00000000
00000000
00000000
00000000
00000000
00000000
00000000
00000000
00000000
00000000
00000000
00000000
00000000
00000000
00001000
00000000
00000000
00000000
00000000
00000000
00010000
00000000
00000000
00000000
00000000
00000000
00000000
00000000
00000000
00000000
00000000
00000000
00000000
00000000
00000000
00000000
00000000
00000000
00000000
00000000
00000000
00000000
00000000
00000000
00000100
00000000
00000000
00000000
00000000
00000000
00000000
00000000
00001000
00000000
00000000
00000000
00000000
00000000
00000000
00000000
00000100
00000000
00000000
00000000
00000000
00000000
00000000
00000000
00000010
00000000
00000000
00000000
00000000
00000000
00000000
00000000
00000000
00000000
00000000
00000000
00000000
00000000
00000000
00000000
00000000
00000000
00000000
00000000
00000000
00000000
00000000
00000000
00000022
00000000
00000000
00000000
00000000
00000000
00000000
00000000
00000000
00000000
00000000
00000000
00000033
00000000
00000000
00000000
00000000
00000000
00000000
00000000
00000000
00000000
00000000
00000000
00000000
00000000
00000000
00000000
00000000
00000000
00000000
00000000
00000000
00000000
00000000
00000000
00000011
00000000
00000000
00000000
00000000
00000000
00000000
00000000
00000000
00000000
00000000
00000000
00000000
00000000
00000000
00000000
00000000
00000000
00000000
00000000
00000000
00000000
00000000
00000000
00000001
00000000
00000000
00000000
00000000
00000000
00000000
00000000
00000000
00000000
00000000
00000000
,  // measure 14
00000100
00000000
00001000
00000000
00011000
00000000
00010000
00001000
00000010
00000000
00001000
00010000
00000000
00000000
00100000
10000000
,  // measure 15
01000000
00000000
00010000
00000000
00011000
00000000
00001000
00000000
00010000
00000000
00001000
00000010
00000000
00000000
00000101
00000000
,  // measure 16
00000000
00000000
00010010
00000000
00000000
00000000
00101000
00000000
00000000
00000000
11000000
00000000
10010000
00000000
00010000
01000000
,  // measure 17
01100000
00000000
00100000
00010000
00011000
00000000
00001000
00000100
00000101
00000000
00000001
00000010
00000100
00000010
00001000
00010000
,  // measure 18
00000000
00000000
22000000
00000000
03000000
00000000
30100000
00010000
00001000
00000000
00000010
00000000
00000001
00000000
00000100
00000000
,  // measure 19
00000110
00000010
00010010
00010000
00011000
00001000
02002000
03003000
,  // measure 20
01100000
00000000
00000000
00100000
10000000
01000000
00100000
00010000
00100000
00000000
00001000
00000000
00011000
00000000
00000000
00000000
,  // measure 21
00010000
00000100
00001000
00000010
00000100
00001000
00000100
00000001
00000100
00000000
00000010
00000000
00001010
00000000
00000000
00000000
,  // measure 22
00000101
00000000
00000000
00000001
00000010
00000100
00001000
00000100
00010000
00000000
00001000
00000000
01001000
00000000
00000000
01000000
,  // measure 23
00200000
00000000
00310000
00000000
00200000
00000000
10300000
00000000
00100000
01000000
00100000
00000000
00010000
00000000
00001000
00000000
,  // measure 24
00011000
00000000
00000000
00010000
00001000
00000100
00000001
00001000
00000010
00000000
00000100
00000000
00000110
00000000
00000000
00000000
,  // measure 25
00000001
00000100
00001000
00010000
00100000
10000000
00010000
00100000
01000000
00000000
00100000
00000000
01100000
00000000
00000000
00000000
,  // measure 26
10010000
00000000
00000000
10000000
00100000
00010000
00001000
00000100
00000001
00000000
00000010
00000000
00000110
00000000
00000000
00000001
,  // measure 27
00000200
00000000
00001300
00000000
00000200
00000000
00000301
00000000
00000100
00000010
00000100
00000000
00000000
00000000
00000000
00000000
,  // measure 28
00002002
00000000
00003003
00000000
00001001
00000000
00000000
00000001
00000100
00000000
00001000
00000000
00010000
00000000
00100000
00000000
,  // measure 29
10100000
00000000
00000000
10000000
01000000
00000000
00100000
00000000
00101000
00000000
00000000
00010000
00000010
00000000
00001000
00000000
,  // measure 30
00001100
00000000
00000010
00000000
00000011
00000000
00000000
00000000
00000001
00000100
00001000
00010000
00100000
00000000
10000000
00000000
,  // measure 31
10010000
00000000
00000000
00010000
00100000
01000000
00010000
00001000
00000010
00000000
00000001
00000000
00000101
00000000
00000000
00000000
,  // measure 32
00001000
00000100
00000010
00001000
00010000
01000000
10000000
00100000
01000000
00000000
00010000
00000000
00110000
00000000
00001000
00000000
,  // measure 33
00011000
00000000
00000000
00010000
00001000
00000100
00000010
00000001
00000010
00000000
00001000
00000000
00001100
00000000
00000000
00000100
,  // measure 34
00020000
00000000
00030010
00000000
00002000
00000000
01003000
00000000
00001000
00010000
00100000
00000000
10000000
00000000
01000000
00000000
,  // measure 35
01100000
00000000
00100000
00001000
00010000
00000000
00100000
00010000
00001000
00000000
00010000
00001000
00000010
00000000
00001000
00010000
,  // measure 36
00000010
00000000
00000100
00000000
00000001
00000000
00000010
00001000
00000000
00010000
00100000
00000000
00010000
00000000
00001000
00000000
,  // measure 37
00011000
00000000
00010000
01000000
10000000
00000000
00100000
00010000
00001000
00000000
00000100
00000001
00000010
00000000
00001000
00010000
,  // measure 38
01000000
00000000
00000000
11000000
00000000
00000000
00100000
00000000
00000000
00110000
00000000
00000000
00001000
00000000
00000000
00001010
00000000
00000000
00000011
00000000
00000100
00000010
00000000
00000000
;

//---------------dance-single - ----------------
#NOTEDATA:;
#CHARTNAME:;
#STEPSTYPE:dance-single;
#DESCRIPTION:;
#CHARTSTYLE:;
#DIFFICULTY:Easy;
#METER:5;
#RADARVALUES:0.217829,0.255165,0.141373,0.070686,0.000000,151.000000,137.000000,14.000000,7.000000,0.000000,0.000000,0.000000,0.000000,0.000000,0.217829,0.255165,0.141373,0.070686,0.000000,151.000000,137.000000,14.000000,7.000000,0.000000,0.000000,0.000000,0.000000,0.000000;
#CREDIT:;
#NOTES:
0000
0000
0000
0000
,
0000
0000
0000
0000
,
0000
0000
0000
0000
,
0000
0000
0000
0000
,
0000
0000
0000
0000
,
1000
0001
1000
0100
,
0010
0001
1000
0001
,
1001
0000
0000
0000
0100
0100
0100
0000
,
0001
0000
1000
0000
0010
0010
0010
0000
,
0000
1000
0100
0010
,
0001
1000
0020
0130
,
0110
0000
0000
0000
0000
1000
0000
1000
,
1000
0100
0010
0001
,
2000
0000
0000
0000
3000
0001
0000
0001
,
0001
0100
0001
0011
,
1000
0010
1000
1100
,
0010
0010
0010
0010
,
0002
2003
3002
2003
,
3000
0010
0010
0000
0100
0000
0010
0000
,
1000
0001
1000
0000
,
1001
0001
1000
0010
,
1000
0001
1000
0010
,
1001
1000
0001
0100
,
0001
1000
0001
0100
,
1001
0000
0001
0000
0010
0010
0010
0000
,
0001
0000
1000
0000
0100
0100
0100
0000
,
1001
0000
1000
0000
0010
0100
0010
0000
,
0001
0000
0010
0000
1000
1000
0000
0000
,
0200
0310
0000
0000
,
0001
0011
1000
1100
,
0010
0000
0010
0000
0010
0100
0010
0000
,
1001
0100
1000
0010
,
1000
0100
1000
0010
,
1001
0100
0001
0010
,
0001
0000
0100
0000
1000
0000
0010
0010
,
0010
0001
1000
0010
,
0100
0101
0010
1010
,
1000
0001
0100
0010
,
1000
0000
0100
0000
0001
0000
0010
0010
;

//---------------dance-double - ----------------
#NOTEDATA:;
#CHARTNAME:;
#STEPSTYPE:dance-double;
#DESCRIPTION:;
#CHARTSTYLE:;
#DIFFICULTY:Easy;
#METER:6;
#RADARVALUES:0.213502,0.235537,0.131275,0.030294,0.000000,148.000000,135.000000,13.000000,3.000000,0.000000,0.000000,0.000000,0.000000,0.000000,0.213502,0.235537,0.131275,0.030294,0.000000,148.000000,135.000000,13.000000,3.000000,0.000000,0.000000,0.000000,0.000000,0.000000;
#CREDIT:;
#NOTES:
00000000
00000000
00000000
00000000
,
00000000
00000000
00000000
00000000
,
00000000
00000000
00000000
00000000
,
00000000
00000000
00000000
00000000
,
00000000
00000000
00000000
00000000
,
00001000
00010000
01000000
10000000
,
00100000
00010000
00001000
00010000
,
00011000
00000000
00000000
00000000
00000010
00000010
00000010
00000000
,
00010000
00000000
00001000
00000000
00100000
00100000
00100000
00000000
,
00000000
00010000
01000000
00001000
,
00010000
00000100
00000010
00000001
,
00001001
00000000
00000000
00000000
00000000
00000100
00000000
00000100
,
00000010
00001000
00010000
01000000
,
00200000
00000000
00000000
00300000
00000000
10000000
00000000
00010000
,
00010000
01000000
00001000
00011000
,
00010000
00000100
00001000
00001001
,
00000010
00000100
00001000
00010000
,
00100000
00100000
00100000
00100000
,
10000000
01000000
01000000
00000000
00010000
00000000
00001000
00000000
,
00000010
00000001
00000100
00001000
,
00011000
00010000
00100000
00010000
,
00001000
00010000
00100000
00010000
,
00011000
00001000
00000010
00001000
,
00010000
00001000
00000010
00001000
,
00011000
00010000
00100000
10000000
,
00010000
00001000
00000100
00000001
,
00001001
00001000
00000010
00000001
,
00001000
00000000
00010000
00000000
10000000
10000000
00000000
00000000
,
02200000
03300000
00000000
00000000
,
00100000
00010000
00001000
00000100
,
00000001
00000000
00000001
00000000
00000010
00000010
00000010
00000000
,
00001001
00001000
00000010
00010000
,
00100000
10000000
01000000
00100000
,
10010000
00010000
00100000
00001000
,
00000010
00000000
00000001
00000000
00000100
00000000
00000010
00000010
,
00000010
00001000
00010000
01000000
,
00100000
10100000
01000000
01010000
,
00010000
00100000
10000000
00010000
,
00001000
00000000
00000010
00000000
00000001
00000000
00001000
00010000
;

//---------------dance-single - ----------------
#NOTEDATA:;
#CHARTNAME:;
#STEPSTYPE:dance-single;
#DESCRIPTION:;
#CHARTSTYLE:;
#DIFFICULTY:Medium;
#METER:9;
#RADARVALUES:0.328908,0.353306,0.191863,0.111079,0.030294,228.000000,209.000000,19.000000,11.000000,0.000000,0.000000,0.000000,0.000000,0.000000,0.328908,0.353306,0.191863,0.111079,0.030294,228.000000,209.000000,19.000000,11.000000,0.000000,0.000000,0.000000,0.000000,0.000000;
#CREDIT:;
#NOTES:
0000
0000
0000
0000
,
0000
0000
0000
0000
,
0000
0000
0000
0000
,
0000
0000
0000
1000
1000
0000
0010
0000
,
0100
0001
1000
1001
,
0001
0100
0010
0100
0010
1000
0100
0010
,
0000
0010
0000
0100
0000
0100
0000
0010
,
2002
0000
0000
3003
,
0001
0001
0001
0100
0010
0100
0001
0000
,
1000
0000
0010
1000
0010
0000
0100
0001
,
0100
0000
0010
0100
0010
0000
0110
0000
,
1000
0100
0010
0001
0100
1000
0000
0100
,
0001
0000
0000
0010
0000
0000
0001
0000
1000
0000
0000
0100
0000
0000
1000
0000
,
0001
0100
0010
1000
2002
0000
3003
0000
,
0001
0100
0010
0000
0001
0010
0100
0000
,
1000
0010
0100
0000
1000
0100
0010
0000
,
1010
0101
1010
0101
,
0002
0023
0230
2300
,
0000
3001
0000
0001
0001
0100
0010
1000
,
0010
0100
0001
0100
0010
0010
0010
0000
,
1001
0000
1000
0100
0010
0100
1000
0000
,
1000
0100
0001
0100
1000
0100
0010
0000
,
1001
0000
0001
0100
0010
0100
0001
0000
,
0010
1000
0100
0010
,
1001
0000
0001
0010
0100
0010
0001
0000
,
0001
0010
1000
0010
0001
0010
0100
0000
,
1001
0000
1000
0010
0100
0010
1000
0000
,
1000
0000
0100
0000
0010
0000
0001
0000
0100
0010
0100
0000
0000
0000
0000
0000
,
0020
0000
0130
0000
0000
0000
0010
0100
,
0110
0000
0000
0010
1000
0000
0000
0000
1001
0000
0000
0001
0100
0000
0010
0000
,
2000
0000
3002
0000
0103
0100
0100
0000
,
1001
0000
0001
0100
1000
0100
0001
0000
,
0001
0100
1000
0100
0001
0010
0100
0000
,
1001
0000
1000
0010
0001
0010
1000
0000
,
1000
0000
0010
0000
0001
0000
0010
0000
1000
0001
1000
0000
1001
0000
0000
0000
,
0001
0010
0100
0010
0001
0010
1000
0010
,
0001
0100
0010
1001
,
1000
0100
0010
0100
1000
0100
0001
0100
,
1000
1000
0010
0010
0001
0001
0100
0110
;

//---------------dance-double - ----------------
#NOTEDATA:;
#CHARTNAME:;
#STEPSTYPE:dance-double;
#DESCRIPTION:;
#CHARTSTYLE:;
#DIFFICULTY:Medium;
#METER:9;
#RADARVALUES:0.308712,0.314049,0.212059,0.100981,0.010098,214.000000,193.000000,21.000000,10.000000,0.000000,0.000000,0.000000,0.000000,0.000000,0.308712,0.314049,0.212059,0.100981,0.010098,214.000000,193.000000,21.000000,10.000000,0.000000,0.000000,0.000000,0.000000,0.000000;
#CREDIT:;
#NOTES:
00000000
00000000
00000000
00000000
,
00000000
00000000
00000000
00000000
,
00000000
00000000
00000000
00000000
,
00000000
00000000
00000000
00001000
01000000
00000000
00001000
00000000
,
00010000
00000100
00010000
00011000
,
00001000
00100000
00010000
00100000
00010000
00100000
01000000
10000000
,
00000000
10000000
00000000
00100000
00000000
00100000
00000000
00010000
,
00022000
00000000
00000000
00033000
,
00001000
00010000
00001000
00010000
00000100
00000010
00000100
00000000
,
00000010
00000001
00000100
00001000
,
00010000
01000000
10000000
10010000
,
00010000
00100000
01000000
00010000
00001000
00000010
00000000
00000010
,
00000001
00000000
00000000
00000100
00000000
00000000
00001000
00000000
00010000
00000000
00000000
00001000
00000000
00000000
00010000
00000000
,
01000000
10000000
00100000
01000000
00200000
00000000
00300000
00000000
,
00010000
00001000
00000100
00000101
,
00000001
00000010
00001000
00011000
,
00010100
00011000
01001000
00011000
,
00020000
00230000
20300000
32000000
,
00000000
03100000
00000000
00100000
00010000
00100000
00001000
00010000
,
00000010
00001000
00000010
00010000
00001000
00100000
00010000
00000000
,
10010000
00000000
10000000
01000000
00100000
00010000
00100000
00000000
,
10000000
01000000
00100000
00010000
00100000
00001000
00010000
00000000
,
00011000
00000000
00001000
00000100
00000010
00000100
00000001
00000000
,
00000010
00001000
00000100
00000010
,
00001001
00000000
00000001
00000100
00000010
00001000
00000010
00000000
,
00000001
00000100
00000010
00001000
00000010
00010000
00001000
00000000
,
00011000
00000000
00010000
01000000
00100000
01000000
10000000
00000000
,
10000000
00100000
00010000
00001000
00010000
00011000
00000000
00000000
,
00002000
00000000
00013000
00000000
00000000
00000000
00010000
01000000
,
10000000
10100000
00100000
00110000
,
00020000
00000000
00032000
00000000
00003010
00000010
00000010
00000000
,
00000110
00000000
00000001
00000010
00000100
00001000
00000100
00000000
,
00010000
00001000
00100000
01000000
10000000
00010000
00100000
00000000
,
10010000
00000000
10000000
01000000
00100000
00010000
00100000
00000000
,
00001000
00010000
00000100
00000010
00000001
00000100
00000110
00000000
,
00000001
00000100
00001000
00000000
00010000
00100000
10000000
00000000
,
10010000
00010000
00100000
01000000
,
10000000
00100000
00010000
00000000
00001000
00000100
00000001
00000000
,
00000010
00000100
00001000
00010000
00100000
01000000
00100000
01100000
;
