#VERSION:0.83;
#TITLE:Sterelogue;
#SUBTITLE:;
#ARTIST:VeetaCrush;
#TITLETRANSLIT:;
#SUBTITLETRANSLIT:;
#ARTISTTRANSLIT:;
#GENRE:VARIETY;
#ORIGIN:;
#CREDIT:MUINELIM;
#BANNER:Sterelogue.png;
#BACKGROUND:Sterelogue-bg.png;
#PREVIEWVID:;
#JACKET:Sterelogue-jacket.png;
#CDIMAGE:;
#DISCIMAGE:;
#LYRICSPATH:;
#CDTITLE:;
#MUSIC:Sterelogue.mp3;
#OFFSET:-0.037000;
#SAMPLESTART:80.829086;
#SAMPLELENGTH:14.257423;
#SELECTABLE:YES;
#DISPLAYBPM:202.000000;
#BPMS:0.000=202.000;
#STOPS:;
#DELAYS:;
#WARPS:;
#TIMESIGNATURES:0.000=4=4;
#TICKCOUNTS:0.000=4;
#COMBOS:0.000=1;
#SPEEDS:0.000=1.000=0.000=0;
#SCROLLS:0.000=1.000;
#FAKES:;
#LABELS:0.000=Song Start;
#BGCHANGES:0.000=Sterelogue.avi=1.000=1=0=0=StretchNoLoop==CrossFade==,
99999=-nosongbg-=1.000=0=0=0 // don't automatically add -songbackground-
;
#KEYSOUNDS:;
#ATTACKS:
;

//---------------dance-single - ----------------
#NOTEDATA:;
#CHARTNAME:;
#STEPSTYPE:dance-single;
#DESCRIPTION:;
#CHARTSTYLE:;
#DIFFICULTY:Beginner;
#METER:6;
#RADARVALUES:0.136229,0.277183,0.013063,0.039189,0.000000,146.000000,144.000000,2.000000,6.000000,0.000000,0.000000,0.000000,0.000000,0.000000,0.136229,0.277183,0.013063,0.039189,0.000000,146.000000,144.000000,2.000000,6.000000,0.000000,0.000000,0.000000,0.000000,0.000000;
#CREDIT:;
#DISPLAYBPM:202.000000;
#NOTES:
0000
0000
0000
0000
,
0000
0000
0000
0000
,
0000
0000
0000
0000
,
0000
0000
0000
0000
,
0000
0000
0000
0000
,
0000
0000
0000
0000
,
0000
0000
0000
0000
,
0000
0000
0000
0000
,
0000
0000
0000
0000
,
0000
0000
0000
0000
,
0000
0000
0000
0000
,
0000
0000
0000
0000
,
1000
0000
0000
0000
,
1000
0000
0000
0000
,
0100
0000
0000
0000
,
0100
0000
0000
0000
,
0010
0000
0000
0000
,
0010
0000
0000
0000
,
0001
0000
0000
0000
,
0001
0000
0000
0000
,
0100
0000
0100
0000
,
0100
0000
0000
0000
,
0010
0000
0010
0000
,
0010
0000
0000
0000
,
1000
0000
1000
0000
,
1000
0000
0000
0000
,
0001
0000
0001
0000
,
0001
0000
0000
0000
,
0010
0000
0010
0000
,
0010
0000
0000
0000
,
0100
0000
0100
0000
,
0100
0000
0000
0000
,
1000
0000
1000
0000
,
1000
0000
0000
0000
,
0001
0000
0001
0000
,
0001
0000
1000
0000
,
0020
0000
0000
0000
,
0030
0000
0000
0000
,
0200
0000
0000
0000
,
0300
0000
0000
0000
,
0002
0000
0000
0000
,
0003
0000
0000
0000
,
2000
0000
0000
0000
,
3000
0000
0000
0000
,
0100
0000
0000
0000
,
0100
0000
0000
0000
,
0010
0000
0000
0000
,
0010
0000
0000
0000
,
0001
0000
0000
0000
,
0001
0000
0000
0000
,
1000
0000
0000
0000
,
1000
0000
0000
0000
,
0010
0000
0010
0000
,
0000
0000
0000
0000
,
0100
0000
0100
0000
,
0000
0000
0000
0000
,
0001
0000
0001
0000
,
1000
0000
0000
0000
,
1000
0000
0000
0000
,
0000
0000
0000
0000
,
0001
0000
0100
0000
,
0000
0000
0000
0000
,
0010
0000
1000
0000
,
0000
0000
0000
0000
,
0100
0000
0010
0000
,
0100
0000
0000
0000
,
1000
0000
0000
0000
,
0000
0000
0000
0001
,
0001
0000
0100
0000
,
0001
0000
0100
0000
,
0010
0000
1000
0000
,
0010
0000
1000
0000
,
0100
0000
0010
0000
,
0100
0000
0010
0000
,
0001
0000
1000
0000
,
0001
0000
1000
0000
,
1000
0000
0100
0000
,
0010
0000
0001
0000
,
0001
0000
0010
0000
,
0100
0000
1000
0000
,
1000
0000
0010
0000
,
0100
0000
0001
0000
,
0001
0000
0100
0000
,
0010
0010
0010
0010
,
1000
0000
0100
0000
,
0010
0000
0001
0000
,
0100
0000
1000
0000
,
0010
0000
0001
0000
,
0001
0000
0100
0000
,
0010
0000
1000
0000
,
0100
0000
0001
0000
,
0010
0000
1000
0000
,
1000
0000
0100
0000
,
0010
0000
0001
0000
,
1000
0000
0010
0000
,
0001
0000
1000
0000
,
0100
0000
0001
0000
,
1000
0000
0010
0000
,
0100
0000
0001
0000
,
0010
0000
0100
0100
,
0100
0100
0000
0000
,
0000
0000
0000
0000
,
1000
0000
0000
0000
,
0000
0000
0000
0000
,
0001
0000
0000
0000
,
0000
0000
0000
0000
,
0010
0000
0000
0000
,
0000
0000
0000
0000
,
0100
0000
0000
0000
,
0010
0000
0000
0000
,
0001
0000
0000
0000
,
1000
0000
0000
0000
,
0100
0000
0000
0000
,
0010
0000
0000
0000
,
0001
0000
0000
0000
,
1000
0000
0000
0000
,
1001
0000
0000
2002
,
0000
0000
0000
0000
,
0000
0000
0000
0000
,
0000
0000
0000
0000
,
0000
0000
0000
0000
,
0000
3003
0000
0000
;

//---------------dance-single - ----------------
#NOTEDATA:;
#CHARTNAME:;
#STEPSTYPE:dance-single;
#DESCRIPTION:;
#CHARTSTYLE:;
#DIFFICULTY:Easy;
#METER:10;
#RADARVALUES:0.282723,0.475170,0.045721,0.163289,0.000000,303.000000,296.000000,7.000000,25.000000,0.000000,0.000000,0.000000,0.000000,0.000000,0.282723,0.475170,0.045721,0.163289,0.000000,303.000000,296.000000,7.000000,25.000000,0.000000,0.000000,0.000000,0.000000,0.000000;
#CREDIT:;
#DISPLAYBPM:202.000000;
#NOTES:
0000
0000
0000
0000
,
0000
0000
0000
0000
,
0000
0000
0000
0000
,
0000
0000
0000
0000
,
0000
0000
0000
0000
,
0000
0000
0000
0000
,
0000
0000
0000
0000
,
0000
0000
0000
0000
,
0000
0000
0000
0000
,
0000
0000
0000
0000
,
0000
0000
0000
0000
,
0000
0000
0000
0000
,
1000
0000
1000
0000
,
0001
0000
0001
0000
,
1000
0000
1000
0000
,
0001
0000
0001
0000
,
0100
0000
0100
0000
,
0010
0000
0010
0000
,
0100
0000
0100
0000
,
0010
0000
0010
0010
,
0010
1000
0000
1000
,
0010
0100
0000
0001
,
0100
0010
0000
1000
,
0100
0010
0000
0001
,
0010
0100
0000
1000
,
0001
0100
0000
0001
,
1000
0010
0000
0100
,
0010
0100
0100
1001
,
0001
0010
0000
0001
,
1000
0100
0000
1000
,
0010
0100
0000
0001
,
0100
0010
0000
1000
,
0100
0010
0000
0001
,
0010
0100
0000
1000
,
0001
0100
0010
1000
,
0001
0001
1000
1000
,
2002
0000
0000
0000
,
0000
0000
3003
0010
,
0200
0000
0000
0300
,
0020
0030
2000
3000
,
0002
0000
0003
0010
,
0200
0300
1000
0010
,
0100
0001
1000
0100
,
0020
0000
0000
0030
,
0001
0000
0100
0000
0000
0100
0000
0000
,
0001
0000
0010
0000
0000
0010
0000
0000
,
0001
0000
1000
0000
0000
1000
0000
0000
,
0001
0000
1000
0000
0010
0000
1000
0001
,
1000
0000
0100
0000
0000
0100
0000
0000
,
1000
0000
0010
0000
0000
0010
0000
0000
,
1000
0000
0000
0001
0000
0000
0001
0000
,
1000
0100
0010
0001
,
1000
0000
0000
1000
0000
0000
0000
0000
,
0000
0000
0000
0100
,
0100
0000
0000
0100
0000
0000
0000
0000
,
0000
0000
0000
0001
,
0001
0000
0000
0001
0000
0000
0000
0000
,
0010
0000
0000
0010
,
0020
0000
0000
0000
,
0000
0000
0000
0030
,
1000
0001
1000
0000
,
1000
0000
1000
1000
,
0001
1000
0001
0000
,
0001
0000
0001
0001
,
1000
0001
1000
0000
,
0001
1000
0001
0000
,
1000
0001
1000
0001
,
0100
0010
0100
0020
,
1030
0100
0000
0100
,
0001
0010
0000
0010
,
1000
0100
0000
0100
,
0001
0010
0000
0010
,
1000
0001
0000
0100
,
0001
1000
0000
0010
,
1000
0001
0000
0100
,
0001
1000
0010
0010
,
0001
0100
0000
0100
,
1000
0010
0000
0010
,
0001
1000
0000
0100
,
1000
0001
0000
0001
,
0010
1000
0000
0001
,
0100
1000
0000
1000
,
0010
0001
0000
1000
,
0100
0100
0001
0020
,
0130
1000
0001
1000
,
0010
0000
0100
0000
0010
0000
1000
0001
,
1000
0100
0010
0100
,
1000
0000
0001
0000
1000
0000
0010
0100
,
0010
0010
1000
1000
,
0100
0000
0100
0000
0010
0000
0001
0010
,
0001
0001
0100
0100
,
0010
0000
0010
0000
1000
0010
1000
0000
,
0100
0010
0001
1000
,
0010
0000
0100
0000
0001
1000
0001
1000
,
0100
0010
0001
0100
,
0010
0000
1000
0000
0001
0010
0001
0010
,
0100
1000
0010
0100
,
0001
0000
1000
0000
0100
0010
0100
0010
,
0001
1000
0010
0100
,
0001
0000
0010
0000
0100
1000
0100
1000
,
0001
2002
0000
0000
,
0000
0000
0000
0000
,
0000
0000
0000
0000
,
0000
0000
3003
0000
,
0220
0000
0000
0000
,
0000
0000
0000
0000
,
0000
0000
0000
0000
,
0000
0000
0330
0000
,
2000
0000
3100
0000
,
0002
0000
0013
0000
,
2000
0000
3010
0000
,
0002
0000
0103
0000
,
2000
0000
3001
0000
,
0020
0000
0130
0000
,
0002
0000
1003
0000
,
0200
0000
0310
0010
,
0000
0000
0000
0110
,
0000
0000
0000
1001
,
0000
0000
0000
0220
,
0000
0000
0000
0000
,
0000
0000
0000
0000
,
0000
0330
0000
0000
;

//---------------dance-single - ----------------
#NOTEDATA:;
#CHARTNAME:;
#STEPSTYPE:dance-single;
#DESCRIPTION:;
#CHARTSTYLE:;
#DIFFICULTY:Medium;
#METER:13;
#RADARVALUES:0.510394,0.712756,0.241667,0.241667,0.000000,547.000000,510.000000,37.000000,37.000000,0.000000,0.000000,0.000000,0.000000,0.000000,0.510394,0.712756,0.241667,0.241667,0.000000,547.000000,510.000000,37.000000,37.000000,0.000000,0.000000,0.000000,0.000000,0.000000;
#CREDIT:;
#DISPLAYBPM:202.000000;
#NOTES:
0000
0000
0000
0000
,
0000
0000
0000
0000
,
0000
0000
0000
0000
,
0000
0000
0000
0000
,
0000
0000
0000
0000
,
0000
0000
0000
0000
,
0000
0000
0000
0000
,
0000
0000
0000
0000
,
0000
0000
0000
0000
,
0000
0000
0000
0000
,
0000
0000
0000
0000
,
0000
0000
0000
0000
,
1000
0010
1000
1001
,
0001
0100
0001
1001
,
1000
0100
1000
1001
,
0001
0010
0001
1001
,
1000
0010
0100
0110
,
0010
0100
0001
0011
,
0010
0100
1000
1100
,
0100
0000
0010
0000
0001
1000
0001
1000
,
0002
0000
0103
0000
0000
0100
0010
0000
,
1010
0000
1000
0100
0000
0010
0001
0000
,
2000
0000
3010
0000
0000
0010
0100
0000
,
0101
0000
0001
0010
0100
1000
0010
0100
,
0020
0000
1030
0000
0000
1000
0100
0000
,
1100
0000
1000
0010
0000
0100
0001
0000
,
0010
0000
0001
0100
0000
0010
1000
0000
,
0100
0000
0010
0000
0001
0100
0010
0100
,
0001
0000
1000
0100
0000
0010
0001
0000
,
0100
0000
0001
0010
0000
0100
1000
0000
,
0010
0000
0100
0001
0000
1000
0010
0000
,
0100
0000
0001
0010
0100
1000
0010
0100
,
0010
0000
0100
0001
0000
0100
0010
0100
,
0000
0010
1000
0010
0000
1000
0001
0000
,
0010
0000
0100
1000
0000
0001
0010
0000
,
0100
1000
0010
0100
0001
1000
0100
0010
,
0002
0000
0000
0000
,
0000
0000
0000
1003
,
0020
0000
0000
0000
,
0230
0000
0302
0000
,
2003
0000
0000
3100
,
0020
0000
0031
0100
,
1000
0001
0010
1000
,
0200
0000
0000
0000
0310
0001
0010
0001
,
0010
0001
0100
0000
0010
1000
0000
1100
,
0000
0010
0001
0000
0010
0200
0000
0000
,
1300
0001
0010
0000
0001
0100
0000
0110
,
0000
1000
0100
0000
0010
0000
0001
1000
,
0010
0100
0001
0000
1000
0100
0000
0011
,
0000
0001
0100
0000
0010
1000
0000
0110
,
0000
0100
0001
0000
0010
0100
0000
1000
,
0010
0100
0001
1000
0100
0010
0001
0100
,
0110
0000
0000
0220
0000
0000
0000
0000
,
0000
0000
0330
0101
,
1010
0000
0000
2002
0000
0000
0000
0000
,
0000
0000
0000
0000
3003
0000
1000
0100
,
0010
0000
0000
0022
0000
0000
0033
0000
,
2200
0000
3300
1001
,
0220
0000
0000
0000
,
0000
0000
0000
0330
,
0010
0100
0010
0000
0001
0000
0100
0000
,
1000
0100
0001
0010
,
0100
0010
0100
0000
1000
0000
0010
0000
,
0001
0000
0010
0000
1000
0000
0100
0010
,
0100
0000
1000
0000
0001
0000
0010
0100
,
0010
0000
0001
0000
1000
0000
0010
0100
,
0110
0001
0100
1000
,
0010
0000
0001
0000
0100
0000
2002
3003
,
0001
0100
0010
0000
0100
0001
0000
0010
,
0001
0010
0100
0000
1000
0100
0000
1000
,
0010
0100
0010
0000
0100
0001
0000
0010
,
0001
0010
0100
1000
0010
0100
0010
1000
,
0100
0010
0001
0000
0100
0001
0000
0010
,
0100
0010
0001
0000
0100
0010
0000
1000
,
0100
0010
0100
0000
1000
0001
0000
0100
,
0010
1000
0001
0010
0110
0000
1001
0000
,
0001
0100
0010
0100
0000
0010
1000
0000
,
0100
1000
0100
0010
0000
0001
0100
0000
,
0010
1000
0010
0100
0000
0001
1000
0000
,
0100
0010
0001
0010
0001
1000
0100
0010
,
0001
1000
0010
0000
0001
0010
0000
1000
,
0100
0001
0100
0000
1000
0001
0000
0010
,
1000
0010
0001
0000
0100
1000
0000
0100
,
0001
0010
0100
1000
0001
0010
0100
1000
,
1001
0000
0001
0100
0010
0100
0001
0010
,
0001
0100
0010
0001
0010
0100
0001
0010
,
0200
0000
1300
0010
0100
0010
1000
0100
,
0010
0100
1000
0010
0100
1000
0100
0010
,
2000
0000
3100
0010
0001
1000
0100
0010
,
1000
0010
0001
0010
0100
0001
0100
1000
,
0100
0100
0010
0001
0010
0010
0100
1000
,
0010
0010
0100
0100
0001
0001
1000
1000
,
1001
0000
0001
0100
1000
0100
0001
0010
,
0100
0100
1000
1000
0001
0001
0010
0010
,
0110
0000
1000
0010
0001
0010
1000
0100
,
0010
0010
0001
0001
1000
1000
0100
0100
,
0010
0001
0100
1000
0100
0010
0001
0010
,
1000
1000
0100
0010
0001
0001
0010
0100
,
1000
0010
0001
0010
0100
1000
0100
0001
,
0010
1000
0001
0100
1000
0010
0100
0001
,
1001
0220
0000
0000
,
0000
0000
0000
0000
,
0000
0000
0000
0000
,
0000
0000
0000
0000
0000
0000
0000
0000
0000
0000
0000
0030
0300
0000
0000
0000
,
2002
0000
0000
0000
,
0000
0000
0000
0000
,
0000
0000
0000
0000
,
0000
0000
0000
3003
,
0001
0100
1000
0000
0100
0000
0001
0000
,
1000
0010
0001
0000
0010
0000
1000
0000
,
0001
0010
1000
0000
0010
0000
0001
0000
,
1000
0100
0001
0000
0100
0000
1000
0000
,
0010
0100
0001
0100
0010
0000
1000
0000
,
0001
0010
0100
0010
0001
0000
0100
0000
,
0010
1000
0001
1000
0010
0000
0100
0000
,
0001
1000
0100
0010
0001
1000
0010
0220
,
0000
0000
0330
2020
,
0000
0000
3030
0202
,
0000
0000
0303
2002
,
0000
0000
0000
0000
,
0000
0000
0000
0000
,
0000
3003
0000
0000
;

//---------------dance-single - ----------------
#NOTEDATA:;
#CHARTNAME:;
#STEPSTYPE:dance-single;
#DESCRIPTION:;
#CHARTSTYLE:;
#DIFFICULTY:Hard;
#METER:18;
#RADARVALUES:0.739931,1.148328,0.385361,0.372298,0.467006,793.000000,734.000000,59.000000,57.000000,0.000000,0.000000,0.000000,0.000000,0.000000,0.739931,1.148328,0.385361,0.372298,0.467006,793.000000,734.000000,59.000000,57.000000,0.000000,0.000000,0.000000,0.000000,0.000000;
#CREDIT:;
#DISPLAYBPM:202.000000;
#NOTES:
0000
0000
0000
0000
,
0000
0000
0000
0000
,
0000
0000
0000
0000
,
0000
0000
0000
0000
,
0000
0000
0000
0000
,
0000
0000
0000
0000
,
0000
0000
0000
0000
,
0000
0000
0000
0000
,
0000
0000
0000
0000
,
0000
0000
0000
0000
,
0000
0000
0000
0000
,
0000
0000
0000
0000
,
1002
0000
0103
0000
0100
0001
1000
0000
,
2001
0000
3010
0000
0010
1000
0001
0000
,
1002
0000
0013
0000
0010
0001
1000
0000
,
2001
0000
3100
0000
0100
1000
0001
0000
,
0201
0000
0310
0000
0100
0010
1000
0000
,
1020
0000
0130
0000
0010
0100
0001
0000
,
0021
0000
0130
0000
0010
0100
1000
0000
,
1200
0000
0310
0000
0100
0010
0001
1000
,
1001
0000
0110
0000
0010
1000
0100
0010
,
0011
0000
0002
0103
0000
2000
3010
0000
,
0110
0000
1001
0000
0001
0010
0100
1000
,
0020
0000
0130
0001
1000
0100
0010
0001
,
0101
0000
1010
0000
1000
0100
0010
0000
,
0011
0000
0200
1300
0000
0020
0031
0000
,
1001
0000
0200
0301
0000
0020
1030
0000
,
1000
0001
0010
0100
1000
0010
0100
0010
,
0110
0000
2000
0100
3000
0001
0010
0100
,
1100
0000
1000
0010
0100
0000
0001
0010
,
0100
0000
0020
0001
0030
0100
1000
0001
,
1001
0000
1000
0010
0100
0001
0010
0100
,
1100
0000
2000
0010
3000
0100
0010
0001
,
0101
0000
0100
0010
1000
0001
0010
0000
,
0110
0000
0200
1000
0300
0010
0001
0100
,
0010
1000
0010
0000
0100
0001
0100
0000
0010
0100
0010
0100
0001
1000
0001
1000
,
0002
0010
0010
0010
,
0010
0000
0010
0000
0010
0000
0013
0100
,
2000
0000
0000
0000
0010
0000
0000
0000
0010
0000
0000
0000
3010
0000
0010
0100
,
0002
0010
2003
0100
,
3020
0100
0100
2030
,
0001
0001
3002
0203
,
2300
3002
0023
2030
,
3200
0000
0010
0000
0310
0001
1000
0100
,
0110
0010
0001
0000
1001
1000
0000
0010
,
0100
0001
0010
0000
0110
0100
0000
1000
,
0010
0100
0001
0000
0011
0010
0000
0100
,
0010
0001
0100
0000
0101
0001
1000
1000
,
1010
0010
0100
0000
0101
0001
0000
1000
,
0100
0010
0001
0000
0011
0010
0000
0100
,
0010
0100
1000
0000
1100
0100
0000
0010
,
0001
0010
0001
0000
1000
0100
1000
0000
0001
1000
0001
1000
0010
0100
0010
0100
,
0002
0000
0000
0020
0000
0000
0000
0000
,
0000
0000
0033
1001
,
2000
0000
0000
0200
0000
0000
0000
0000
,
0000
0000
0000
0000
3300
0000
0100
0010
,
0002
0000
0000
0200
0000
0000
0303
0000
,
0220
0000
0330
0020
,
2000
0000
0000
0000
,
0000
0000
0000
3030
,
1100
0000
0010
0101
0000
0100
0010
0001
,
0010
1000
0010
0001
0010
0100
0001
0000
,
0011
0000
0100
1010
0000
0010
0100
1000
,
0100
0001
0100
1000
0100
0010
1000
0001
,
0101
0000
0010
1100
0000
0011
0100
0000
,
1010
0000
1000
0001
0100
0000
1100
0000
,
0011
0000
0001
1000
0010
0001
0010
0100
,
1000
0100
0001
0010
0100
1000
2002
3003
,
1001
0000
0001
0000
0100
0000
0010
0000
1000
0000
0100
0000
0010
0100
0010
0000
,
0001
0010
0001
0000
0100
0000
0010
1000
0010
0000
0100
0001
0100
0000
0010
0000
,
1000
0001
1000
0000
0001
0000
0010
0000
0100
0000
1000
0000
0010
0100
0010
0000
,
0100
0001
0010
0110
0100
1100
1000
1001
,
0001
0100
0001
0000
1000
0000
0100
0000
0010
0000
0001
0000
0100
0010
0100
0000
,
0010
1000
0010
0000
0100
0000
0001
0010
0001
0000
0010
0000
0100
1000
0100
0000
,
0010
0100
0010
0000
0001
0000
0100
0010
0100
0000
0001
1000
0001
0000
0010
0000
,
0100
1000
0100
0000
0001
0000
0100
0000
1000
0000
0100
0000
0010
0001
0010
0000
,
0110
0000
0100
0000
1000
0000
0010
0100
0001
0000
0010
0100
1000
0000
0010
0000
,
0100
0001
1000
0000
0100
0000
0010
0000
0001
0100
0010
0000
1000
0000
0001
0000
,
0010
0100
1000
0000
0010
0000
0100
0001
1000
0000
0100
0010
0001
0000
0100
0000
,
0010
1000
0001
0000
0100
0000
0010
0000
0110
0000
0100
0000
0101
0000
0001
0000
,
1001
0000
1000
0000
0100
0000
0010
0001
0100
0000
0010
0000
1000
0001
0010
0100
,
1000
0000
0010
0000
0100
0000
0001
1000
0100
0000
0010
0000
0001
0100
0010
0000
,
0001
0010
0100
0000
0010
0000
1000
0100
0010
0000
0100
0000
1000
0010
0100
0000
,
0001
0010
0001
0010
0100
0010
0100
0010
0100
1000
0100
1000
0100
0010
0100
0010
,
0002
0000
0000
0000
1003
0010
0000
0000
0110
0000
0100
0001
0100
0001
0100
0010
,
1000
0000
0100
0000
0010
0000
0001
0000
0010
0000
0100
0000
1000
0000
0000
0010
0000
0000
0100
0000
0000
0001
0000
0000
,
2001
0000
0000
0000
3010
0100
0001
0000
0010
0100
1000
0000
0001
0010
0100
0000
,
1000
0010
1000
0010
0100
0000
0001
0000
1000
0100
1000
0100
0010
0001
0100
0010
,
1000
0001
0000
0000
0010
0100
0000
0000
1000
0010
1000
0010
0100
0001
0100
0001
,
0010
0000
0000
0000
0100
0000
0000
0000
1000
0000
0000
0000
0001
0000
0000
0000
0100
0000
0000
0000
0010
0000
0000
0000
1000
0000
0000
0000
0000
0000
0001
0000
0000
0000
0000
0000
0010
0000
0000
0100
0000
0000
0010
0000
0000
0100
0000
0000
,
1000
0010
0100
0001
1000
0100
0010
0001
0100
0010
1000
0001
,
0010
0000
0100
0000
1000
0000
0010
0000
0001
0000
0010
0000
1000
0000
0000
0100
0000
0000
0010
0000
0000
0001
0000
0000
,
0201
0000
0000
0000
0310
1000
0100
0000
0010
0001
0010
0001
0100
0010
0100
0010
,
1000
0100
0010
0000
0001
0010
0100
0000
1000
0000
0010
0000
0100
0000
0001
0000
,
2001
0000
0000
0000
3010
0100
0001
0000
0010
0100
1000
0000
0001
0010
0100
0000
,
1000
0010
1000
0010
0100
0010
0100
0000
0001
0010
0001
0010
0100
0010
0100
0000
,
1000
0010
0000
0000
0001
0010
0000
0000
1000
0100
1000
0100
0010
0100
0010
0100
,
0010
0000
0000
0000
0001
0000
0000
0000
0100
0000
0000
0000
0010
0000
0000
0000
1000
0000
0000
0000
0001
0000
0000
0000
0010
0000
0000
0100
0000
0000
0010
0000
0000
0100
0000
0000
1000
0000
0000
0001
0000
0000
1000
0000
0000
0001
0000
0000
,
0100
0001
0010
0100
0001
0100
1000
0001
0010
1000
0010
0100
,
1000
0010
1000
0010
0100
0001
0100
0001
0010
0100
1000
0001
0010
0100
1000
0001
,
1000
0220
0000
0000
,
0000
0000
0000
0000
,
0000
0000
0000
0000
,
0000
0000
0000
0330
,
2002
0000
0000
0000
,
0000
0000
0000
0000
,
0000
0000
0000
0000
,
0000
0000
0000
3003
,
0001
0100
0010
0001
0010
0100
0001
0010
,
0100
0001
0100
0010
0001
0100
0010
0010
,
1000
0100
0010
1000
0010
0100
1000
0010
,
0100
1000
0100
0010
1000
0100
0010
0010
,
0001
0100
1000
0100
0001
1000
0100
0001
,
0100
1000
0001
0100
1000
0001
0010
0010
,
1000
0010
0001
0010
1000
0001
0010
1000
,
0010
0001
1000
0010
0001
1000
0200
0020
,
0000
0000
0000
0000
0000
0000
0330
0000
0001
0020
0000
0000
,
0000
0000
0000
0000
0000
0000
0000
0000
0000
0000
0000
0000
0000
0000
0000
0000
0000
0000
0000
0000
0000
0000
0000
0000
0000
0000
0000
0000
0000
0000
0000
0000
0030
0100
0000
0000
2000
0000
0000
0000
0000
0000
0000
0000
0000
0000
0000
0000
,
0000
0000
0000
0000
0000
0000
0000
0000
0000
0000
0000
0000
3010
0100
0002
0000
,
0000
0000
0000
0000
,
0000
0000
0000
0000
,
0000
0003
0000
0000
;

//---------------dance-double - ----------------
#NOTEDATA:;
#CHARTNAME:;
#STEPSTYPE:dance-double;
#DESCRIPTION:;
#CHARTSTYLE:;
#DIFFICULTY:Hard;
#METER:18;
#RADARVALUES:0.704474,1.148328,0.274325,0.613966,0.398425,755.000000,713.000000,42.000000,94.000000,0.000000,0.000000,0.000000,0.000000,0.000000,0.704474,1.148328,0.274325,0.613966,0.398425,755.000000,713.000000,42.000000,94.000000,0.000000,0.000000,0.000000,0.000000,0.000000;
#CREDIT:;
#DISPLAYBPM:202.000000;
#NOTES:
// measure 0
00000000
00000000
00000000
00000000
,  // measure 1
00000000
00000000
00000000
00000000
,  // measure 2
00000000
00000000
00000000
00000000
,  // measure 3
00000000
00000000
00000000
00000000
,  // measure 4
00000000
00000000
00000000
00000000
,  // measure 5
00000000
00000000
00000000
00000000
,  // measure 6
00000000
00000000
00000000
00000000
,  // measure 7
00000000
00000000
00000000
00000000
,  // measure 8
00000000
00000000
00000000
00000000
,  // measure 9
00000000
00000000
00000000
00000000
,  // measure 10
00000000
00000000
00000000
00000000
,  // measure 11
00000000
00000000
00000000
00000000
,  // measure 12
00021000
00000000
00030010
00000000
00000010
00010000
00001000
00000000
,  // measure 13
00012000
00000000
00103000
00000000
00100000
00001000
00010000
00000000
,  // measure 14
00021000
00000000
00030100
00000000
00000100
00010000
00001000
00000000
,  // measure 15
00012000
00000000
01003000
00000000
01000000
00001000
00010000
00000000
,  // measure 16
00021000
00000000
00130000
00000000
00100000
00010000
00001000
00000000
,  // measure 17
00012000
00000000
00003010
00000000
00000010
00001000
00010000
00000000
,  // measure 18
00021000
00000000
01030000
00000000
01000000
00010000
00001000
00000000
,  // measure 19
00012000
00000000
00003100
00000000
00000100
00001000
00010000
00001000
,  // measure 20
00011000
00000000
00110000
00000000
00100000
10000000
01000000
00100000
,  // measure 21
00110000
00000000
00020000
01030000
00000000
02000000
03001000
00000000
,  // measure 22
00011000
00000000
00010100
00000000
00000100
00000010
00000001
00000100
,  // measure 23
00000020
00000000
00001030
00000100
00010000
00001000
00100000
01000000
,  // measure 24
11000000
00000000
10010000
00000000
00010000
01000000
00100000
00000000
,  // measure 25
00110000
00000000
00020000
00031000
00000000
00002000
00003010
00000000
,  // measure 26
00000011
00000000
00000002
00000103
00000000
00000200
00001300
00000000
,  // measure 27
00001000
00010000
00100000
00010000
00001000
00100000
01000000
10000000
,  // measure 28
10100000
00000000
00200000
01300000
00000000
01000000
00010000
00100000
,  // measure 29
00101000
00000000
00001000
00010000
01000000
00000000
10000000
00100000
,  // measure 30
00010000
00000000
00002000
00013000
00000000
00010000
00001000
00000100
,  // measure 31
00000101
00000000
00000001
00000010
00000100
00001000
00000010
00000100
,  // measure 32
00000110
00000000
00000020
00001030
00000000
00001000
00000100
00000010
,  // measure 33
00000011
00000000
00000001
00000100
00001000
00010000
00100000
00000000
,  // measure 34
10100000
00000000
20000000
31000000
00000000
01000000
00010000
00001000
,  // measure 35
00000100
00000000
00000001
00000000
00000010
00000000
00001000
00000000
00010000
00001000
00010000
00001000
00010000
00001000
00010000
00001000
,  // measure 36
00020000
00000010
00000010
00000010
,  // measure 37
00000010
00000000
00000010
00000000
00000010
00000000
00030010
00010000
,  // measure 38
00002000
00000000
00000000
00000000
01000000
00000000
00000000
00000000
01000000
00000000
00000000
00000000
01003000
00000000
00001000
00010000
,  // measure 39
00000200
00000010
00020300
00001000
,  // measure 40
02030000
00100000
00100000
03020000
,  // measure 41
00001000
00001000
00030200
00000320
,  // measure 42
00000032
00000203
00002300
00023000
,  // measure 43
00230000
00000000
10000000
00000000
10300000
01000000
00100000
00010000
,  // measure 44
01010000
01000000
00001000
00000000
00020000
00031000
00000000
00001000
,  // measure 45
00000100
00000001
00000010
00000000
00000200
00000310
00000000
00000010
,  // measure 46
00000001
00000100
00001000
00000000
00020000
00031000
00000000
00001000
,  // measure 47
00100000
01000000
10000000
00000000
00200000
00310000
00001000
00010000
,  // measure 48
00011000
00001000
00000010
00000000
00000002
00001003
00000000
00001000
,  // measure 49
00000010
00010000
00100000
00000000
20000000
31000000
00000000
01000000
,  // measure 50
00010000
00001000
00000100
00000000
00000002
00001003
00000000
00001000
,  // measure 51
00000100
00000000
00000010
00000000
00000001
00000000
00000100
00000000
00001000
00010000
00001000
00010000
00001000
00010000
00001000
00010000
,  // measure 52
00002000
00000000
00000000
02000000
00000000
00000000
00000000
00000000
,  // measure 53
00000000
00000000
03003000
00011000
,  // measure 54
00020000
00000000
00000000
00000020
00000000
00000000
00000000
00000000
,  // measure 55
00000000
00000000
00000000
00000000
00030030
00000000
00000010
00010000
,  // measure 56
00002000
00000000
00000000
00200000
00000000
00000000
00303000
00000000
,  // measure 57
00022000
00000000
00033000
00020000
,  // measure 58
00000200
00000000
00000000
00000000
,  // measure 59
00000000
00000000
00000000
00030300
,  // measure 60
00011000
00000000
00002000
00103000
00000000
00100000
01000000
10000000
,  // measure 61
00100000
00010000
00001000
00010000
01000000
10000000
00100000
00010000
,  // measure 62
00011000
00000000
00020000
00030010
00000000
00000010
00000100
00000001
,  // measure 63
00000010
00001000
00010000
00001000
00000100
00000001
00000010
00001000
,  // measure 64
00011000
00000000
00020000
00030100
00000000
00002000
01003000
00000000
,  // measure 65
00011000
00000000
00010000
00001000
00000100
00000000
00000101
00000000
,  // measure 66
00001010
00000000
00001000
00000100
00000010
00001000
00010000
01000000
,  // measure 67
00100000
00001000
00010000
00000010
00000100
00001000
00022000
00033000
,  // measure 68
00011000
00010000
01000000
10000000
00100000
01000000
00020000
00130000
,  // measure 69
02000000
13000000
00100000
00020000
00031000
00000200
00000301
00000010
,  // measure 70
00000200
00001300
00000010
00000100
00000001
00001000
00000200
00000310
,  // measure 71
00000001
00000000
00000100
00000000
00001000
00000000
00010000
00001000
00100000
00000000
00001000
00010000
00000010
00000000
00010000
00001000
,  // measure 72
02000000
03010000
00100000
01000000
10000000
00100000
00020000
00031000
,  // measure 73
00200000
01300000
00010000
00002000
00003010
00000001
00000200
00001300
,  // measure 74
00020000
01030000
10000000
00200000
01300000
00020000
00130000
01000000
,  // measure 75
00020000
00031000
00000010
00000001
00000100
00001000
00020000
00031000
,  // measure 76
00001000
00010000
00001000
00000000
00100000
00000000
00010000
01000000
00010000
00000000
10000000
00100000
10000000
00000000
01000000
00000000
,  // measure 77
00100000
00010000
00100000
00000000
00001000
00000000
00010000
00000000
00000100
00001000
00000100
00000000
00000010
00000000
00000001
00000000
,  // measure 78
00000100
00000010
00000100
00000000
00001000
00000000
00010000
00001000
00010000
00000000
00100000
01000000
00100000
00000000
10000000
00000000
,  // measure 79
01000000
00010000
01000000
00000000
00010000
00000000
00001000
00000000
00000020
00000000
00000032
00000000
00000203
00000000
00002300
00000000
,  // measure 80
00013000
00000100
00001000
00000000
00000010
00000000
00000100
00000001
00001000
00000000
00000200
00000000
00020300
00000000
00032000
00000000
,  // measure 81
01003000
00000000
00010000
00000000
00100000
00000000
01000000
10000000
00100000
00000000
00010000
00000000
00100000
01000000
00010000
00000000
,  // measure 82
00100000
01000000
00010000
00000000
00001000
00000000
00000010
00000100
00001000
00000000
00000010
00000000
00000100
00000001
00001000
00000000
,  // measure 83
00000001
00000100
00000001
00000100
00000010
00001000
00000010
00000000
00010000
00001000
00010000
00001000
00100000
00010000
00100000
00000000
,  // measure 84
02100000
00000000
00000000
00000000
13000000
00100000
00000000
00000000
02000000
00000000
03010000
10000000
00010000
10000000
00010000
10000000
,  // measure 85
00100000
00000000
01000000
00000000
00010000
00000000
00100000
00000000
00001000
00000000
00010000
00000000
00000010
00000000
00000000
00000100
00000000
00000000
00000001
00000000
00000000
00001000
00000000
00000000
,  // measure 86
00001020
00000000
00000000
00000000
00000130
00000001
00000010
00000000
00000100
00001000
00000010
00000000
00000100
00000001
00001000
00000000
,  // measure 87
00000100
00000010
00000100
00000010
00001000
00000000
00010000
00000000
01000000
00100000
01000000
00100000
00010000
00000000
10000000
00100000
,  // measure 88
10000000
01000000
00000000
00000000
01000000
00010000
00000000
00000000
00010000
00001000
00010000
00001000
00010000
00000100
00010000
00000100
,  // measure 89
00001000
00000000
00000000
00000000
00000100
00000000
00000000
00000000
00000010
00000000
00000000
00000000
00000001
00000000
00000000
00000000
00000100
00000000
00000000
00000000
00000010
00000000
00000000
00000000
00002000
00000000
00000000
00000000
00000000
00000000
00000000
00000000
00000000
00000000
00000000
00000000
00003001
00000000
00000000
00000100
00000000
00000000
00000001
00000000
00000000
00000100
00000000
00000000
,  // measure 90
00000010
00001000
00000100
00000010
00001000
00010000
00001000
00000100
00001000
00010000
01000000
00010000
,  // measure 91
00001000
00000000
00010000
00000000
00100000
00000000
00010000
00000000
00001000
00000000
00100000
00000000
01000000
00000000
00000000
10000000
00000000
00000000
00100000
00000000
00000000
00010000
00000000
00000000
,  // measure 92
00012000
00000000
00000000
00000000
00103000
00010000
01000000
00000000
00100000
10000000
00100000
10000000
01000000
00100000
01000000
00100000
,  // measure 93
00010000
10000000
01000000
00000000
01000000
00010000
00001000
00000000
00100000
00000000
01000000
00000000
00010000
00000000
00001000
00000000
,  // measure 94
00001200
00000000
00000000
00000000
00000301
00000010
00000100
00000000
00000010
00000001
00000100
00000000
00001000
00010000
00100000
00000000
,  // measure 95
10000000
01000000
10000000
01000000
00100000
00010000
00100000
00000000
00001000
00010000
00001000
00010000
00000010
00001000
00000010
00000000
,  // measure 96
00000001
00000010
00000000
00000000
00000010
00001000
00000000
00000000
00001000
00000100
00001000
00000100
00000010
00000100
00000010
00000100
,  // measure 97
00000010
00000000
00000000
00000000
00000001
00000000
00000000
00000000
00000100
00000000
00000000
00000000
00001000
00000000
00000000
00000000
00010000
00000000
00000000
00000000
00100000
00000000
00000000
00000000
10000000
00000000
00000000
01000000
00000000
00000000
10000000
00000000
00000000
00000000
00000000
00000000
00010000
00000000
00000000
00100000
00000000
00000000
00010000
00000000
00000000
00100000
00000000
00000000
,  // measure 98
01000000
10000000
00100000
00010000
00001000
00000100
00000001
00000010
00000100
00001000
00000010
00010000
,  // measure 99
00001000
00100000
00001000
00100000
00010000
01000000
00010000
01000000
00100000
10000000
01000000
00100000
00001000
00010000
00000100
00000010
,  // measure 100
00000001
00002002
00000000
00000000
,  // measure 101
00000000
00000000
00000000
00000000
,  // measure 102
00000000
00000000
00000000
00000000
,  // measure 103
00000000
00000000
00000000
00003003
,  // measure 104
00000220
00000000
00000000
00000000
,  // measure 105
00000000
00000000
00000000
00000000
,  // measure 106
00000000
00000000
00000000
00000000
,  // measure 107
00000000
00000000
00000000
00000330
,  // measure 108
00000001
00000010
00000100
00001000
00000010
00000100
00001000
00010000
,  // measure 109
00000100
00001000
00010000
00100000
01000000
10000000
00100000
00100000
,  // measure 110
10000000
01000000
00100000
00010000
01000000
00100000
00010000
00001000
,  // measure 111
00100000
00010000
00001000
00000100
00000010
00000001
00000100
00000100
,  // measure 112
00000001
00000010
00001000
00010000
00000010
00001000
00010000
01000000
,  // measure 113
00001000
00010000
01000000
10000000
00100000
00010000
01000000
01000000
,  // measure 114
10000000
00100000
00010000
00001000
00100000
00010000
00001000
00000100
,  // measure 115
00010000
00001000
00000100
00000001
00000010
00001000
00000100
00000220
,  // measure 116
00000000
00000000
00000000
00000000
00000000
00000000
00000330
00000000
00000010
00002000
00000000
00000000
,  // measure 117
00000000
00000000
00000000
00000000
00000000
00000000
00000000
00000000
00000000
00000000
00000000
00013000
00200000
00000000
00000000
00000000
,  // measure 118
00000000
00000000
00000000
00000000
00000000
00000000
00000000
00000000
00000000
00000000
00000000
00000000
01300000
20000000
00020000
00000000
,  // measure 119
00000000
00000000
00000000
00000000
,  // measure 120
00000000
00000000
00000000
00000000
,  // measure 121
00000000
30030000
00000000
00000000
;

//---------------dance-double - ----------------
#NOTEDATA:;
#CHARTNAME:;
#STEPSTYPE:dance-double;
#DESCRIPTION:;
#CHARTSTYLE:;
#DIFFICULTY:Easy;
#METER:10;
#RADARVALUES:0.269660,0.475170,0.091442,0.117568,0.000000,289.000000,275.000000,14.000000,18.000000,0.000000,0.000000,0.000000,0.000000,0.000000,0.269660,0.475170,0.091442,0.117568,0.000000,289.000000,275.000000,14.000000,18.000000,0.000000,0.000000,0.000000,0.000000,0.000000;
#CREDIT:;
#DISPLAYBPM:202.000000;
#NOTES:
00000000
00000000
00000000
00000000
,
00000000
00000000
00000000
00000000
,
00000000
00000000
00000000
00000000
,
00000000
00000000
00000000
00000000
,
00000000
00000000
00000000
00000000
,
00000000
00000000
00000000
00000000
,
00000000
00000000
00000000
00000000
,
00000000
00000000
00000000
00000000
,
00000000
00000000
00000000
00000000
,
00000000
00000000
00000000
00000000
,
00000000
00000000
00000000
00000000
,
00000000
00000000
00000000
00000000
,
01000000
00000000
01000000
00000000
,
00010000
00000000
00010000
00000000
,
00100000
00000000
00100000
00000000
,
00001000
00000000
00001000
00000000
,
00010000
00000000
00010000
00000000
,
00000100
00000000
00000100
00000000
,
00001000
00000000
00001000
00000000
,
00000010
00000000
00000010
00000010
,
00000010
00000100
00000000
00000100
,
00000001
00000100
00000000
00000010
,
00001000
00000010
00000000
00001000
,
00000100
00001000
00000000
00000100
,
00010000
00000100
00000000
00010000
,
00001000
00010000
00000000
00001000
,
00100000
00001000
00000000
00100000
,
00010000
00100000
01000000
10010000
,
10000000
00010000
00000000
01000000
,
00010000
01000000
00000000
00001000
,
00100000
00001000
00000000
00010000
,
00000100
00010000
00000000
00000010
,
00001000
00000010
00000000
00000100
,
00000001
00000100
00000000
00001000
,
00010000
00100000
10000000
01000000
,
00010000
00010000
00001000
00001000
,
00022000
00000000
00000000
00000000
,
00000000
00000000
00033000
00010000
,
00000200
00000000
00000000
00000300
,
00000020
00000030
00000002
00000003
,
00000200
00000000
00000300
00001000
,
00020000
00030000
00100000
10000000
,
01000000
00100000
00010000
01000000
,
00200000
00000000
00000000
00300000
,
00010000
00000000
00001000
00000000
00000000
00001000
00000000
00000000
,
00010000
00000000
00000010
00000000
00000000
00000010
00000000
00000000
,
00010000
00000000
00000100
00000000
00000000
00000100
00000000
00000000
,
00010000
00000000
00001000
00000000
00010000
00000000
00001000
00010000
,
00001000
00000000
00010000
00000000
00000000
00010000
00000000
00000000
,
00001000
00000000
01000000
00000000
00000000
01000000
00000000
00000000
,
00001000
00000000
00000000
00100000
00000000
00000000
00100000
00000000
,
00001000
00010000
00001000
00000100
,
00000001
00000000
00000000
00000001
00000000
00000000
00000000
00000000
,
00000000
00000000
00000000
00001000
,
00001000
00000000
00000000
00001000
00000000
00000000
00000000
00000000
,
00000000
00000000
00000000
00010000
,
00010000
00000000
00000000
00010000
00000000
00000000
00000000
00000000
,
10000000
00000000
00000000
10000000
,
20000000
00000000
00000000
00000000
,
00000000
00000000
00000000
30000000
,
10000000
00000000
00000000
10000000
00000000
00000000
00000000
00000000
,
00000000
00000000
00000000
00010000
,
00010000
00000000
00000000
00010000
00000000
00000000
00000000
00000000
,
00000000
00000000
00000000
00001000
,
00001000
00000000
00000000
00001000
00000000
00000000
00000001
00000000
,
00000001
00000000
00000000
00000100
,
00000200
00000000
00000000
00000000
,
00000000
00000000
00000300
00002000
,
00013000
00001000
00000000
01000000
,
00001000
00010000
00000000
00000010
,
00010000
00001000
00000000
00100000
,
00001000
00010000
00000000
00000100
,
00010000
00001000
00000000
00000100
,
00001000
00010000
00000000
01000000
,
00010000
00001000
00000000
00000010
,
00001000
00010000
00100000
00100000
,
10000000
01000000
00000000
01000000
,
00010000
00001000
00000000
00010000
,
00001000
00000100
00000000
00000100
,
00000001
00000010
00000000
00000010
,
00001000
00010000
00000000
00001000
,
00010000
00100000
00000000
00100000
,
10000000
01000000
00000000
00010000
,
00001000
00010000
00001000
00020000
,
00031000
00001000
00100000
00010000
,
01000000
00100000
10000000
01000000
,
01100000
00100000
00001000
00010000
,
00000100
00000010
00000001
00001000
,
00001001
00000001
00000100
00001000
,
00010000
00100000
10000000
00010000
,
10010000
10000000
01000000
00100000
,
00001000
00010000
00000100
00000110
,
00000010
00000001
00000100
00001000
,
00010000
00000000
00100000
00000000
10000000
01000000
10000000
00000000
,
11000000
01000000
00010000
00001000
,
00100000
00000000
01000000
00000000
00010000
00001000
00010000
00000000
,
00011000
00001000
00000100
00000001
,
00000010
00000000
00000100
00000000
00001000
00000001
00001000
00000000
,
00001010
00000010
00000100
00000001
,
00000010
00000000
00000100
00000000
00010000
00001000
00010000
00001000
,
00010000
00022000
00000000
00000000
,
00000000
00000000
00000000
00000000
,
00000000
00000000
00000000
00000000
,
00000000
00000000
00000000
00000000
,
00003000
00000000
00000000
00000000
,
00000000
00000000
00000000
00000000
,
00000000
00000000
00000000
00000000
,
00000000
00000000
00030000
00000000
,
00001000
00000000
00000100
00000000
,
00000001
00000000
00000010
00000000
,
00001000
00000000
00010000
00000000
,
01000000
00000000
10000000
00000000
,
00100000
00000000
00010000
00000000
,
00001000
00000000
00000100
00000000
,
00000001
00000000
00000010
00000000
,
00001000
00000000
00010000
00022000
,
00033000
00000000
00000000
01001000
,
00000000
00000000
00000000
00010010
,
00000000
00000000
00000000
00022000
,
00000000
00000000
00000000
00000000
,
00000000
00000000
00000000
00000000
,
00000000
00033000
00000000
00000000
;

//---------------dance-double - ----------------
#NOTEDATA:;
#CHARTNAME:;
#STEPSTYPE:dance-double;
#DESCRIPTION:;
#CHARTSTYLE:;
#DIFFICULTY:Medium;
#METER:14;
#RADARVALUES:0.488000,0.712756,0.169820,0.215541,0.000000,523.000000,497.000000,26.000000,33.000000,0.000000,0.000000,0.000000,0.000000,0.000000,0.488000,0.712756,0.169820,0.215541,0.000000,523.000000,497.000000,26.000000,33.000000,0.000000,0.000000,0.000000,0.000000,0.000000;
#CREDIT:;
#DISPLAYBPM:202.000000;
#NOTES:
00000000
00000000
00000000
00000000
,
00000000
00000000
00000000
00000000
,
00000000
00000000
00000000
00000000
,
00000000
00000000
00000000
00000000
,
00000000
00000000
00000000
00000000
,
00000000
00000000
00000000
00000000
,
00000000
00000000
00000000
00000000
,
00000000
00000000
00000000
00000000
,
00000000
00000000
00000000
00000000
,
00000000
00000000
00000000
00000000
,
00000000
00000000
00000000
00000000
,
00000000
00000000
00000000
00000000
,
00001000
01000000
00001000
00011000
,
00010000
00000100
00010000
00011000
,
00001000
00100000
00001000
00011000
,
00010000
00000010
00010000
00011000
,
00001000
00010000
00100000
01100000
,
00100000
00010000
00001000
00011000
,
00010000
00001000
00000100
00000110
,
00000100
00000000
00001000
00000000
00010000
00001000
00010000
00001000
,
00020000
00000000
01030000
00000000
00000000
01000000
10000000
00000000
,
10100000
00000000
00100000
00010000
00000000
00001000
00010000
00000000
,
00002000
00000000
00003100
00000000
00000000
00000100
00000001
00000000
,
00000011
00000000
00000010
00001000
00010000
00001000
00010000
01000000
,
20000000
00000000
30010000
00000000
00000000
00010000
00100000
00000000
,
01100000
00000000
01000000
00010000
00000000
00001000
00010000
00000000
,
00001000
00000000
00000010
00001000
00000000
00010000
00001000
00000000
,
00100000
00000000
01000000
00000000
00010000
00001000
00000100
00001000
,
00010000
00000000
01000000
10000000
00000000
00100000
00010000
00000000
,
00001000
00000000
00000100
00000001
00000000
00000010
00001000
00000000
,
00010000
00000000
00100000
10000000
00000000
01000000
00010000
00000000
,
00001000
00000000
00000100
00000001
00000010
00000100
00001000
00000010
,
00000100
00000000
00000001
00001000
00000000
00000100
00000010
00001000
,
00000000
00010000
01000000
00100000
00000000
00010000
01000000
00000000
,
10000000
00000000
01000000
00010000
00000000
00100000
01000000
00000000
,
10000000
00100000
00010000
00001000
00010000
00001000
00000100
00000001
,
00002000
00000000
00000000
00000000
,
00000000
00000000
00000000
00003010
,
00020000
00000000
00000000
00000000
,
00032000
00000000
00203000
00000000
,
02300000
00000000
00000000
13000000
,
00200000
00000000
00310000
00001000
,
00000100
00000001
00000010
00001000
,
00020000
00000000
00000000
00000000
00130000
10000000
00100000
10000000
,
01000000
00100000
00010000
00000000
00100000
00001000
00000000
00011000
,
00000000
00010000
00000100
00000000
00000010
00000002
00000000
00000000
,
00001003
00000010
00010000
00000000
00001000
00100000
00000000
00110000
,
00000000
00010000
01000000
00000000
00100000
00000000
10000000
01000000
,
00100000
00010000
00100000
00000000
00001000
00010000
00000000
00010100
,
00000000
00000100
00001000
00000000
00000100
00000010
00000000
00000011
,
00000000
00000001
00000100
00000000
00000010
00001000
00000000
00000100
,
00010000
00001000
00010000
01000000
10000000
00100000
00010000
00001000
,
00020000
00000000
00000000
00000020
00000000
00000000
00000000
00000000
,
00000000
00000000
00030030
00010000
,
00002000
00000000
00000000
02000000
00000000
00000000
00000000
00000000
,
00000000
00000000
00000000
00000000
03003000
00000000
01000000
00001000
,
00020000
00000000
00000000
00000200
00000000
00000000
00030300
00000000
,
00022000
00000000
00033000
00002000
,
00200000
00000000
00000000
00000000
,
00000000
00000000
00000000
00303000
,
00100000
01000000
10000000
00100000
,
00010000
00001000
00000100
00000100
,
00000010
00000100
00000001
00000010
,
00001000
00010000
01000000
01000000
,
00100000
01000000
00010000
00001000
,
00000010
00000100
00010000
00001000
,
00011000
00010000
01000000
00010000
,
00001000
00000100
00001000
00011000
,
00010000
01000000
10000000
00000000
00100000
01000000
00000000
00100000
,
00010000
00001000
00000100
00000000
00000001
00000010
00000000
00000100
,
00000010
00000001
00000100
00000000
00000010
00001000
00000000
00000100
,
00000010
00000100
00001000
00000010
00000100
00001000
00010000
00100000
,
01000000
00100000
10000000
00000000
01000000
00010000
00000000
00001000
,
00010000
00001000
00000010
00000000
00000001
00000100
00000000
00000010
,
00001000
00000010
00010000
00000000
00001000
00100000
00000000
00010000
,
00100000
01000000
10000000
00100000
01000000
00000000
01100000
00000000
,
00100000
10000000
01000000
00100000
00000000
01000000
00010000
00000000
,
00001000
00010000
00100000
00010000
00000000
00001000
00010000
00000000
,
00000100
00001000
00000100
00000010
00000000
00000001
00000100
00000000
,
00001000
00010000
00100000
10000000
01000000
00100000
00010000
01000000
,
00100000
00010000
00001000
00000000
00100000
01000000
00000000
00010000
,
00001000
00000010
00001000
00000000
00010000
00001000
00000000
00000100
,
00000001
00000010
00000100
00000000
00000010
00000001
00000000
00000100
,
00001000
00010000
00100000
10000000
01000000
00010000
00001000
00010000
,
00011000
00000000
00001000
00100000
00010000
00100000
00001000
00010000
,
00100000
00010000
00001000
00100000
00010000
00100000
00001000
00010000
,
00000020
00000000
00010030
00000100
00001000
00000100
00010000
00001000
,
00000100
00001000
00010000
00000100
00001000
00000100
00010000
00001000
,
02000000
00000000
03010000
00100000
01000000
10000000
00100000
01000000
,
00010000
00100000
01000000
00010000
00001000
00000010
00000100
00001000
,
00000001
00000100
00000010
00001000
00000100
00010000
00001000
00100000
,
00010000
01000000
00100000
10000000
01000000
00100000
00010000
10000000
,
10010000
00000000
00010000
01000000
00100000
00010000
00001000
00000100
,
00000001
00000010
00001000
00010000
01000000
10000000
00100000
01000000
,
01100000
00000000
00100000
10000000
01000000
00010000
00001000
00000100
,
00000001
00000010
00000100
00010000
00001000
00100000
01000000
10000000
,
00100000
00010000
00001000
00000100
00000001
00000010
00000100
00001000
,
00000010
00000100
00001000
00010000
00100000
01000000
00010000
00100000
,
01000000
10000000
00100000
00010000
00001000
00000100
00000001
00000010
,
00001000
00010000
00100000
01000000
10000000
01000000
00100000
00010000
,
00001000
00022000
00000000
00000000
,
00000000
00000000
00000000
00000000
,
00000000
00000000
00000000
00000000
,
00000000
00000000
00000000
00000000
,
00030000
00000000
00000000
00000000
,
00000000
00000000
00000000
00000000
,
00000000
00000000
00000000
00000000
,
00000000
00000000
00000000
00003000
,
00010000
00001000
00000100
00000010
,
00000001
00000010
00000100
00001000
,
00010000
00100000
01000000
10000000
,
01000000
00100000
00010000
00001000
,
00000100
00000010
00000001
00000000
00000010
00000000
00000100
00000000
,
00001000
00010000
00100000
00000000
01000000
00000000
10000000
00000000
,
01000000
00100000
00010000
00000000
00001000
00000000
00000100
00000000
,
00000001
00000010
00001000
00010000
01000000
10000000
00010000
20020000
,
00000000
00000000
30030000
00202000
,
00000000
00000000
00303000
00020020
,
00000000
00000000
00030030
00002002
,
00000000
00000000
00000000
00000000
,
00000000
00000000
00000000
00000000
,
00000000
00003003
00000000
00000000
;
