#VERSION:0.83;
#TITLE:Spiders;
#SUBTITLE:;
#ARTIST:Vospi;
#TITLETRANSLIT:;
#SUBTITLETRANSLIT:;
#ARTISTTRANSLIT:;
#GENRE:WORLD MUSIC;
#ORIGIN:;
#CREDIT:MUINELIM;
#BANNER:Spiders.png;
#BACKGROUND:Spiders-bg.png;
#PREVIEWVID:;
#JACKET:Spiders-jacket.png;
#CDIMAGE:;
#DISCIMAGE:;
#LYRICSPATH:;
#CDTITLE:;
#MUSIC:Spiders.ogg;
#OFFSET:0.000000;
#SAMPLESTART:50.232559;
#SAMPLELENGTH:15.268837;
#SELECTABLE:YES;
#DISPLAYBPM:86.000000:172.000000;
#BPMS:0.000=86.000,
40.000=172.000,
68.000=86.000,
70.000=172.000,
98.000=86.000,
100.000=172.000,
130.000=86.000,
131.000=172.000,
161.000=86.000,
162.000=172.000,
242.000=86.000;
#STOPS:;
#DELAYS:;
#WARPS:;
#TIMESIGNATURES:0.000=4=4;
#TICKCOUNTS:0.000=4;
#COMBOS:0.000=1;
#SPEEDS:0.000=1.000=0.000=0;
#SCROLLS:0.000=1.000;
#FAKES:;
#LABELS:0.000=Song Start;
#BGCHANGES:;
#KEYSOUNDS:;
#ATTACKS:
;

//---------------dance-single - ----------------
#NOTEDATA:;
#CHARTNAME:;
#STEPSTYPE:dance-single;
#DESCRIPTION:;
#CHARTSTYLE:;
#DIFFICULTY:Beginner;
#METER:5;
#RADARVALUES:0.170088,0.204997,0.038407,0.028805,0.000000,124.000000,120.000000,4.000000,3.000000,0.000000,0.000000,0.000000,0.000000,0.000000,0.170088,0.204997,0.038407,0.028805,0.000000,124.000000,120.000000,4.000000,3.000000,0.000000,0.000000,0.000000,0.000000,0.000000;
#CREDIT:;
#DISPLAYBPM:172.000000;
#NOTES:
0000
0000
0000
0000
,
0000
0000
0000
0000
,
1000
0000
1000
0000
,
0100
0000
0100
0000
,
0001
0000
0001
0000
,
0010
0000
0010
0000
,
1000
0000
0001
0000
,
0100
0000
1000
0000
,
0010
0000
0001
0000
,
1000
0000
1001
0000
,
0001
0000
0001
0000
,
0010
0000
0010
0000
,
0001
0000
0001
0000
,
1000
0000
1000
0000
,
0100
0000
0100
0000
,
1000
0000
1000
0000
,
0010
0000
0100
0000
,
0110
0000
1000
1000
,
0000
1000
1000
1000
,
0000
0001
0001
0001
,
0000
0001
0001
0001
,
0000
0001
0100
0000
,
1000
0000
0010
0000
,
0001
0000
0100
0000
,
1000
0000
0020
0030
,
0010
0000
0010
0000
,
0001
0000
0001
0000
,
1000
0000
1000
0000
,
0100
0000
0100
0000
,
0010
0000
0010
0000
,
0001
0000
0001
0000
,
1000
0000
1000
0000
,
0100
0000
0100
0001
,
0000
0001
0000
0010
,
0000
0010
0000
0100
,
0000
0100
0000
1000
,
0000
1000
0000
0001
,
0000
0010
0000
0100
,
0000
1000
0000
0001
,
0000
0010
0000
0100
,
0000
1000
0010
0000
,
0010
0000
0001
0000
,
0001
0000
1000
0000
,
1000
0000
0100
0000
,
0100
0000
0010
0000
,
0010
0000
0001
0000
,
0001
0000
1000
0000
,
1000
0000
0100
0000
,
0100
0000
0001
0000
,
0010
0000
0100
0000
,
1000
0000
0001
0000
,
0010
0000
0100
0000
,
1000
0000
0001
0000
,
0010
0000
0100
0100
,
0100
0000
1000
0000
,
0001
0000
1000
0000
,
1001
0000
0001
0000
,
0000
0000
0100
0000
,
0000
0000
1000
0000
,
0000
0000
0010
0000
,
0000
0000
2002
0000
,
3003
0000
0000
0000
;

//---------------dance-single - ----------------
#NOTEDATA:;
#CHARTNAME:;
#STEPSTYPE:dance-single;
#DESCRIPTION:;
#CHARTSTYLE:;
#DIFFICULTY:Easy;
#METER:9;
#RADARVALUES:0.293538,0.351423,0.220840,0.249645,0.000000,214.000000,191.000000,23.000000,26.000000,0.000000,0.000000,0.000000,0.000000,0.000000,0.293538,0.351423,0.220840,0.249645,0.000000,214.000000,191.000000,23.000000,26.000000,0.000000,0.000000,0.000000,0.000000,0.000000;
#CREDIT:;
#DISPLAYBPM:86.000000:172.000000;
#NOTES:
0000
0000
0000
0000
,
0000
0000
0000
0000
,
1000
0000
0100
0000
,
0010
0000
0001
0000
,
1000
0000
0010
0000
,
0100
0000
0001
0000
,
1001
0000
0110
0000
,
1010
0000
0101
0000
,
0011
0000
1100
0000
,
0110
0000
2002
3003
,
1000
0010
1000
0100
,
1000
0010
1000
1000
,
0001
0100
0001
0010
,
0001
0100
0001
0001
,
1000
0100
0010
0100
,
1000
0001
0010
0100
,
0010
0001
1000
0100
,
0220
0330
0010
0001
,
0100
0010
0100
0001
,
0010
0100
1000
0010
,
0100
0010
1000
0100
,
0010
0001
1000
0010
,
0001
0010
1000
0001
,
0100
1000
0100
0001
,
1000
0010
0220
0330
,
0100
0000
0001
0000
0010
0000
0000
0001
,
0001
0100
0010
0000
,
0110
0100
0010
1000
,
0000
0100
0100
0000
1100
0000
0011
0000
,
0001
0000
0100
0000
0010
0000
0000
0100
,
0100
0001
0010
0000
,
0110
0100
1000
0010
,
0000
0100
0100
0000
0110
0000
0010
0000
,
1000
0000
0001
0000
0100
0000
0000
0010
,
0010
0100
0001
1000
,
0010
0000
0100
0000
0010
0000
0000
1000
,
1000
0001
0020
0130
,
2000
3001
0020
0100
,
0100
0130
0000
0010
,
0001
1000
0100
0010
,
0001
1001
2000
3000
,
0020
0030
0200
0300
,
0002
0003
0010
0100
,
1000
0000
1001
0000
0000
0010
0010
0000
,
0100
0010
2000
3000
,
0002
0000
0003
0000
0010
0100
0010
0000
,
0110
0000
0002
0003
,
2000
3000
0010
0100
,
0110
0000
0002
0003
,
0020
0030
2000
3000
,
0200
0300
0001
1000
,
0010
0000
0110
0000
0000
1000
1000
0000
,
0001
0100
0010
1000
,
1001
0000
0000
0001
0100
0010
0100
0010
,
1000
0100
0010
0001
,
0100
0000
0110
0000
0000
0001
0001
0000
,
1000
1001
0002
0000
,
0000
0003
0020
0000
,
0000
0030
0200
0000
,
0000
0300
2000
0000
,
0000
0000
0002
0000
,
3003
0000
0000
0000
;

//---------------dance-single - ----------------
#NOTEDATA:;
#CHARTNAME:;
#STEPSTYPE:dance-single;
#DESCRIPTION:;
#CHARTSTYLE:;
#DIFFICULTY:Medium;
#METER:12;
#RADARVALUES:0.482829,0.644275,0.460883,0.470484,0.297653,352.000000,304.000000,48.000000,49.000000,0.000000,0.000000,0.000000,0.000000,0.000000,0.482829,0.644275,0.460883,0.470484,0.297653,352.000000,304.000000,48.000000,49.000000,0.000000,0.000000,0.000000,0.000000,0.000000;
#CREDIT:;
#DISPLAYBPM:86.000000:172.000000;
#NOTES:
0000
0000
0000
0000
,
0000
0000
0000
0000
,
1000
0000
0000
0010
0000
0000
0000
0000
0001
0000
0000
0100
0000
0000
0000
0000
,
1000
0000
0000
0010
0000
0000
0000
0000
0001
0000
0000
0100
0000
0000
0000
0000
,
1000
0000
0000
0100
0000
0000
0000
0000
0001
0000
0000
0010
0000
0000
0000
0000
,
1000
0000
0000
0100
0000
0000
0000
0000
0001
0000
0000
0010
0000
0000
0000
0000
,
1000
0000
0000
0110
0000
0000
0000
0000
0001
0000
0000
1010
0000
0000
0000
0000
,
1000
0000
0000
0101
0000
0000
0000
0000
0001
0000
0000
0110
0000
0000
0000
0000
,
0100
0000
0000
1010
0000
0000
0000
0000
0010
0000
0000
0101
0000
0000
0000
0000
,
0100
0000
0000
1001
0000
0000
0000
0000
0220
0000
0000
0000
0330
0000
0000
0000
,
0010
1000
0100
1000
0010
0200
0000
0000
,
0301
0010
0100
1100
0000
0000
0010
0001
,
0100
0010
0100
0001
0010
0100
1000
0010
,
1000
0100
0010
0011
0000
0000
0100
1000
,
0010
0100
0010
1000
0100
0010
0001
0100
,
0001
0010
0100
1100
0000
0000
0010
0001
,
0100
0010
1000
0100
0010
0001
0100
0010
,
2002
0000
3003
0000
1000
0100
0010
0001
,
0000
2002
3003
0000
0001
0100
0010
1010
,
0000
0000
0001
0010
0100
1000
0000
2020
,
3030
0000
1000
0010
0100
0001
0010
0100
,
1000
0000
0000
0000
0000
0000
1001
0000
0000
0001
0000
0000
0100
0000
0000
0000
0100
0000
0010
0000
0000
0000
0010
0000
,
1000
0000
1000
0001
0000
0001
0010
0000
0010
0100
0000
0100
,
1000
0000
1000
0001
0000
0001
0100
0010
1000
0010
0100
0001
,
0100
0010
1000
0100
0010
0001
2002
0000
0000
3003
0000
0000
,
1010
0000
0000
0000
0001
0000
0000
0000
0202
0000
0000
0000
0303
0000
0000
0100
,
0010
0000
0000
1000
0000
0000
0001
0000
0010
0000
0000
0100
0000
0000
1000
0000
,
1001
0000
0000
0000
0001
0000
0100
0000
0020
0000
0000
0000
1030
0100
0000
0000
,
0000
0000
0000
0010
0001
0000
0000
0000
2001
0000
0000
0000
3010
0000
0000
0000
,
0011
0000
0000
0000
0001
0000
0000
0000
2200
0000
0000
0000
3300
0000
0000
0100
,
0010
0000
0000
0001
0000
0000
1000
0000
0010
0000
0000
0100
0000
0000
0001
0000
,
1001
0000
0000
0000
1000
0000
0100
0000
0020
0000
0000
0000
0031
0100
0000
0000
,
0000
0000
0000
0010
1000
0000
0000
0000
2002
0000
3003
0000
0001
0000
0010
0000
,
0100
0010
0001
0010
1000
0000
0000
0001
,
0100
1000
0100
0010
0100
1000
1001
0000
,
0000
0000
0010
0000
0110
0000
0000
0000
0100
0001
0000
0000
0000
0000
0000
1000
,
0010
0000
0000
0110
0000
0000
0100
0010
0100
0001
0000
0000
,
1000
0010
0100
0010
0000
0000
0110
0000
0000
2000
0000
0000
,
3200
0320
0032
1003
,
1000
0000
0000
0000
0010
0000
0000
0000
0100
0000
0000
0000
0001
0000
0000
0000
0000
0000
0000
0000
0000
0000
0000
0000
0010
0000
0000
0100
0000
0000
0000
0000
0000
0000
0000
0000
0000
0000
0000
0000
0000
0000
0000
0000
0000
1000
0000
0000
,
0001
0110
0002
0013
,
2000
3010
0002
0103
,
2000
3100
0011
1010
,
0101
0000
0000
0000
2200
0000
0000
0000
3300
0000
0000
0010
0100
0000
0000
0000
,
0101
0000
0000
1010
0000
0000
0000
0000
0002
0000
0000
0000
0013
0000
0000
0000
,
2000
0000
0000
3100
0000
0000
0010
0000
0001
0100
0000
0010
,
1000
1100
0002
0103
,
2000
0000
0000
0000
3010
0000
0000
0000
0001
0000
0000
0001
1000
0000
0000
0000
,
1001
0000
0000
0010
0100
0001
2000
0000
0000
3100
0000
0000
,
0020
0130
0002
0013
,
2000
3001
0011
1010
,
1100
0000
0000
0000
0202
0000
0000
0000
0303
0000
0000
0010
1000
0000
0000
0000
,
1100
0000
0000
0011
0000
0000
0000
0000
0200
0000
0000
0000
0301
0000
0000
0000
,
0020
0000
1030
0000
1000
0100
0001
0010
,
0110
1001
0020
1030
,
0200
0000
0000
0000
0301
0000
0000
0000
0000
0000
0000
1000
0010
0000
0000
0000
,
0101
0000
0000
1010
0000
0000
0000
0000
0002
0000
0000
0000
0010
0000
0000
0000
,
1000
0100
2003
0010
,
0001
0100
3020
0001
,
0100
1000
0230
1000
,
0010
0001
0020
0000
,
0330
0000
0000
0000
;

//---------------dance-single - ----------------
#NOTEDATA:;
#CHARTNAME:;
#STEPSTYPE:dance-single;
#DESCRIPTION:;
#CHARTSTYLE:;
#DIFFICULTY:Hard;
#METER:15;
#RADARVALUES:0.640572,0.761416,0.902562,0.470484,0.484887,467.000000,373.000000,94.000000,49.000000,0.000000,0.000000,0.000000,0.000000,0.000000,0.640572,0.761416,0.902562,0.470484,0.484887,467.000000,373.000000,94.000000,49.000000,0.000000,0.000000,0.000000,0.000000,0.000000;
#CREDIT:;
#DISPLAYBPM:86.000000:172.000000;
#NOTES:
0000
0000
0000
0000
,
0000
0000
0000
0000
,
1000
0000
0000
1010
0000
0000
0000
0000
0001
0000
0000
0101
0000
0000
0000
0000
,
1000
0000
0000
1100
0000
0000
0000
0000
0001
0000
0000
0011
0000
0000
0000
0000
,
0100
0000
0000
0110
0000
0000
0000
0000
0001
0000
0000
1001
0000
0000
0000
0000
,
0010
0000
0000
0110
0000
0000
0000
0000
1000
0000
0000
1001
0000
0000
0000
0000
,
0101
0000
0000
1100
0000
0000
0000
0000
1010
0000
0000
0011
0000
0000
0000
0000
,
1100
0000
0000
0101
0000
0000
0000
0000
0011
0000
0000
1010
0000
0000
0000
0000
,
1100
0000
0000
0011
0000
0000
0000
0000
1010
0000
0000
0101
0000
0000
0000
0000
,
0110
0000
0000
1001
0000
0000
0000
0000
0220
0000
0000
0000
0330
0000
0000
0000
,
1000
0100
0010
0001
0100
1000
0001
0010
,
1000
0100
0010
0022
0033
0000
0001
1000
,
0001
0100
0010
1000
0100
0001
1000
0010
,
0001
0100
0010
2020
3030
0000
1000
0001
,
1000
0010
0001
1000
0100
0001
0010
1000
,
0001
0100
1000
2002
3003
0000
0010
0100
,
0001
0010
1000
0001
0100
1000
0010
0100
,
2002
0000
0000
0000
0000
0000
3003
0000
0001
0100
0010
0000
0001
0000
0010
0000
,
1000
0010
0100
0000
1000
0000
0100
0000
0001
0010
0100
0000
0001
0000
0100
0000
,
1000
0100
0010
0000
1000
0000
0010
0000
0001
0100
1000
0000
0100
0000
0010
0000
,
1000
0010
0001
0000
0010
0000
0100
0000
0001
0010
1000
0000
0010
0000
0100
0000
,
1000
0000
0000
0100
0000
0000
0001
0000
0000
0000
0000
0000
0100
0000
0000
0000
0000
0000
0010
0000
0000
0000
0000
0000
0001
0000
0000
0000
0100
0000
0000
0000
0001
0000
0000
0000
1000
0000
0000
0000
0100
0000
0000
0000
1000
0000
0000
0000
,
0001
0010
0001
1000
0010
1000
0100
0010
0100
1000
0010
1000
,
0001
0010
0001
1000
0100
1000
0001
0100
0001
0010
0100
0010
,
0001
0000
0100
0000
0010
0000
1000
0000
0100
0000
0010
0000
2002
0000
0000
0000
0000
0000
0000
0000
0000
3003
0000
0000
,
1010
0000
0000
0000
0101
0000
0000
0000
0022
0000
0000
0000
0033
0000
0000
0010
,
0100
0000
0000
1100
0000
0000
0010
0000
0011
0000
0000
0001
0000
0000
1000
0000
,
2020
0000
3030
0000
0000
0000
0001
0000
0101
0000
0000
0000
0100
0010
0000
0000
,
0000
0000
0000
0010
1000
0000
0000
0000
1100
0000
0000
0000
0100
0010
0001
0000
,
0011
0000
0000
0000
1100
0000
0000
0000
2020
0000
0000
0000
3030
0000
0000
0010
,
0100
0000
0000
0101
0000
0000
0010
0000
1010
0000
0000
1000
0000
0000
0001
0000
,
0022
0000
0033
0000
0000
0000
0100
0000
1100
0000
0000
0000
1000
0001
0000
0000
,
0000
0000
0000
0001
0100
0000
0000
0000
0220
0000
0330
0000
1001
0000
1000
0000
,
0100
0000
0001
0000
1000
0000
0010
0000
0001
0000
0000
0100
0010
0000
0000
1010
,
0000
0000
0101
0000
0001
0000
0000
0011
0000
0000
1100
0000
1000
0000
0010
0000
,
0100
0000
0001
0000
0011
0000
0000
0000
0010
2000
0000
0000
3000
0000
0000
0100
,
0010
0000
0000
0000
0000
0000
0100
0000
0000
1000
0000
0000
0100
0000
0000
0000
0000
0000
0000
0000
0000
0000
0000
0000
0010
0000
0000
0000
0001
0000
0000
0000
0010
0000
0000
0000
0110
0000
0000
0000
0000
0000
0000
0000
0000
0000
0000
0000
,
0100
1000
0100
0110
0000
0000
0010
0001
0100
0010
1000
0001
,
0010
0000
0000
0000
0100
0000
0000
0000
1000
0000
0000
0000
1001
0000
0000
0000
0000
0000
0000
0000
0000
0101
0000
0000
0000
0000
0000
0000
0000
0000
1010
0000
0000
0000
0000
0000
0110
0000
0000
0000
0000
0000
0000
0000
0000
0000
0000
0000
,
0001
0010
0100
1100
0000
0000
1000
0010
0100
0001
1000
0100
,
0010
0000
0001
0000
1000
0000
2002
0000
0000
3003
0000
0000
0120
0000
0000
0000
0000
0000
1030
0000
0000
0000
0000
0000
,
0120
0031
0120
1030
,
0120
0031
0101
1100
,
1010
0000
0000
0000
0022
0000
0000
0000
0033
0000
0000
0001
0100
0000
0000
0000
,
1100
0000
0000
0011
0000
0000
0000
0000
0201
0000
0000
0000
0310
0000
0000
0000
,
1200
0000
0000
0310
0000
0000
0010
0001
1000
0010
0100
0001
,
0011
0000
0010
0100
2100
0000
3010
0000
,
0012
0000
0000
0000
0103
0000
0000
0000
1010
0000
0000
0010
0001
0000
0000
0000
,
0101
0000
0000
0100
0000
0000
0010
0000
1000
0000
0001
0000
0021
0000
0000
0000
0000
0000
0130
0000
0000
0000
0000
0000
,
1020
0130
0021
0130
,
1020
0130
0101
0011
,
1010
0000
0000
0000
2200
0000
0000
0000
3300
0000
0000
0100
0010
0000
0000
0000
,
0011
0000
0000
1100
0000
0000
0000
0000
1020
0000
0000
0000
0031
0000
0000
0000
,
0201
0000
0000
0000
0000
0000
0000
0000
0000
0000
0000
0000
1300
0000
0000
0000
0000
0000
0000
0000
1000
0000
0000
0000
0001
0000
0000
0010
0000
0000
0100
0000
0000
1000
0000
0000
0001
0000
0000
0010
0000
0000
0100
0000
0000
1000
0000
0000
,
0001
0021
1030
1200
,
0301
0000
0000
0000
0022
0000
0000
0000
0033
0000
0000
0010
0100
0000
0000
0000
,
1100
0000
0000
0101
0000
0000
0011
0000
0010
0000
0100
0000
1000
0000
0010
0000
,
0100
1000
0010
0100
1000
0010
0100
0100
,
0001
0010
0100
0001
0010
0100
0001
0010
,
0100
0001
0010
0010
1000
0100
0001
0010
,
1000
0100
0001
0010
2002
0000
0000
0000
,
3003
0000
0000
0000
;

//---------------dance-double - ----------------
#NOTEDATA:;
#CHARTNAME:;
#STEPSTYPE:dance-double;
#DESCRIPTION:;
#CHARTSTYLE:;
#DIFFICULTY:Hard;
#METER:16;
#RADARVALUES:0.625484,0.761416,0.720129,0.576103,0.518493,456.000000,381.000000,75.000000,60.000000,0.000000,0.000000,0.000000,0.000000,0.000000,0.625484,0.761416,0.720129,0.576103,0.518493,456.000000,381.000000,75.000000,60.000000,0.000000,0.000000,0.000000,0.000000,0.000000;
#CREDIT:;
#DISPLAYBPM:86.000000:172.000000;
#NOTES:
00000000
00000000
00000000
00000000
,
00000000
00000000
00000000
00000000
,
00001000
00000000
00000000
01001000
00000000
00000000
00000000
00000000
00010000
00000000
00000000
00010100
00000000
00000000
00000000
00000000
,
00001000
00000000
00000000
00101000
00000000
00000000
00000000
00000000
00010000
00000000
00000000
00010010
00000000
00000000
00000000
00000000
,
00000100
00000000
00000000
00001100
00000000
00000000
00000000
00000000
01000000
00000000
00000000
01010000
00000000
00000000
00000000
00000000
,
00000010
00000000
00000000
00001010
00000000
00000000
00000000
00000000
00100000
00000000
00000000
00110000
00000000
00000000
00000000
00000000
,
11000000
00000000
00000000
00110000
00000000
00000000
00000000
00000000
01001000
00000000
00000000
00010010
00000000
00000000
00000000
00000000
,
00000101
00000000
00000000
00001010
00000000
00000000
00000000
00000000
00010100
00000000
00000000
00101000
00000000
00000000
00000000
00000000
,
11000000
00000000
00000000
01010000
00000000
00000000
00000000
00000000
00001010
00000000
00000000
00000011
00000000
00000000
00000000
00000000
,
00001100
00000000
00000000
00110000
00000000
00000000
00000000
00000000
00022000
00000000
00000000
00000000
00033000
00000000
00000000
00000000
,
00001000
00010000
00100000
00001000
00000010
00010000
00001000
00000100
,
00010000
01000000
00100000
20200000
30300000
00000000
10000000
01000000
,
00010000
00001000
00000100
00010000
01000000
00001000
00010000
00100000
,
00001000
00000010
00000100
00000202
00000303
00000000
00000001
00000010
,
00001000
00100000
00010000
10000000
01000000
00010000
00000100
00001000
,
00000001
00000010
00001000
00022000
00033000
00000000
00010000
01000000
,
10000000
00100000
00010000
00001000
00000100
00000001
00000010
00001000
,
00022000
00000000
00000000
00000000
00000000
00000000
00033000
00000000
00010000
00001000
00010000
00000000
00001000
00010000
00001000
00000000
,
00100000
00001000
00100000
00000000
00001000
00100000
00001000
00000000
01000000
00100000
01000000
00000000
00100000
01000000
00100000
00000000
,
00010000
00001000
00010000
00000000
00001000
00010000
00001000
00000000
00010000
00000010
00010000
00000000
00000010
00010000
00000010
00000000
,
00000100
00000010
00000100
00000000
00000010
00000100
00000010
00000000
00000100
00000001
00000010
00000000
00001000
00010000
00000010
00000000
,
00010000
00000000
00000000
00001000
00000000
00000000
01000000
00000000
00000000
00000000
00000000
00000000
00100000
00000000
00000000
10000000
00000000
00000000
01000000
00000000
00000000
00000000
00000000
00000000
00010000
00000000
00000000
00000000
00001000
00000000
00000000
00000000
01000000
00000000
00000000
00000000
00001000
00000000
00000000
00000000
00010000
00000000
00000000
00000000
00000100
00000000
00000000
00000000
,
00010000
00001000
00100000
00001000
00010000
00000010
00010000
00001000
00000100
00001000
00010000
01000000
,
00010000
00001000
00000010
00001000
00010000
00100000
00010000
00001000
00000010
00000001
00000100
00001000
,
00010000
00000000
00100000
00000000
10000000
00000000
01000000
00000000
00010000
00000000
00001000
00000000
00022000
00000000
00000000
00000000
00000000
00000000
00000000
00000000
00000000
00033000
00000000
00000000
,
00101000
00000000
00000000
00000000
00010010
00000000
00000000
00000000
00002200
00000000
00000000
00000000
00003300
00000000
00000000
00000100
,
00000010
00000000
00000000
00000011
00000000
00000000
00000100
00000000
00001100
00000000
00000000
00001000
00000000
00000000
00000010
00000000
,
00020020
00000000
00030030
00000000
00000000
00000000
00001000
00000000
01001000
00000000
00000000
00000000
01000000
00010000
00000000
00000000
,
00000000
00000000
00000000
10000000
00100000
00000000
00000000
00000000
01100000
00000000
00000000
00000000
01000000
00010000
10000000
00000000
,
10100000
00000000
00000000
00000000
01010000
00000000
00000000
00000000
00202000
00000000
00000000
00000000
00303000
00000000
00000000
00001000
,
00010000
00000000
00000000
00010100
00000000
00000000
00000010
00000000
00001010
00000000
00000000
00001000
00000000
00000000
00000001
00000000
,
00000022
00000000
00000033
00000000
00000000
00000000
00000010
00000000
00000110
00000000
00000000
00000000
00000100
00010000
00000000
00000000
,
00000000
00000000
00000000
00001000
01000000
00000000
00000000
00000000
02200000
00000000
03300000
00000000
10010000
00000000
10000000
00000000
,
01000000
00000000
00010000
00000000
00100000
00000000
10000000
00000000
01000000
00000000
00000000
00100000
00001000
00000000
00000000
00011000
,
00000000
00000000
00010100
00000000
00000100
00000000
00000000
00000110
00000000
00000000
00000011
00000000
00000001
00000000
00000100
00000000
,
00001000
00000000
00010000
00000000
00010010
00000000
00000000
00000000
00001000
00200000
00000000
00000000
00300000
00000000
00000000
01000000
,
00100000
00000000
00000000
01000000
00000000
00000000
11000000
00000000
00000000
00000000
00000000
00000000
10000000
00000000
00100000
00000000
00010000
00000000
00001000
00000000
00000000
00000000
00000000
00000000
,
00010000
00001000
00000100
00000001
00000000
00000000
00000010
00000100
00001000
00000010
00000100
00001000
,
00010000
00000000
00000000
00000000
00100000
00000000
00000000
00000000
01000000
00000000
00000000
00000000
00100000
00000000
00000000
00000000
00000000
00000000
00000000
00000000
00000000
10100000
00000000
00000000
00000000
00000000
00000000
00000000
00000000
00000000
01010000
00000000
00000000
00000000
00000000
00000000
00110000
00000000
00000000
00000000
00000000
00000000
00000000
00000000
00000000
00000000
00000000
00000000
,
00100000
01000000
00010000
00001000
00000000
00000000
00010000
00001000
00000010
00000100
00001000
00000001
,
00000010
00000000
00000100
00000000
00001000
00000000
00002002
00000000
00000000
00003003
00000000
00000000
00000120
00000000
00000000
00000000
00000000
00000000
00020030
00000000
00000000
00000000
00000000
00000000
,
00230000
00302000
00003200
00020300
,
02030000
13000000
10100000
01001000
,
00010010
00000000
00000000
00000000
00002200
00000000
00000000
00000000
00003300
00000000
00000000
00000100
00000010
00000000
00000000
00000000
,
00000011
00000000
00000000
00001100
00000000
00000000
00000000
00000000
00000200
00000000
00000000
00000000
00020300
00000000
00000000
00000000
,
02030000
00000000
00000000
23000000
00000000
00000000
30100000
01000000
00010000
00100000
01000000
00010000
,
00001000
00000000
00000010
00000001
00000200
00000000
00002300
00000000
,
00023000
00000000
00000000
00000000
00130000
00000000
00000000
00000000
10100000
00000000
00000000
01000000
00010000
00000000
00000000
00000000
,
00110000
00000000
00000000
00100000
00000000
00000000
00001000
00000000
00010000
00000000
00100000
00000000
20000000
00000000
00000000
00000000
00000000
00000000
32000000
00000000
00000000
00000000
00000000
00000000
,
03002000
00023000
00030020
00000032
,
00000203
00001300
00011000
00010010
,
01001000
00000000
00000000
00000000
00220000
00000000
00000000
00000000
00330000
00000000
00000000
01000000
10000000
00000000
00000000
00000000
,
10100000
00000000
00000000
01010000
00000000
00000000
00000000
00000000
00020000
00000000
00000000
00000000
00230000
00000000
00000000
00000000
,
00302000
00000000
00000000
00000000
00000000
00000000
00000000
00000000
00000000
00000000
00000000
00000000
00003010
00000000
00000000
00000000
00000000
00000000
00000000
00000000
00000010
00000000
00000000
00000000
00000001
00000000
00000000
00000010
00000000
00000000
00000100
00000000
00000000
00001000
00000000
00000000
00000001
00000000
00000000
00000010
00000000
00000000
00000100
00000000
00000000
00001000
00000000
00000000
,
00000010
00020010
00230000
00302000
,
00003200
00000000
00000000
00000000
00020300
00000000
00000000
00000000
01030000
00000000
00000000
10000000
00100000
00000000
00000000
00000000
,
00110000
00000000
00000000
00011000
00000000
00000000
00010010
00000000
00000010
00000000
00001000
00000000
00000100
00000000
00000010
00000000
,
00000001
00000010
00000100
00001000
00010000
00100000
01000000
01000000
,
10000000
00100000
01000000
00010000
00001000
00000010
00000100
00000001
,
00001000
00000100
00000010
00000010
00000001
00000100
00010000
00001000
,
00100000
10000000
01000000
00010000
00022000
00000000
00000000
00000000
,
00033000
00000000
00000000
00000000
;

//---------------dance-double - ----------------
#NOTEDATA:;
#CHARTNAME:;
#STEPSTYPE:dance-double;
#DESCRIPTION:;
#CHARTSTYLE:;
#DIFFICULTY:Easy;
#METER:9;
#RADARVALUES:0.288052,0.351423,0.211238,0.220840,0.000000,210.000000,188.000000,22.000000,23.000000,0.000000,0.000000,0.000000,0.000000,0.000000,0.288052,0.351423,0.211238,0.220840,0.000000,210.000000,188.000000,22.000000,23.000000,0.000000,0.000000,0.000000,0.000000,0.000000;
#CREDIT:;
#DISPLAYBPM:86.000000:172.000000;
#NOTES:
00000000
00000000
00000000
00000000
,
00000000
00000000
00000000
00000000
,
00001000
00000000
00010000
00000000
,
00000010
00000000
00010000
00000000
,
00001000
00000000
01000000
00000000
,
00001000
00000000
00010000
00000000
,
00011000
00000000
00101000
00000000
,
00011000
00000000
00010100
00000000
,
01001000
00000000
00011000
00000000
,
00010010
00000000
00022000
00033000
,
00001000
00010000
00100000
00010000
,
00001000
00010000
00100000
00100000
,
00010000
00001000
00000010
00001000
,
00010000
00001000
00000010
00000010
,
00001000
00010000
00100000
10000000
,
01000000
00010000
00001000
00000010
,
00000001
00000100
00001000
00010000
,
00022000
00033000
00001000
00100000
,
00010000
01000000
00001000
00100000
,
00010000
01000000
00001000
00001000
,
00010000
00000010
00001000
00000100
,
00010000
00000010
00001000
00000100
,
00000100
00000010
00000001
00000100
,
00001000
00010000
00100000
10000000
,
01000000
00010000
00022000
00033000
,
00001000
00000000
00100000
00000000
01000000
00000000
00000000
00010000
,
00010000
00001000
00000010
00000000
,
00000110
00000100
00000010
00000001
,
00000000
00000100
00000100
00000000
00001000
00000000
00010000
00000000
,
00100000
00000000
10000000
00000000
01000000
00000000
00000000
00100000
,
00100000
00001000
00010000
00000000
,
00000100
00000010
00000001
00000100
,
00000000
00000010
00000010
00000000
00000110
00000000
00000100
00000000
,
00000001
00000000
00000010
00000000
00001000
00000000
00000000
00010000
,
00010000
00001000
00010000
01000000
,
10000000
00000000
00100000
00000000
01000000
00000000
00000000
00100000
,
00100000
10000000
01000000
00010000
,
00001000
00010000
00100000
00010000
,
00001000
00011000
00000000
00010000
,
00001000
00000010
00001000
00010000
,
00001000
00011000
00020000
00030000
,
00002000
00003000
00000200
00000300
,
00000020
00000030
00001000
00000100
,
00000010
00000000
00000110
00000000
00000000
00000001
00000001
00000000
,
00000100
00001000
00020000
00030000
,
00002000
00003000
00010000
00100000
,
01100000
00000000
20000000
30000000
,
00020000
00030000
01000000
00100000
,
01100000
00000000
20000000
30000000
,
02000000
03000000
00020000
00030000
,
00002000
00003000
00000010
00000001
,
00001000
00000000
00001001
00000000
00000000
00000010
00000010
00000000
,
00000100
00001000
00010000
00100000
,
01100000
00000000
00000000
10000000
01000000
00000000
01010000
00000000
,
00011000
00001000
00000010
00000001
,
00000100
00000000
00000110
00000000
00000000
00001000
00001000
00000000
,
00000001
00000100
00002000
00000000
,
00000000
00003000
00020000
00000000
,
00000000
00030000
00200000
00000000
,
00000000
00300000
20000000
00000000
,
00000000
00000000
00020000
00000000
,
30030000
00000000
00000000
00000000
;

//---------------dance-double - ----------------
#NOTEDATA:;
#CHARTNAME:;
#STEPSTYPE:dance-double;
#DESCRIPTION:;
#CHARTSTYLE:;
#DIFFICULTY:Medium;
#METER:13;
#RADARVALUES:0.488316,0.644275,0.470484,0.470484,0.307255,356.000000,307.000000,49.000000,49.000000,0.000000,0.000000,0.000000,0.000000,0.000000,0.488316,0.644275,0.470484,0.470484,0.307255,356.000000,307.000000,49.000000,49.000000,0.000000,0.000000,0.000000,0.000000,0.000000;
#CREDIT:;
#DISPLAYBPM:86.000000:172.000000;
#NOTES:
// measure 0
00000000
00000000
00000000
00000000
,  // measure 1
00000000
00000000
00000000
00000000
,  // measure 2
00001000
00000000
00000000
00100000
00000000
00000000
00000000
00000000
00010000
00000000
00000000
00000010
00000000
00000000
00000000
00000000
,  // measure 3
00001000
00000000
00000000
01000000
00000000
00000000
00000000
00000000
00010000
00000000
00000000
00000100
00000000
00000000
00000000
00000000
,  // measure 4
00000010
00000000
00000000
00001000
00000000
00000000
00000000
00000000
00010000
00000000
00000000
00100000
00000000
00000000
00000000
00000000
,  // measure 5
00001000
00000000
00000000
00000100
00000000
00000000
00000000
00000000
00010000
00000000
00000000
01000000
00000000
00000000
00000000
00000000
,  // measure 6
10000000
00000000
00000000
10100000
00000000
00000000
00000000
00000000
00010000
00000000
00000000
00110000
00000000
00000000
00000000
00000000
,  // measure 7
00001000
00000000
00000000
00011000
00000000
00000000
00000000
00000000
00000100
00000000
00000000
00001100
00000000
00000000
00000000
00000000
,  // measure 8
00000001
00000000
00000000
00000101
00000000
00000000
00000000
00000000
00001000
00000000
00000000
01001000
00000000
00000000
00000000
00000000
,  // measure 9
00010000
00000000
00000000
00010100
00000000
00000000
00000000
00000000
00022000
00000000
00000000
00000000
00033000
00000000
00000000
00000000
,  // measure 10
00001000
00100000
00010000
01000000
00100000
20000000
00000000
00000000
,  // measure 11
31000000
00010000
00001000
00011000
00000000
00000000
00010000
00000100
,  // measure 12
00001000
00000010
00000100
00000001
00001000
00000100
00000010
00000001
,  // measure 13
00000100
00001000
00010000
00011000
00000000
00000000
00001000
01000000
,  // measure 14
00010000
00100000
01000000
10000000
00010000
01000000
00100000
10000000
,  // measure 15
01000000
00010000
00001000
00011000
00000000
00000000
00010000
00001000
,  // measure 16
00000010
00000001
00000100
00001000
00010000
00100000
10000000
01000000
,  // measure 17
02200000
00000000
03300000
00000000
00010000
00100000
01000000
00010000
,  // measure 18
00000000
00022000
00033000
00000000
00001000
00000010
00000100
00000110
,  // measure 19
00000000
00000000
00000001
00000100
00001000
00010000
00000000
00022000
,  // measure 20
00033000
00000000
00001000
00010000
00100000
10000000
01000000
00100000
,  // measure 21
00001000
00000000
00000000
00000000
00000000
00000000
00011000
00000000
00000000
00010000
00000000
00000000
00000100
00000000
00000000
00000000
00000100
00000000
00001000
00000000
00000000
00000000
00001000
00000000
,  // measure 22
00000001
00000000
00000001
00000010
00000000
00000010
00001000
00000000
00001000
00010000
00000000
00010000
,  // measure 23
01000000
00000000
01000000
10000000
00000000
10000000
00010000
01000000
00100000
01000000
00001000
00010000
,  // measure 24
00001000
00000010
00000100
00000010
00000001
00001000
00002002
00000000
00000000
00003003
00000000
00000000
,  // measure 25
00000101
00000000
00000000
00000000
00000100
00000000
00000000
00000000
00002020
00000000
00000000
00000000
00003030
00000000
00000000
00001000
,  // measure 26
00000100
00000000
00000000
00010000
00000000
00000000
00001000
00000000
00100000
00000000
00000000
00010000
00000000
00000000
10000000
00000000
,  // measure 27
10010000
00000000
00000000
00000000
00010000
00000000
01000000
00000000
00002000
00000000
00000000
00000000
00013000
00000100
00000000
00000000
,  // measure 28
00000000
00000000
00000000
00000010
00001000
00000000
00000000
00000000
00021000
00000000
00000000
00000000
01030000
00000000
00000000
00000000
,  // measure 29
11000000
00000000
00000000
00000000
00100000
00000000
00000000
00000000
00220000
00000000
00000000
00000000
00330000
00000000
00000000
00010000
,  // measure 30
01000000
00000000
00000000
00001000
00000000
00000000
00010000
00000000
00000010
00000000
00000000
00001000
00000000
00000000
00000001
00000000
,  // measure 31
00001001
00000000
00000000
00000000
00001000
00000000
00000100
00000000
00020000
00000000
00000000
00000000
00031000
01000000
00000000
00000000
,  // measure 32
00000000
00000000
00000000
00100000
00010000
00000000
00000000
00000000
00022000
00000000
00033000
00000000
00001000
00000000
00000010
00000000
,  // measure 33
00000100
00000010
00000001
00000100
00001000
00000000
00000000
00010000
,  // measure 34
01000000
00100000
01000000
10000000
00100000
00010000
00010010
00000000
,  // measure 35
00000000
00000000
00001000
00000000
01001000
00000000
00000000
00000000
01000000
00100000
00000000
00000000
00000000
00000000
00000000
10000000
,  // measure 36
00010000
00000000
00000000
00110000
00000000
00000000
00100000
01000000
00010000
00001000
00000000
00000000
,  // measure 37
00010000
00001000
00000010
00000100
00000000
00000000
00001001
00000000
00000000
00000002
00000000
00000000
,  // measure 38
00000203
00002300
00023000
00130000
,  // measure 39
10000000
00000000
00000000
00000000
01000000
00000000
00000000
00000000
00100000
00000000
00000000
00000000
00010000
00000000
00000000
00000000
00000000
00000000
00000000
00000000
00000000
00000000
00000000
00000000
00001000
00000000
00000000
00000010
00000000
00000000
00000000
00000000
00000000
00000000
00000000
00000000
00000000
00000000
00000000
00000000
00000000
00000000
00000000
00000000
00000000
00000100
00000000
00000000
,  // measure 40
00000001
00000110
00000020
00010030
,  // measure 41
00200000
00301000
00000200
00010300
,  // measure 42
02000000
03001000
00011000
00010010
,  // measure 43
01001000
00000000
00000000
00000000
00022000
00000000
00000000
00000000
00033000
00000000
00000000
00010000
00100000
00000000
00000000
00000000
,  // measure 44
10100000
00000000
00000000
01010000
00000000
00000000
00000000
00000000
20000000
00000000
00000000
00000000
31000000
00000000
00000000
00000000
,  // measure 45
00200000
00000000
00000000
00310000
00000000
00000000
01000000
00000000
00001000
00010000
00000000
00000100
,  // measure 46
00000010
00000011
00000002
00000103
,  // measure 47
00002000
00000000
00000000
00000000
00003010
00000000
00000000
00000000
00000001
00000000
00000000
00000100
00000010
00000000
00000000
00000000
,  // measure 48
00001001
00000000
00000000
00000001
00000100
00001000
00020000
00000000
00000000
00130000
00000000
00000000
,  // measure 49
20000000
31000000
00020000
01030000
,  // measure 50
20000000
30100000
01100000
01001000
,  // measure 51
00010100
00000000
00000000
00000000
00000220
00000000
00000000
00000000
00000330
00000000
00000000
00000001
00000100
00000000
00000000
00000000
,  // measure 52
00001010
00000000
00000000
00000101
00000000
00000000
00000000
00000000
00000002
00000000
00000000
00000000
00000013
00000000
00000000
00000000
,  // measure 53
00002000
00000000
00000000
00000000
00003100
00000000
00000000
00000000
00000010
00000100
00000010
00000000
00000001
00001000
00000001
00000000
,  // measure 54
00001001
00000110
00000200
00001300
,  // measure 55
00020000
00000000
00000000
00000000
00130000
00000000
00000000
00000000
01100000
00000000
00000000
10000000
00010000
00000000
00000000
00000000
,  // measure 56
01001000
00000000
00000000
00010010
00000000
00000000
00000000
00000000
00020000
00000000
00000000
00000000
00001000
00000000
00000000
00000000
,  // measure 57
00000010
00000100
00032000
00010000
,  // measure 58
00100000
01000000
00023000
00001000
,  // measure 59
00100000
01000000
00032000
00010000
,  // measure 60
00000010
00000100
00020000
00000000
,  // measure 61
00033000
00000000
00000000
00000000
;
