#TITLE:So Bad;
#SUBTITLE:;
#ARTIST:STAYC;
#TITLETRANSLIT:;
#SUBTITLETRANSLIT:;
#ARTISTTRANSLIT:;
#GENRE:K-POP;
#CREDIT:MUINELIM;
#BANNER:So Bad.png;
#BACKGROUND:So Bad-bg.png;
#LYRICSPATH:;
#CDTITLE:;
#MUSIC:So Bad.ogg;
#OFFSET:0.022000;
#SAMPLESTART:55.725647;
#SAMPLELENGTH:14.181180;
#SELECTABLE:YES;
#DISPLAYBPM:85.000000:169.000000;
#BPMS:0.000000=169.000000
,289.000000=84.500000
,305.000000=169.000000
,306.000000=84.500000
,308.000000=169.000000
;
#STOPS:305.000000=1.065000
;
#BGCHANGES:0.000=So Bad.avi=1.000=0=0=0=StretchNoLoop====,
99999=-nosongbg-=1.000=0=0=0 // don't automatically add -songbackground-
;
#KEYSOUNDS:;
#ATTACKS:;

//---------------dance-single - ----------------
#NOTES:
     dance-single:
     :
     Beginner:
     4:
     0.133731,0.229606,0.036855,0.000000,0.000000,127.000000,122.000000,5.000000,0.000000,0.000000,0.000000,0.133731,0.229606,0.036855,0.000000,0.000000,127.000000,122.000000,5.000000,0.000000,0.000000,0.000000:
0000
0000
0000
0000
,
0000
0000
0000
0000
,
0000
0000
0000
0000
,
0000
0000
0000
0000
,
0000
0000
0000
0000
,
0000
0000
0000
0000
,
0000
0000
0000
0000
,
0000
0000
0000
0000
,
0000
1000
0000
0000
,
0000
1000
0000
0000
,
0000
0001
0000
0000
,
0000
0001
0000
0000
,
0000
1000
0000
0000
,
0000
1000
0000
0000
,
0000
0001
0000
0000
,
0000
0001
0000
0000
,
0000
1000
0000
0000
,
0000
0100
0000
0000
,
0000
0010
0000
0000
,
0000
0001
0000
0000
,
0000
0010
0000
0000
,
0000
0100
0000
0000
,
0000
1000
0000
0000
,
0000
0010
0000
0000
,
0000
0100
0000
0100
,
0000
0100
0000
0100
,
0000
0001
0000
0001
,
0000
0001
0000
0001
,
0000
1000
0000
1000
,
0000
1000
0000
1000
,
0000
0010
0000
0010
,
0000
0010
0000
0010
,
0000
0100
0000
0000
,
0000
0000
0000
0000
,
0000
0100
0000
0100
,
0000
0100
0000
0000
,
0000
0010
0000
0010
,
0000
0010
0000
0000
,
0000
0010
0000
0000
,
0000
0000
0000
0000
,
0000
1001
0000
0000
,
0000
1000
0000
0001
,
0000
1000
0000
1000
,
0000
0000
0000
0001
,
0000
1000
0000
0001
,
0000
0001
0000
0001
,
0000
1000
0000
1000
,
0000
1000
0000
0000
,
0000
1001
0000
0000
,
0000
0010
0000
0100
,
0000
0010
0000
0010
,
0000
0000
0000
0100
,
0000
0010
0000
0100
,
0000
0100
0000
0100
,
0000
0010
0000
0010
,
0000
0010
0000
0000
,
0000
1000
0000
0000
,
0000
0100
0000
0000
,
0000
0001
0000
0000
,
0000
0010
0000
0000
,
0000
1000
0000
0000
,
0000
0100
0000
0000
,
0000
0001
0000
0000
,
0000
0010
0000
0000
,
0000
1000
0000
1000
,
0000
1000
0000
1000
,
0000
0001
0000
0001
,
0000
0001
0000
0001
,
0000
0100
0000
0100
,
0000
0010
0000
0010
,
0000
1000
0000
0001
,
0000
0100
0000
0010
,
0000
1001
0000
0000
,
0000
0000
0000
0000
,
0000
1000
0000
0001
,
0000
0100
0000
0010
,
0000
1001
0000
0000
,
1000
0000
0001
0000
,
1000
0000
0001
0000
,
0010
0000
0100
0000
,
0010
0000
0100
0000
,
1000
0000
0001
0000
,
0010
0000
0100
0000
,
1000
0000
0010
0000
,
0100
0000
0001
0000
,
1000
0000
0100
0000
,
0010
0000
0001
0000
,
0100
0000
0010
0000
,
0100
0100
0100
0000
,
1001
0000
0000
0000
;

//---------------dance-single - ----------------
#NOTES:
     dance-single:
     :
     Easy:
     7:
     0.263250,0.328009,0.110565,0.088452,0.000000,250.000000,235.000000,15.000000,12.000000,0.000000,0.000000,0.263250,0.328009,0.110565,0.088452,0.000000,250.000000,235.000000,15.000000,12.000000,0.000000,0.000000:
0000
0000
0000
0000
,
0000
0000
0000
0000
,
0000
0000
0000
0000
,
0000
0000
0000
0000
,
0000
0000
0000
0000
,
0000
0000
0000
0000
,
0000
0000
0000
0000
,
0000
0000
0000
0000
,
0000
1000
0010
0000
,
0010
0100
0010
0000
,
0010
1000
0010
0000
,
0100
0001
0100
0000
,
0100
0010
0100
0000
,
0001
1000
0001
0000
,
1000
0001
1000
1001
,
0000
0010
0100
0010
,
0110
0000
0000
1000
,
0100
0010
0000
0001
,
0010
0100
0000
1000
,
0001
0100
0000
0001
,
1000
0010
0000
0100
,
0001
1000
0000
0010
,
1000
0001
0000
0100
,
0010
1000
0001
0200
,
0300
0010
0000
1000
,
0000
0010
0100
0010
,
0000
0100
0000
0001
,
0000
0100
0010
0100
,
0000
0010
0000
1000
,
0000
0001
0000
0100
,
0000
0110
0000
0010
,
0100
0010
1000
0001
,
1000
0200
0300
0020
,
0000
0030
0000
0000
,
0000
0002
0003
2000
,
0000
3000
0000
0000
,
0000
0020
0030
0200
,
0000
0300
0000
0010
,
0010
0000
1000
0001
,
1000
2002
0000
0000
,
3003
0001
0100
0010
,
0100
0001
0100
0010
,
0000
1000
0010
0100
,
0010
1000
0010
0100
,
0000
1001
0001
0100
,
0000
1001
1000
0010
,
0000
0100
0001
0100
,
0010
1000
0010
0100
,
0010
0110
1000
0100
,
1000
0010
1000
0100
,
0000
0010
0001
0100
,
0001
0010
0001
0100
,
0000
0110
0010
1000
,
0000
0110
0100
0001
,
0000
0010
0100
1000
,
0001
0010
0100
1000
,
0001
1000
0000
0010
,
0000
1000
0000
0001
,
0000
0100
0000
0001
,
0000
1000
0000
0010
,
0000
0200
0000
0310
,
0000
1000
0000
0001
,
0000
0020
0000
0130
,
0000
1000
0000
0001
,
0000
1001
0000
1000
,
0100
1000
0100
1000
,
1000
0000
0001
0010
,
0001
0010
0001
0001
,
0000
0100
0010
0000
,
0010
0000
0010
0100
,
0010
0100
0100
0000
,
0100
0001
1000
0001
,
1000
1001
0000
0010
,
0000
0100
0000
0010
,
0000
0100
0000
0010
,
0000
0000
0100
0000
0010
0000
0100
0100
,
0100
0001
1001
0000
,
1000
0001
0010
0100
,
0010
0001
1000
0100
,
0010
0100
1000
0010
,
0100
0001
1000
0010
,
0110
0100
0001
0000
,
0110
0010
1000
0000
,
0001
1000
0001
0010
,
0100
1000
0100
0010
,
0001
0000
0000
0100
0000
0000
0010
0000
,
0000
1000
0000
0000
0001
0000
0000
0000
,
1000
0001
2000
3000
,
0010
0100
0010
1000
,
1001
0000
0000
0000
;

//---------------dance-single - ----------------
#NOTES:
     dance-single:
     :
     Medium:
     10:
     0.411722,0.527763,0.191646,0.221130,0.000000,391.000000,365.000000,26.000000,30.000000,0.000000,0.000000,0.411722,0.527763,0.191646,0.221130,0.000000,391.000000,365.000000,26.000000,30.000000,0.000000,0.000000:
0000
0000
0000
0000
,
0000
0000
0000
0000
,
0000
0000
0000
0000
,
0000
0000
0000
0000
,
0000
0000
0000
0000
,
0000
0000
0000
0000
,
0000
0000
0000
0000
,
0000
0000
0000
0000
,
0000
0000
0010
0000
1000
0000
0000
0010
,
0100
0000
0010
0000
0100
0001
0000
1000
,
0001
0000
0100
0000
0001
0000
0000
0100
,
0010
0000
0100
0000
0010
1000
0000
0001
,
1000
0000
0010
0000
0100
0000
0000
0001
,
1000
0000
0010
0000
0100
0010
0000
1000
,
0001
0000
0100
0000
0010
0100
0020
0000
,
0000
0000
0030
0000
1000
0001
1000
0000
,
0002
0000
1003
0000
0000
1000
0010
1000
,
0010
0000
1000
0000
0000
0001
0100
0001
,
0100
0000
0001
0000
0000
1000
0100
1000
,
0100
0000
1000
0000
0000
0001
0010
0001
,
0010
0000
0001
0000
0000
0100
0010
0100
,
0010
0000
0100
0000
0000
0001
1000
0001
,
1000
0000
0001
0000
0000
1000
0010
0100
,
0001
0010
0100
1000
,
1001
0000
0001
0000
0100
0010
0000
0100
,
0000
0001
0000
0000
0100
0010
0000
0000
,
0110
0000
0100
0000
0010
1000
0000
0100
,
0000
1000
0000
0000
0010
0100
0000
0000
,
0110
0000
0010
0000
0100
0001
0000
1000
,
0000
0010
0000
0000
0100
0010
0000
1000
,
0001
1000
0000
0000
1001
0000
0001
0010
,
0100
1000
0010
0000
0100
0000
0002
0000
,
1003
1000
0100
0010
,
0002
0000
0100
0103
,
0000
0001
0010
0100
,
2000
0000
0010
3010
,
0000
1000
0001
0100
,
0020
0000
0000
0100
,
0130
0000
0000
0000
0001
1000
0001
0000
,
1000
2002
0000
0000
,
3003
1001
0001
0100
,
1000
0000
0100
0001
0100
0001
0000
0010
,
0000
0100
0000
1000
0010
1000
0000
0100
,
0000
0010
0000
0001
0000
0101
0000
1100
,
0000
1000
0010
0000
0100
0001
0100
0010
,
0000
1000
0000
0010
0000
0100
0001
0000
,
0011
0000
0010
0100
1000
0000
0001
0010
,
0100
0000
1000
0001
0100
0010
1000
0000
,
0001
1001
1000
0100
,
0001
0000
0100
1000
0100
1000
0000
0010
,
0000
0100
0000
0001
0010
0001
0000
0100
,
0000
0010
0000
1000
0000
1100
0000
0101
,
0000
0001
0010
0000
0100
1000
0100
0010
,
0000
0001
0000
0010
0000
0100
1000
0000
,
1010
0020
0130
0200
,
0301
0002
1003
2000
,
3010
0000
0110
0000
0100
0001
0100
0001
,
0000
0010
0000
0100
0000
1000
0000
0010
,
0100
0001
2000
0000
0000
0000
3002
0000
,
0000
0000
0000
0000
0103
0010
1000
0000
,
0010
0100
0002
0000
0000
0000
0010
0000
,
0000
0000
1003
0000
1000
0100
0010
0000
,
0001
0010
0200
0000
0000
0000
1000
0000
,
0000
0010
0000
0001
,
0000
1300
1000
0010
,
0001
0000
0010
0000
1000
0100
0010
0100
,
0000
1000
0001
0100
,
1000
0000
0100
0000
0001
0010
0100
0010
,
0000
0002
0000
2000
3003
0000
1000
0000
,
0010
0000
0100
0000
0001
1000
0001
0000
,
0100
0020
0000
0200
0330
0000
0100
0000
,
0010
0000
1000
0001
0100
0000
0001
1000
,
0010
0000
0110
0000
0100
0100
0001
0000
,
0010
0010
1000
0000
0001
0001
0100
0000
,
1000
1000
0010
0000
0001
0001
1000
0000
,
0100
0100
0010
0000
0001
1000
0001
0100
,
0020
0130
2002
3003
,
1001
0001
0100
1000
,
0100
0001
0100
0010
0000
1000
0000
0100
,
0000
0010
0001
0010
0000
0100
1000
0100
,
0000
1000
0000
1010
0000
0011
0000
0001
,
0100
0000
0010
1000
0100
0010
0000
0001
,
0000
1000
0010
0100
0001
1000
0000
0000
,
0120
1030
0210
0301
,
2001
3100
1002
0013
,
0010
0100
0000
1000
0010
0000
0001
0100
,
0000
1000
0010
0000
0001
0200
0000
0000
,
1300
0010
0100
0001
0000
0011
0000
1000
,
0100
0010
0001
0100
0000
1010
0000
0001
,
0202
0000
0303
0000
;

//---------------dance-single - ----------------
#NOTES:
     dance-single:
     :
     Hard:
     12:
     0.542294,0.725674,0.368549,0.324324,0.062653,515.000000,465.000000,50.000000,44.000000,0.000000,0.000000,0.542294,0.725674,0.368549,0.324324,0.062653,515.000000,465.000000,50.000000,44.000000,0.000000,0.000000:
0000
0000
0000
0000
,
0000
0000
0000
0000
,
0000
0000
0000
0000
,
0000
0000
0000
0000
,
0000
0000
0000
0000
,
0000
0000
0000
0000
,
0000
0000
0000
0000
,
0000
0000
0000
0000
,
0000
0000
1000
0000
1010
0000
0000
0010
,
0100
0000
0001
0000
0011
0010
0000
0001
,
1000
0000
0001
0000
0101
0000
0000
0100
,
0010
0000
1000
0000
1100
0100
0000
1000
,
0001
0000
0010
0000
0011
0000
0000
0001
,
0100
0000
0010
0000
1010
1000
0000
0100
,
1000
0000
0100
0010
0001
1000
0200
0000
,
0000
0000
0000
0310
0001
0010
0110
0000
,
1000
0001
1000
0000
0020
0000
0000
0000
0130
0000
0001
0000
0010
0000
0100
0000
,
1000
0000
0110
0000
0010
1000
0100
0010
,
0001
0000
0110
0000
0001
0100
0010
1000
,
0001
0000
0101
0000
1000
0010
0100
0001
,
1000
0000
0101
0000
0001
1000
0100
0010
,
0100
0000
1100
0000
1000
0001
0010
0100
,
0010
0000
0011
0000
0001
0100
0010
1000
,
0010
0100
0001
0100
0010
1000
0100
0010
,
0001
1000
1001
0000
0001
0100
0000
1000
,
0100
0010
0000
0001
0010
0100
0000
0010
,
1010
0000
0101
0000
1000
0100
0000
0001
,
0100
0010
0000
1000
0010
0100
0000
0010
,
0011
0000
1100
0000
1000
0001
0000
0100
,
1000
0001
0000
0010
1000
0001
0000
0100
,
1000
0002
0000
0000
0013
0000
1000
0100
,
0010
0001
0100
0010
1000
0001
0020
0000
,
0230
0000
1300
0010
0100
0010
1000
0010
,
0200
0000
0001
0301
,
0001
0010
1000
0000
0001
0100
0000
1000
,
0020
0000
0100
0130
,
0100
0010
1000
0000
0100
0001
0000
1000
,
0020
0000
0000
0031
,
1001
0000
0000
1000
0001
0010
0100
1000
,
0020
0200
0000
0000
,
0330
0000
1001
0000
0001
0100
1000
0001
,
0010
0000
1000
0100
0010
0001
0000
1000
,
0010
0100
0002
0000
0013
0100
2000
0000
,
3010
0100
0001
0010
0100
1000
0100
0001
,
0100
1000
1010
0000
0010
0100
0001
0010
,
0000
0011
0000
0010
0001
0100
1000
0100
,
0000
0010
0001
0010
1000
0100
0010
0001
,
1000
0010
0100
0001
0010
0100
1000
0001
,
0000
0100
0110
0000
1000
0100
0001
1000
,
0010
0000
0001
0100
0010
1000
0000
0001
,
0010
0100
2000
0000
3010
0100
0002
0000
,
0013
0100
1000
0010
0100
0001
0100
1000
,
0100
0001
0011
0000
0010
0100
1000
0010
,
0000
1010
0000
0010
1000
0100
0001
0100
,
0000
1000
1002
0000
0203
0000
0320
0000
,
2030
0000
0000
0000
0000
0000
0000
0000
0000
0000
0000
0000
0000
0000
0000
0000
0000
0000
0000
0000
0000
0000
0000
0000
0000
0000
0000
0000
0000
0000
0000
0000
0000
0000
0000
0000
0000
0000
0000
0000
0000
0000
0000
0000
0000
0000
0000
0000
3002
0000
0000
0000
0000
0000
0000
0000
0000
0000
0000
0000
0000
0000
0000
0000
0000
0000
0000
0000
0000
0000
0000
0000
0000
0000
0000
0000
0000
0000
0000
0000
0000
0000
0000
0000
0000
0000
0000
0000
0000
0000
0000
0000
0000
0000
0000
0000
0003
0020
0000
0000
0000
0000
0000
0000
0000
0000
0000
0000
0000
0000
0000
0000
0000
0000
0000
0000
0000
0000
0000
0000
0000
0000
0000
0000
0000
0000
0000
0000
0000
0000
0000
0000
0000
0000
0000
0000
0000
0000
0000
0000
0000
0000
0000
0000
0230
0000
0000
0000
0000
0000
0000
0000
0000
0000
0000
0000
0000
0000
0000
0000
0000
0000
0000
0000
0000
0000
0000
0000
0000
0000
0000
0000
0000
0000
0000
0000
0000
0000
0000
0000
0000
0000
0000
0000
0000
0000
0000
0000
0000
0000
0000
0000
,
2300
0000
3001
0000
0001
0100
0010
0001
,
0000
0011
0000
1010
0000
1100
0000
0100
,
0001
0100
0020
0000
0000
0031
2000
0000
,
0000
0000
3100
0000
0100
0010
0001
1000
,
0100
0010
0002
0000
0100
0000
0000
0000
,
0010
0000
0000
1003
1000
0010
0100
0001
,
0010
0100
2000
0000
0010
0000
0000
0000
,
0001
0000
0100
0000
,
3010
0000
1001
0000
0001
0100
1000
0000
,
0001
0010
1000
0000
0100
0010
0001
0100
,
0000
0000
1010
0000
1000
0010
0001
0000
,
1000
0100
0001
0000
0010
0100
1000
0010
,
0000
0101
0000
0100
1000
0000
0100
0001
,
0010
0000
0100
1000
0010
0001
0010
1000
,
0100
0010
0000
0001
0100
0000
1000
0100
,
0001
0000
0010
0100
0001
0100
1000
0100
,
0010
0000
0001
0000
1001
0000
0000
1000
0010
0100
0002
0000
0000
0000
0000
1003
,
0100
0010
0100
0000
1001
0000
0000
0001
0100
0010
2000
0000
0000
0000
0000
3001
,
0010
0100
0010
0000
1001
0000
0000
0001
0100
1000
0200
0000
0000
0000
0000
0310
,
0001
0000
0020
0000
0000
0000
0000
1030
0100
0010
0001
0010
0100
0010
0001
0000
,
1000
1001
0220
0330
,
0110
0000
0001
0100
1000
0100
0001
0010
,
0100
0001
0100
0010
0001
1000
0100
0010
,
1000
0010
0100
1000
0010
0001
0010
1000
,
0100
0010
1000
0010
0001
0010
0100
0010
,
1001
0000
0001
0100
1000
0010
0000
0110
,
0000
1000
0100
0001
0010
0100
0000
0000
,
1002
0023
2030
3200
,
0302
0023
2030
3200
,
0301
0011
0000
1000
1100
0000
0001
0101
,
0000
1000
1010
0000
0001
2002
0003
0000
,
3010
0001
0100
1000
0000
0110
0000
0001
,
0010
1000
0100
0001
0000
0011
0000
1010
,
2002
0000
3003
0000
;

//---------------dance-double - ----------------
#NOTES:
     dance-double:
     :
     Hard:
     12:
     0.526499,0.725674,0.324324,0.346436,0.058968,500.000000,456.000000,44.000000,47.000000,0.000000,0.000000,0.526499,0.725674,0.324324,0.346436,0.058968,500.000000,456.000000,44.000000,47.000000,0.000000,0.000000:
// measure 0
00000000
00000000
00000000
00000000
,  // measure 1
00000000
00000000
00000000
00000000
,  // measure 2
00000000
00000000
00000000
00000000
,  // measure 3
00000000
00000000
00000000
00000000
,  // measure 4
00000000
00000000
00000000
00000000
,  // measure 5
00000000
00000000
00000000
00000000
,  // measure 6
00000000
00000000
00000000
00000000
,  // measure 7
00000000
00000000
00000000
00000000
,  // measure 8
00000000
00000000
00001000
00000000
01001000
00000000
00000000
00001000
,  // measure 9
00010000
00000000
00000010
00000000
00010010
00010000
00000000
00001000
,  // measure 10
00010000
00000000
00001000
00000000
00101000
00000000
00000000
00001000
,  // measure 11
00010000
00000000
00000100
00000000
00010100
00010000
00000000
00001000
,  // measure 12
00000100
00000000
00000001
00000000
00000011
00000000
00000000
00000010
,  // measure 13
00001000
00000000
00010000
00000000
00011000
00001000
00000000
00010000
,  // measure 14
01000000
00000000
10000000
00100000
00010000
00001000
00022000
00000000
,  // measure 15
00000000
00033000
00000000
00010000
00001000
00000100
00000101
00000000
,  // measure 16
00000001
00001000
00000001
00000000
00000200
00000000
00000000
00000000
00000310
00000000
00010000
00000000
00001000
00000000
00100000
00000000
,  // measure 17
00010000
00000000
00110000
00000000
00010000
01000000
00001000
00010000
,  // measure 18
00000100
00000000
00001100
00000000
00001000
00000010
00010000
00001000
,  // measure 19
01000000
00000000
01010000
00000000
00010000
00100000
00001000
00010000
,  // measure 20
00000010
00000000
00001010
00000000
00001000
00000100
00000010
00000001
,  // measure 21
00000100
00000000
00000110
00000000
00000010
00000100
00001000
00010000
,  // measure 22
00100000
00000000
01100000
00000000
01000000
00100000
10000000
01000000
,  // measure 23
00100000
00010000
01000000
00100000
00010000
00001000
00000100
00000000
,  // measure 24
00000001
00000000
00001001
00000000
00001000
00000010
00000000
00010000
,  // measure 25
00001000
00000100
00000000
00001000
00010000
01000000
00000000
10000000
,  // measure 26
10100000
00000000
01010000
00000000
00010000
00100000
00000000
00001000
,  // measure 27
00010000
01000000
00000000
00010000
00001000
00000100
00000000
00000001
,  // measure 28
00000011
00000000
00001100
00000000
00001000
00000010
00000000
00010000
,  // measure 29
00001000
00100000
00000000
00001000
00010000
00000100
00000000
00010000
,  // measure 30
00001000
02000000
00000000
00000000
03010000
00000000
00010000
00100000
,  // measure 31
01000000
10000000
00100000
01000000
00010000
00100000
00002000
00000000
,  // measure 32
00023000
00000000
00030100
00001000
00000100
00000010
00000001
00000010
,  // measure 33
00000200
00000000
00001000
00001300
,  // measure 34
00001000
00000010
00010000
00000000
00001000
00010000
00000000
00001000
,  // measure 35
00200000
00000000
00010000
00310000
,  // measure 36
00010000
01000000
00100000
00000000
10000000
01000000
00000000
00100000
,  // measure 37
00002000
00000000
00000000
00013000
,  // measure 38
00011000
00000000
00000000
00010000
00000100
00001000
00000100
00000010
,  // measure 39
00000002
00002000
00000000
00000000
,  // measure 40
00003003
00000000
00001001
00000000
00000001
00000100
00000000
00001000
,  // measure 41
00000100
00000000
00000010
00001000
00000100
00000010
00000000
00001000
,  // measure 42
00010000
00100000
20000000
00000000
31000000
00100000
00020000
00000000
,  // measure 43
01030000
00000000
01000000
00100000
00010000
00001000
00010000
00100000
,  // measure 44
00010000
00001000
00000020
00000000
00000130
00000010
00000001
00000100
,  // measure 45
00000000
00001100
00000000
00001000
00010000
01000000
10000000
01000000
,  // measure 46
00000000
00100000
01000000
10000000
00100000
00010000
00001000
00100000
,  // measure 47
01000000
00010000
00001000
00000010
00000100
00010000
00001000
01000000
,  // measure 48
00000000
00100000
10010000
00000000
10000000
01000000
00000000
00010000
,  // measure 49
01000000
00000000
00100000
00010000
01000000
00100000
00000000
00010000
,  // measure 50
00001000
00000010
00000002
00000000
00000103
00000010
00002000
00000000
,  // measure 51
00003100
00000000
00000100
00000010
00001000
00010000
00001000
00000010
,  // measure 52
00001000
00010000
00200000
00000000
10300000
01000000
00100000
01000000
,  // measure 53
00000000
01010000
00000000
00010000
00001000
00000100
00000001
00000100
,  // measure 54
00000000
00002001
00003020
00020030
,  // measure 55
00032000
02003000
03020000
00230000
,  // measure 56
02300000
00000000
13000000
00000000
10000000
00100000
00010000
00001000
,  // measure 57
00000000
00011000
00000000
00000100
00000000
00000110
00000000
00000001
,  // measure 58
00000100
00001000
00020000
00000000
00000000
00130000
20000000
00000000
,  // measure 59
00000000
00000000
31000000
00000000
01000000
00100000
00010000
10000000
,  // measure 60
01000000
00100000
00002000
00000000
00010000
00000000
00000000
00000000
,  // measure 61
00010000
00000000
00000000
00013000
00010000
00000100
00000010
00000001
,  // measure 62
00001000
00000100
00000020
00000000
00000001
00000000
00000000
00000000
,  // measure 63
00000100
00000000
00001000
00000000
,  // measure 64
00000031
00000000
00001001
00000000
00001000
00000010
00010000
00000000
,  // measure 65
00001000
00010000
00100000
00000000
10000000
01000000
00100000
00010000
,  // measure 66
00000000
00000000
10010000
00000000
00010000
01000000
00001000
00000000
,  // measure 67
00010000
00001000
00000100
00000000
00000001
00000010
00000100
00001000
,  // measure 68
00000000
00011000
00000000
00010000
01000000
00000000
00100000
10000000
,  // measure 69
01000000
00000000
00100000
00010000
01000000
00100000
00010000
00001000
,  // measure 70
00000100
00000010
00000000
00000100
00000001
00000000
00000010
00001000
,  // measure 71
00010000
00000000
00100000
00010000
00001000
00000100
00001000
00010000
,  // measure 72
01000000
00000000
10000000
00000000
10010000
00000000
00000000
00010000
01000000
00010000
02000000
00000000
00000000
00000000
00000000
03001000
,  // measure 73
00010000
00000100
00001000
00000000
00001001
00000000
00000000
00001000
00000100
00001000
00000200
00000000
00000000
00000000
00000000
00010300
,  // measure 74
00001000
01000000
00010000
00000000
10010000
00000000
00000000
10000000
01000000
00100000
00020000
00000000
00000000
00000000
00000000
01030000
,  // measure 75
00001000
00000000
00020000
00000000
00000000
00000000
00000000
00030100
00001000
00000100
00000010
00000001
00000010
00000100
00001000
00000000
,  // measure 76
00000100
00010000
00011000
00000000
00022000
00000000
00033000
00000000
,  // measure 77
00011000
00000000
00010000
00001000
00000100
00000001
00000010
00000000
,  // measure 78
00001000
00000010
00000001
00000100
00001000
00010000
00100000
00000000
,  // measure 79
00010000
00100000
10000000
01000000
00010000
00001000
00000010
00000000
,  // measure 80
00001000
00000010
00000001
00000100
00001000
00010000
00100000
10000000
,  // measure 81
10010000
00000000
00010000
00100000
01000000
00010000
00000000
00011000
,  // measure 82
00000000
00001000
00000010
00000100
00001000
00000001
00000000
00000000
,  // measure 83
00000201
00000320
00002030
00023000
,  // measure 84
02030000
03200000
20300000
30020000
,  // measure 85
00130000
01000000
00000000
00010000
00001000
00000000
00000010
00000100
,  // measure 86
00000000
00001000
00001001
00000000
00000100
00000220
00000330
00000000
,  // measure 87
00000001
00000100
00001000
00010000
00000000
01100000
00000000
10000000
,  // measure 88
01000000
00010000
00001000
00000010
00000000
00000101
00000000
00001000
,  // measure 89
00022000
00000000
00033000
00000000
;

//---------------dance-double - ----------------
#NOTES:
     dance-double:
     :
     Easy:
     7:
     0.246402,0.328009,0.051597,0.081081,0.000000,234.000000,227.000000,7.000000,11.000000,0.000000,0.000000,0.246402,0.328009,0.051597,0.081081,0.000000,234.000000,227.000000,7.000000,11.000000,0.000000,0.000000:
00000000
00000000
00000000
00000000
,
00000000
00000000
00000000
00000000
,
00000000
00000000
00000000
00000000
,
00000000
00000000
00000000
00000000
,
00000000
00000000
00000000
00000000
,
00000000
00000000
00000000
00000000
,
00000000
00000000
00000000
00000000
,
00000000
00000000
00000000
00000000
,
00000000
00001000
00010000
00000000
,
00001000
01000000
00001000
00000000
,
00010000
00000100
00010000
00000000
,
00001000
00100000
00001000
00000000
,
00010000
00000010
00010000
00000000
,
00001000
00010000
00001000
00000000
,
01000000
00001000
00010000
00011000
,
00000000
00000010
00010000
00001000
,
00011000
00000000
00000000
00100000
,
00100000
00100000
00000000
00001000
,
00001000
00001000
00000000
00010000
,
00010000
00010000
00000000
00000100
,
00000100
00000100
00000000
00010000
,
00010000
00010000
00000000
00001000
,
00001000
00001000
00000000
00010000
,
00010000
00100000
10000000
02000000
,
03000000
00100000
00000000
00001000
,
00000000
00010000
00000000
00000100
,
00000000
00000010
00000000
00000001
,
00000000
00000100
00000000
00001000
,
00000000
00010000
00000000
00100000
,
00000000
10000000
00000000
00010000
,
00000000
10010000
00000000
10000000
,
00010000
10000000
00000000
00100000
,
01000000
00200000
00300000
00020000
,
00000000
00030000
00000000
00000000
,
00000000
00020000
00030000
00002000
,
00000000
00003000
00000000
00000000
,
00000000
00002000
00003000
00000200
,
00000000
00000300
00000000
00000001
,
00000001
00000000
00000010
00001000
,
00010000
00022000
00000000
00000000
,
00033000
00001000
00100000
00001000
,
00100000
00010000
01000000
00001000
,
00000000
00010000
00000100
00010000
,
00000100
00001000
00000010
00010000
,
00000000
00001000
00010000
00100000
,
00000000
00010000
00001000
00000100
,
00000000
00001000
00010000
01000000
,
10000000
00100000
01000000
00100000
,
00010000
00001000
01000000
00001000
,
01000000
00010000
00100000
00001000
,
00000000
00010000
00000010
00010000
,
00000010
00001000
00000100
00010000
,
00000000
00001000
00010000
01000000
,
00000000
00010000
00001000
00000010
,
00000000
00001000
00010000
00000010
,
00001000
00000100
00000010
00000001
,
00000100
00001000
00000000
00001000
,
00000000
00010000
00000000
00010000
,
00000000
01000000
00000000
01000000
,
00000000
10000000
00000000
10000000
,
00000000
00010000
00000000
00010000
,
00000000
00001000
00000000
00001000
,
00000000
00000001
00000000
00000001
,
00000000
00000200
00000000
00000000
,
00000000
00000310
00000000
00000010
,
00001000
00000100
00001000
00000100
,
00010000
00000000
00010000
00001000
,
00100000
00001000
00100000
00010000
,
00000000
00100000
01000000
00000000
,
01000000
00000000
01000000
10000000
,
00100000
00010000
00001000
00000000
,
00010000
00001000
00000100
00000001
,
00001000
00001001
00000000
00000001
,
00000000
00001000
00000000
00000010
,
00000000
00010000
00000000
00001000
,
00000000
00100000
00010000
10000000
,
01000000
00010000
00011000
00000000
,
00001000
00100000
00010000
00000000
,
00100000
01000000
10000000
00000000
,
00100000
00010000
00001000
00000000
,
00000100
00000001
00000010
00000100
,
00000010
00001000
00010000
00000000
,
00001000
00010000
01000000
00000000
,
00100000
01000000
10000000
00100000
,
00010000
00001000
00000100
00000001
,
00000010
00000000
00000000
00001000
00000000
00000000
00010000
00000000
,
00000000
00100000
00000000
00000000
10000000
00000000
00000000
00000000
,
10000000
01000000
00200000
00300000
,
01000000
00010000
00001000
00010000
,
00011000
00000000
00000000
00000000
;

//---------------dance-double - ----------------
#NOTES:
     dance-double:
     :
     Medium:
     10:
     0.402245,0.527763,0.184275,0.250614,0.000000,382.000000,357.000000,25.000000,34.000000,0.000000,0.000000,0.402245,0.527763,0.184275,0.250614,0.000000,382.000000,357.000000,25.000000,34.000000,0.000000,0.000000:
// measure 0
00000000
00000000
00000000
00000000
,  // measure 1
00000000
00000000
00000000
00000000
,  // measure 2
00000000
00000000
00000000
00000000
,  // measure 3
00000000
00000000
00000000
00000000
,  // measure 4
00000000
00000000
00000000
00000000
,  // measure 5
00000000
00000000
00000000
00000000
,  // measure 6
00000000
00000000
00000000
00000000
,  // measure 7
00000000
00000000
00000000
00000000
,  // measure 8
00000000
00000000
00001000
00000000
00010000
00000000
00000000
00000010
,  // measure 9
00010000
00000000
00001000
00000000
00010000
00001000
00000000
01000000
,  // measure 10
00001000
00000000
00010000
00000000
00001000
00000000
00000000
01000000
,  // measure 11
00001000
00000000
00010000
00000000
00001000
00010000
00000000
00000010
,  // measure 12
00010000
00000000
00001000
00000000
00010000
00000000
00000000
00000100
,  // measure 13
00010000
00000000
00001000
00000000
00010000
00001000
00000000
00100000
,  // measure 14
00001000
00000000
00010000
00000000
00000100
00010000
00002000
00000000
,  // measure 15
00000000
00000000
00003000
00000000
01000000
00001000
00010000
00000000
,  // measure 16
00001000
00000000
00011000
00000000
00000000
00010000
00000100
00010000
,  // measure 17
00000100
00000000
00000010
00000000
00000000
00000001
00000100
00000001
,  // measure 18
00000100
00000000
00000010
00000000
00000000
00001000
00000100
00001000
,  // measure 19
00000100
00000000
00010000
00000000
00000000
00001000
00100000
00001000
,  // measure 20
00100000
00000000
01000000
00000000
00000000
10000000
00100000
10000000
,  // measure 21
00100000
00000000
01000000
00000000
00000000
00010000
00100000
00010000
,  // measure 22
00100000
00000000
00001000
00000000
00000000
00010000
00001000
00010000
,  // measure 23
00001000
00000100
00000001
00001000
,  // measure 24
00001001
00000000
00000001
00000000
00000010
00000100
00000000
00000010
,  // measure 25
00000000
00001000
00000000
00000000
00010000
00001000
00000000
00000000
,  // measure 26
00011000
00000000
00001000
00000000
00100000
00010000
00000000
00100000
,  // measure 27
00000000
01000000
00000000
00000000
10000000
00010000
00000000
00000000
,  // measure 28
10010000
00000000
10000000
00000000
00100000
01000000
00000000
00100000
,  // measure 29
00000000
00010000
00000000
00000000
00001000
00010000
00000000
00000100
,  // measure 30
00001000
00000100
00000000
00000000
00000110
00000000
00000010
00000001
,  // measure 31
00000010
00000100
00001000
00000000
00000100
00000000
00020000
00000000
,  // measure 32
00031000
00001000
00010000
01000000
,  // measure 33
20000000
00000000
00100000
30100000
,  // measure 34
00000000
00100000
00010000
00001000
,  // measure 35
00000020
00000000
00000001
00000031
,  // measure 36
00000000
00000001
00001000
00000010
,  // measure 37
00020000
00000000
00000000
00001000
,  // measure 38
00031000
00000000
00000000
00000000
00001000
01000000
00010000
00000000
,  // measure 39
10000000
20020000
00000000
00000000
,  // measure 40
30030000
10010000
00010000
01000000
,  // measure 41
00001000
00000000
00010000
00000100
00010000
00000100
00000000
00000010
,  // measure 42
00000000
00000001
00000000
00000100
00000000
00001000
00000000
00000100
,  // measure 43
00000000
00000001
00000000
00000010
00000000
00000110
00000000
00001001
,  // measure 44
00000000
00001000
00000010
00000000
00010000
00001000
00010000
00001000
,  // measure 45
00000000
00100000
00000000
00010000
00000000
01000000
00100000
00000000
,  // measure 46
10100000
10000000
01000000
00010000
,  // measure 47
00001000
00000000
00000100
00000001
00000010
00000100
00001000
00000000
,  // measure 48
00000001
00001001
00001000
00000100
,  // measure 49
00010000
00000000
00001000
01000000
00001000
01000000
00000000
00100000
,  // measure 50
00000000
10000000
00000000
01000000
00000000
00010000
00000000
01000000
,  // measure 51
00000000
10000000
00000000
00100000
00000000
01100000
00000000
10010000
,  // measure 52
00000000
00010000
00100000
00000000
00001000
00010000
00001000
00010000
,  // measure 53
00000000
00000010
00000000
00001000
00000000
00000100
00000010
00000000
,  // measure 54
00000011
00000002
00000203
00002300
,  // measure 55
00023000
02030000
23000000
30020000
,  // measure 56
01030000
00000000
01100000
00000000
00100000
10000000
00100000
10000000
,  // measure 57
00000000
01000000
00000000
00100000
00000000
01000000
00000000
00010000
,  // measure 58
00001000
00010000
00000020
00000000
00000000
00000000
00002030
00000000
,  // measure 59
00000000
00000000
00000000
00000000
00003001
00000010
00000100
00000000
,  // measure 60
00000010
00001000
00020000
00000000
00000100
00000000
00000000
00000000
,  // measure 61
00000000
00000000
00030100
00000000
00000100
00010000
00001000
00000000
,  // measure 62
00010000
00100000
02000000
00000000
10000000
00000000
00000000
00000000
,  // measure 63
00100000
00000000
00010000
00000000
,  // measure 64
03001000
00011000
00010000
00001000
,  // measure 65
00000100
00000000
00000001
00000000
00000010
00000100
00000010
00001000
,  // measure 66
00000000
00010000
01000000
10000000
,  // measure 67
00100000
00000000
00010000
00000000
00100000
01000000
00100000
00010000
,  // measure 68
00000000
00002000
00000000
00020000
00033000
00000000
00010000
00000000
,  // measure 69
00001000
00000100
00000001
00000010
,  // measure 70
00001000
00020000
00000000
00002000
00033000
00000000
00001000
00000000
,  // measure 71
00010000
01000000
10000000
00100000
,  // measure 72
00010000
00000000
00011000
00000000
00001000
00001000
01000000
00000000
,  // measure 73
00010000
00010000
00000100
00000000
00001000
00001000
00100000
00000000
,  // measure 74
00010000
00010000
00000010
00000000
00001000
00001000
01000000
00000000
,  // measure 75
00010000
00010000
00000010
00000000
00000100
00010000
00001000
00100000
,  // measure 76
01000000
00010000
00022000
00033000
,  // measure 77
00011000
00001000
00000100
00000001
,  // measure 78
00000010
00000100
00000010
00000001
00000000
00001000
00000000
00000100
,  // measure 79
00000000
00000010
00000000
00001000
00000000
00010000
00000000
01000000
,  // measure 80
00000000
10000000
00000000
10100000
00000000
00110000
00000000
00010000
,  // measure 81
00001000
00000000
00000100
00000001
00000010
00000100
00000000
00000010
,  // measure 82
00000000
00001000
00010000
01000000
10000000
00010000
00000000
00000000
,  // measure 83
02010000
03200000
00320000
00032000
,  // measure 84
00003200
00000320
00002030
00003001
,  // measure 85
00000001
00000100
00000000
00001000
00010000
00000000
00100000
10000000
,  // measure 86
00000000
01000000
00010000
00000000
00001000
00000020
00000000
00000000
,  // measure 87
00000031
00001000
00000100
00000010
00000000
00000110
00000000
00000001
,  // measure 88
00000100
00001000
00010000
00100000
00000000
10010000
00000000
01000000
,  // measure 89
02002000
00000000
03003000
00000000
;
