#VERSION:0.83;
#TITLE:Show;
#SUBTITLE:;
#ARTIST:Ado;
#TITLETRANSLIT:;
#SUBTITLETRANSLIT:;
#ARTISTTRANSLIT:;
#GENRE:J-MUSIC;
#ORIGIN:;
#CREDIT:MUINELIM;
#BANNER:Show.png;
#BACKGROUND:Show-bg.png;
#PREVIEWVID:;
#JACKET:Show-jacket.png;
#CDIMAGE:;
#DISCIMAGE:;
#LYRICSPATH:;
#CDTITLE:;
#MUSIC:Show.ogg;
#OFFSET:0.114000;
#SAMPLESTART:66.257637;
#SAMPLELENGTH:14.545456;
#SELECTABLE:YES;
#DISPLAYBPM:132.000000;
#BPMS:0.000=132.000;
#STOPS:;
#DELAYS:;
#WARPS:;
#TIMESIGNATURES:0.000=4=4;
#TICKCOUNTS:0.000=4;
#COMBOS:0.000=1;
#SPEEDS:0.000=1.000=0.000=0;
#SCROLLS:0.000=1.000;
#FAKES:;
#LABELS:0.000=Song Start;
#BGCHANGES:0.000=Show.avi=1.000=0=0=0=StretchNoLoop====,
99999=-nosongbg-=1.000=0=0=0 // don't automatically add -songbackground-
;
#KEYSOUNDS:;
#ATTACKS:
;

//---------------dance-single - ----------------
#NOTEDATA:;
#CHARTNAME:;
#STEPSTYPE:dance-single;
#DESCRIPTION:;
#CHARTSTYLE:;
#DIFFICULTY:Beginner;
#METER:3;
#RADARVALUES:0.135380,0.217269,0.030818,0.000000,0.000000,123.000000,119.000000,4.000000,0.000000,0.000000,0.000000,0.000000,0.000000,0.000000,0.135380,0.217269,0.030818,0.000000,0.000000,123.000000,119.000000,4.000000,0.000000,0.000000,0.000000,0.000000,0.000000,0.000000;
#CREDIT:;
#DISPLAYBPM:132.000000;
#NOTES:
0000
0000
0000
0000
,
0000
0000
0000
0000
,
0000
0000
0000
0000
,
0000
0000
0000
0000
,
0000
0000
1000
0000
,
0000
0000
0001
0000
,
0000
0000
1000
0000
,
0000
0000
1001
0000
,
0000
0000
1000
0000
,
0000
0000
0001
0000
,
0000
0000
1000
0000
,
1000
0000
0001
0000
,
0001
0000
1000
0000
,
0100
0000
0010
0000
,
0000
0000
0001
0000
,
0010
0000
0100
0000
,
0000
0000
1000
0000
,
0001
0000
0100
0000
,
0000
0000
0001
0000
,
1000
0000
0010
0000
,
0000
0000
0100
0000
,
0010
0000
0100
0000
,
0010
0000
1000
0000
,
1000
0000
0001
0000
,
0001
0000
0010
0000
,
0100
0000
0010
0000
,
0100
0000
1000
0000
,
1000
0000
0001
0001
,
0001
0000
0100
0000
,
0000
0000
0010
0000
,
0000
0000
1000
0000
,
0000
0000
0001
0000
,
0000
0000
0010
0000
,
0010
0000
0100
0000
,
0100
0000
1000
0000
,
0001
0000
1001
0000
,
0000
0000
1000
0000
,
1000
0000
1000
0000
,
1000
0000
0001
0000
,
1000
0000
0001
0001
,
0001
0000
0100
0000
,
0100
0000
0100
0000
,
0100
0000
0010
0000
,
0100
0000
0010
0000
,
0010
0010
0010
0000
,
0000
0000
1000
0000
,
0000
0000
0001
0000
,
0000
0000
0100
0000
,
0100
0000
0100
0000
,
0000
0000
0001
0000
,
0000
0000
1000
0000
,
0000
0000
0010
0000
,
0010
0000
1000
0000
,
0100
0000
0010
0000
,
0001
0000
0100
0000
,
0100
0000
0100
0100
,
0100
0000
0001
0000
,
0010
0000
0100
0000
,
1000
0000
0010
0000
,
0010
0000
0010
0010
,
0010
0010
0010
0000
,
1000
0000
1001
0000
,
0000
0000
0001
0000
,
1000
0000
0001
0000
,
1000
0000
0100
0000
,
0010
0000
0100
0100
,
0100
0000
0010
0000
,
0100
0000
0010
0000
,
0100
0000
1000
0000
,
0001
0000
1000
1000
,
1000
0000
1001
0000
;

//---------------dance-single - ----------------
#NOTEDATA:;
#CHARTNAME:;
#STEPSTYPE:dance-single;
#DESCRIPTION:;
#CHARTSTYLE:;
#DIFFICULTY:Easy;
#METER:6;
#RADARVALUES:0.219030,0.298745,0.100159,0.107864,0.000000,199.000000,186.000000,13.000000,14.000000,0.000000,0.000000,0.000000,0.000000,0.000000,0.219030,0.298745,0.100159,0.107864,0.000000,199.000000,186.000000,13.000000,14.000000,0.000000,0.000000,0.000000,0.000000,0.000000;
#CREDIT:;
#DISPLAYBPM:132.000000;
#NOTES:
0000
0000
0000
0000
,
0000
0000
0000
0000
,
0000
0000
0000
0000
,
0000
0000
0000
0000
,
0000
0000
1000
0000
,
1000
0000
0001
0000
,
0001
0000
2002
0000
,
0000
0000
3003
0000
,
0000
1001
0010
0000
,
0000
0010
0100
0000
,
0000
0100
0010
0010
,
0010
0010
1000
0001
,
1000
1001
0001
0010
,
0001
0010
0001
0000
,
0001
0000
1000
0100
,
1000
0100
1000
0000
,
1000
0000
0010
0100
,
0010
0100
0010
0010
,
0010
0000
1000
0001
,
1000
0001
1000
0000
,
0001
1001
0100
0010
,
1000
0000
0010
0100
,
0001
0000
0100
0010
,
1000
0001
0100
0100
,
0100
0000
0002
0003
,
2000
3000
0200
0300
,
0020
0030
0002
0003
,
2000
3000
0010
0100
,
0110
0000
0001
0000
,
0100
0000
1000
0000
,
0010
0010
1000
0000
,
0100
0000
0001
0000
,
0010
0010
0001
0000
,
0100
0000
1000
0000
,
0010
0000
0001
0000
,
1000
0000
1001
0000
,
0000
0000
0001
1000
,
0010
0010
0001
1000
,
0010
0000
0001
0100
,
0010
1000
1001
0100
,
1001
0100
1000
0001
,
0010
0010
1000
0001
,
0010
0000
1000
0100
,
0010
0001
1000
1000
,
0001
0001
0100
0000
,
0010
0000
0100
0000
,
0010
0000
1000
0000
,
0001
0000
1000
1000
,
2000
3000
0010
0000
,
0100
0000
0010
0000
,
0100
0000
0001
0000
,
1000
0000
0001
0001
,
0002
0003
1000
0010
,
0100
0100
1000
0010
,
0100
0000
0001
0010
,
0100
1000
1001
0010
,
1001
0010
0001
0100
,
0010
0010
0001
0100
,
0010
0000
1000
0100
,
0010
0001
2002
0000
,
0000
3003
1000
0001
,
1000
0001
0200
0000
,
0320
0000
1030
0000
,
0001
0000
0100
0000
,
1000
0000
0010
0000
,
0001
0000
1000
0001
,
1001
0000
0010
0000
,
1000
0000
0100
0000
,
0001
0000
0010
0100
,
0010
0001
1000
0100
,
0010
0010
0110
0000
;

//---------------dance-single - ----------------
#NOTEDATA:;
#CHARTNAME:;
#STEPSTYPE:dance-single;
#DESCRIPTION:;
#CHARTSTYLE:;
#DIFFICULTY:Medium;
#METER:9;
#RADARVALUES:0.361014,0.434538,0.215728,0.130978,0.011557,328.000000,300.000000,28.000000,17.000000,0.000000,0.000000,0.000000,0.000000,0.000000,0.361014,0.434538,0.215728,0.130978,0.011557,328.000000,300.000000,28.000000,17.000000,0.000000,0.000000,0.000000,0.000000,0.000000;
#CREDIT:;
#DISPLAYBPM:132.000000;
#NOTES:
0000
0000
0000
0000
,
0000
0000
0000
0000
,
0000
0000
0000
0000
,
0000
0000
0000
0000
,
0000
0000
1000
0000
,
0001
0000
1000
0001
,
1001
0000
0220
0000
,
0000
0000
0330
0000
,
0000
0110
1000
0001
,
0010
0000
0001
1000
,
0100
0000
1000
0001
,
0100
0000
0000
0000
0110
0000
0000
0000
0010
0000
0000
1000
0000
0000
0001
0000
,
2000
3002
1003
0100
,
1000
0010
1000
0000
0001
0000
1000
0000
,
0001
0100
0001
0000
1000
0000
0001
0000
,
1000
0100
1000
0000
0001
0000
1000
0000
,
0001
0010
0001
0000
1000
0000
0001
0000
,
0100
0000
0010
0000
0100
0000
0000
0000
0001
0000
0000
1000
0000
0000
0010
0000
,
0100
0110
0010
1000
,
0100
0010
1001
0000
,
0001
1000
0002
0000
0103
0000
0010
0000
,
1000
0001
0100
0000
0010
0000
0100
0000
,
0001
1000
0010
0000
0100
0000
0010
0000
,
1000
0001
1000
1001
,
0001
1000
0001
0000
0200
0000
0310
0000
,
2000
3100
0020
0031
,
2000
3010
0200
0301
,
0020
0000
0130
0000
1000
0010
0100
0001
,
1000
1001
0001
0001
,
0100
0100
1000
1000
,
0020
0031
0000
1000
,
0100
0100
0001
0001
,
0020
1030
0000
0001
,
0100
1000
0010
0001
,
1000
0100
0001
0010
,
1000
0001
2002
0000
,
0000
3003
0110
0110
,
0100
0001
0000
0001
0100
0010
1000
0001
,
0100
0000
0010
0000
1000
0100
1000
0000
,
0001
0010
0001
0000
1000
1000
1000
0000
,
0001
0001
0001
0000
0101
0000
1010
0000
,
1000
0100
0000
0100
0010
0001
1000
0100
,
0010
0000
0100
0000
1000
0001
0100
0000
,
0001
1000
0010
0000
0100
0010
0100
0000
,
0101
1010
1000
0100
,
0001
0100
1000
0010
,
0001
0010
1000
0100
,
0001
0000
0100
0000
1000
0010
0100
0001
,
1000
1001
0001
0010
,
1000
0010
0001
0100
,
1000
0100
0001
0010
,
1000
0000
0010
0000
0001
0100
0010
0000
,
0110
1001
1100
0011
,
0010
0001
0000
0001
0010
0100
1000
0001
,
0010
0000
0100
0000
1000
0010
1000
0000
,
0001
0100
0001
0000
0010
0010
0010
0000
,
0100
0100
0100
0000
0110
0000
1001
0000
,
1000
0010
0000
0010
0100
0001
1000
0010
,
0100
0000
0010
0000
1000
0001
0100
0000
,
0001
1000
0010
0000
1000
0100
0010
0001
,
0010
0100
1000
0000
0001
0100
0010
1000
,
0001
0010
0100
1000
0002
0000
0000
0000
,
2003
0000
3010
1001
,
0001
0100
1000
0001
,
0010
1000
0100
0001
,
1000
0000
0010
0000
0001
0100
0010
1000
,
0001
1001
1000
0001
,
0100
0000
0000
0000
0110
0000
0000
0000
0010
0000
0000
1000
0000
0000
0001
0000
,
0100
0000
0010
0000
0100
0001
0010
0000
,
0100
1000
0010
0000
0100
0001
1000
0000
,
1010
0101
1001
0000
;

//---------------dance-single - ----------------
#NOTEDATA:;
#CHARTNAME:;
#STEPSTYPE:dance-single;
#DESCRIPTION:;
#CHARTSTYLE:;
#DIFFICULTY:Hard;
#METER:12;
#RADARVALUES:0.499697,0.543173,0.423752,0.192614,0.092455,454.000000,399.000000,55.000000,25.000000,0.000000,0.000000,0.000000,0.000000,0.000000,0.499697,0.543173,0.423752,0.192614,0.092455,454.000000,399.000000,55.000000,25.000000,0.000000,0.000000,0.000000,0.000000,0.000000;
#CREDIT:;
#DISPLAYBPM:132.000000;
#NOTES:
// measure 0
0000
0000
0000
0000
,  // measure 1
0000
0000
0000
0000
,  // measure 2
0000
0000
0000
0000
,  // measure 3
0000
0000
0000
0000
,  // measure 4
0000
0000
2000
0010
,  // measure 5
0010
3010
0002
0100
,  // measure 6
0100
0103
2002
0000
,  // measure 7
0000
3003
0220
0000
,  // measure 8
0000
0330
1001
1000
,  // measure 9
0001
0100
0010
0000
0110
0000
0001
0000
,  // measure 10
1000
0010
0100
0000
0110
0000
1000
0000
,  // measure 11
0001
0000
0100
0000
0010
0000
0000
0000
0110
0000
0000
0100
0000
0000
0001
0000
,  // measure 12
1000
0000
0010
0100
0020
0000
0000
0000
1030
0000
0100
0000
0010
0000
0001
0000
,  // measure 13
0100
0000
0010
0000
1000
0000
0100
0000
0010
0000
0000
0001
0100
0000
0000
0000
,  // measure 14
0010
0000
0000
0100
0001
0000
0000
0000
0001
0000
0010
0000
0100
0000
1000
0000
,  // measure 15
0010
0000
0100
0000
0001
0000
0010
0000
0100
0000
0000
1000
0000
0000
0010
0000
,  // measure 16
1010
0000
0101
0000
0001
1000
0010
0100
,  // measure 17
0001
0000
1000
0000
0100
0000
0010
0000
0001
0000
0000
0100
0000
0000
0010
0000
,  // measure 18
1010
0000
0000
0000
0101
0000
0001
0000
0010
0001
0000
0010
0000
0000
0100
0000
,  // measure 19
1000
0100
0000
1000
0000
0000
0001
0000
1001
0000
0000
0000
1000
0000
0010
0000
,  // measure 20
0100
0001
2000
0000
3100
0010
0001
0100
,  // measure 21
0010
0000
0000
0010
0000
0000
0010
0000
1000
0000
0001
0000
0010
0000
0100
0000
,  // measure 22
1000
0000
0000
1000
0000
0000
1000
0000
0010
0000
0100
0000
0001
0000
0001
0000
,  // measure 23
0100
0010
1000
1000
0100
0000
0001
0100
,  // measure 24
1000
0000
0010
0000
0110
0000
0000
0000
0001
0000
0000
0100
0000
0000
0010
0000
,  // measure 25
1000
0000
0000
0100
0000
0000
0010
0000
0001
0000
0000
0010
0000
0000
0100
0000
,  // measure 26
1000
0000
0000
0010
0000
0000
0100
0000
0001
0000
0000
0010
0000
0000
1000
0000
,  // measure 27
0001
0000
0000
0100
0000
0000
1000
0000
0010
0000
0100
0000
0001
0000
1000
0000
,  // measure 28
2002
3003
0001
0010
,  // measure 29
1000
0100
0001
0010
,  // measure 30
2000
3001
1000
0010
,  // measure 31
0001
0100
1000
0010
,  // measure 32
0002
1003
0001
0011
,  // measure 33
1000
1100
0001
0101
,  // measure 34
1000
1010
0001
1001
,  // measure 35
0100
0110
2002
0000
,  // measure 36
0000
3003
1100
0011
,  // measure 37
0001
0100
1000
0000
0100
0001
0010
0100
,  // measure 38
0001
0100
1000
0010
0100
0001
0010
0100
,  // measure 39
1000
0010
0100
0001
1001
1000
1010
0000
,  // measure 40
1001
0001
0101
0000
0100
0010
1000
0010
,  // measure 41
0001
0010
0100
0001
0010
0100
1000
0100
,  // measure 42
0010
1000
0010
0001
1000
1000
0010
0010
,  // measure 43
0100
0100
0001
0001
0020
0100
0130
0000
,  // measure 44
1100
0011
1001
0000
1000
0010
0001
0010
,  // measure 45
1000
1000
0000
0001
0100
1000
0100
0001
,  // measure 46
0020
0000
0230
0000
1300
0010
0001
0010
,  // measure 47
1000
1000
0000
0001
0100
1000
0100
0001
,  // measure 48
0010
0000
0110
0000
0001
0010
1000
0010
,  // measure 49
0001
0001
0000
0100
1000
0001
0010
1000
,  // measure 50
0100
0100
0110
0000
0001
0100
1010
0000
,  // measure 51
1000
0100
0011
0000
0001
1000
0110
0000
,  // measure 52
1010
0101
0011
1100
,  // measure 53
1000
0010
0001
0000
0010
1000
0100
0010
,  // measure 54
1000
0010
0001
0100
0010
1000
0100
0010
,  // measure 55
0001
0100
0010
1000
1100
0100
0011
0000
,  // measure 56
0101
0100
1010
0000
1000
0100
0001
1000
,  // measure 57
0010
0100
1000
0001
0010
0100
0001
1000
,  // measure 58
0010
0001
0100
0010
1000
1000
0100
0100
,  // measure 59
0010
0010
0001
0001
2000
0000
3020
0000
,  // measure 60
0032
0000
0203
0000
1300
0010
0001
1000
,  // measure 61
0100
0001
0010
0100
2002
0000
3003
0000
,  // measure 62
1000
0001
1000
0010
0100
0010
0200
0000
0000
0302
0000
0000
,  // measure 63
1003
1100
0000
0000
0100
0010
0001
1000
,  // measure 64
1010
0000
0101
0000
0001
0001
0010
0100
,  // measure 65
1000
1000
0000
0010
0001
0100
1000
0010
,  // measure 66
0110
0000
0000
1000
0001
0000
1000
0000
0100
0000
0001
0000
0010
0000
1000
0000
,  // measure 67
0001
0000
0001
0000
0000
0000
0010
0000
0110
0000
0000
1100
0000
0000
0101
0000
,  // measure 68
0001
1000
0010
0010
0001
0100
1000
0001
,  // measure 69
0010
1000
0100
0010
0011
1000
1100
0000
,  // measure 70
1010
0001
0101
0000
1001
0000
0000
0000
;

//---------------dance-single - ----------------
#NOTEDATA:;
#CHARTNAME:;
#STEPSTYPE:dance-single;
#DESCRIPTION:;
#CHARTSTYLE:;
#DIFFICULTY:Challenge;
#METER:14;
#RADARVALUES:0.611963,0.733283,0.554729,0.238842,0.261956,556.000000,484.000000,72.000000,31.000000,0.000000,0.000000,0.000000,0.000000,0.000000,0.611963,0.733283,0.554729,0.238842,0.261956,556.000000,484.000000,72.000000,31.000000,0.000000,0.000000,0.000000,0.000000,0.000000;
#CREDIT:;
#DISPLAYBPM:132.000000;
#NOTES:
0000
0000
0000
0000
,
0000
0000
0000
0000
,
0000
0000
0000
0000
,
0000
0000
0000
0000
,
0000
0000
0000
0000
1000
0100
1000
0001
,
0010
0001
1000
0010
1000
0001
0100
0001
,
1000
0100
0010
0001
2002
0000
0000
0000
,
0000
3003
0210
0302
,
2003
0000
3020
0000
0130
0001
0100
1000
,
0100
0010
1000
0000
0010
1000
0010
0001
,
0010
0100
0001
0000
1000
0100
0001
1000
,
0010
0000
0001
0000
0100
0000
0000
0000
0110
0000
0000
1010
0000
0000
0101
0000
,
0001
0010
0100
1000
0200
0000
0320
0000
0130
0000
1000
0000
0010
0000
0100
0000
,
0001
0000
0010
0000
0100
0000
1000
0000
0010
0000
0000
0100
0010
0000
0100
0000
,
0101
0000
0000
0010
0100
0000
0010
0000
1010
0000
1000
0000
0100
0000
0010
0000
,
0001
0000
0100
0000
0010
0000
1000
0000
1100
0000
0000
0101
0000
0000
0011
0000
,
0011
0000
0000
0000
1010
0000
0000
0000
1000
0000
0001
0000
0010
0100
0010
0100
,
1000
0000
0010
0000
0100
0000
0001
0000
0101
0000
0000
1100
0000
0000
1010
0000
,
0011
0000
0000
0000
0001
0000
1000
0000
0100
1000
0000
1010
0000
0000
0010
0000
,
0100
0001
0000
0011
0000
0000
0010
0000
0220
0000
0330
0000
0100
1000
0100
1000
,
0001
0010
0001
0010
0200
0000
0000
0000
0310
0000
0001
0000
0100
0000
0010
0000
,
1000
0000
0000
0100
0001
0000
0100
0000
0010
0000
0001
0000
0100
0000
0010
0000
,
1000
0000
0000
0010
0001
0000
0010
0000
1000
0000
0100
0000
0010
0100
0010
0000
,
0001
0000
0100
0000
0010
0100
0010
0000
2000
0000
0000
3001
0100
0010
0100
0000
,
0001
0000
1000
0000
1001
0000
0000
0000
0110
0000
0000
0100
0001
0000
0000
0001
,
0010
0000
0000
0010
1000
0000
0100
0000
0010
0000
0000
0010
0001
0000
0000
0001
,
0100
0000
0000
0100
1000
0000
0010
0000
0100
0000
0000
0100
0001
0000
0000
0001
,
0010
0000
0000
0010
1000
0000
0100
0000
0010
0000
0001
0000
1000
0000
0200
0000
,
0020
0330
0002
0100
,
1000
0013
2000
0100
,
0001
3010
0200
1000
,
0010
0301
0020
0001
,
0100
1030
0001
0011
,
1000
1100
0001
0101
,
1000
1010
0001
1001
,
0100
0110
2002
0000
,
3000
0000
0100
0103
0110
0000
1001
0000
,
1010
0000
0101
0000
0000
0000
0011
0000
0100
1000
0100
0000
0010
0000
0001
0000
,
0100
0000
1000
0000
0001
0000
0010
0000
0100
0010
0100
0000
1000
0000
0100
0000
,
0010
0100
0010
0000
0001
0000
0010
0000
1010
0000
1000
0000
1100
0000
0000
0000
,
0011
0001
0101
0000
0110
0000
1001
0000
,
0011
0000
0011
0000
0000
0000
1010
0000
0100
0001
0100
0000
0010
0000
1000
0000
,
0100
0000
0001
0000
1000
0000
0010
0000
0001
1000
0001
0000
0100
0000
0010
0000
,
1000
0001
1000
0000
0010
0000
0100
0000
0002
0000
1000
0000
1003
0000
0000
0000
,
1100
0000
0011
0000
0001
0100
1000
0001
,
0010
1010
0000
1000
0100
0001
1000
0010
,
0001
0000
0100
0010
0100
0000
0110
0000
1000
0000
0010
0000
0001
0000
1000
0000
,
0100
0101
0000
0001
0011
0010
0110
0100
,
1100
0000
0000
1000
0001
0000
1000
0000
0010
0000
0001
0000
1000
0000
0100
0000
,
0001
0000
0011
0000
0000
0000
0010
0000
0100
1000
0001
0000
0010
0001
1000
0000
,
0010
0100
0010
0000
1000
0000
0100
0000
0001
0000
1000
0000
0010
0000
0001
0100
,
0010
1000
0001
0010
0110
1000
1001
0000
,
0002
0000
2003
0000
3001
0100
1000
0100
,
0010
1000
0001
0100
1000
0100
0010
1000
,
0001
0000
0100
0000
1000
0000
0100
0000
0010
1000
0100
0000
1000
0000
0001
0000
,
0010
0001
0100
0000
0010
0000
1000
0000
1100
0000
1100
0000
0011
0000
0000
0000
,
0101
0101
1010
0000
1000
0010
0001
0010
,
0100
0001
1000
0010
0001
0010
0100
0001
,
1000
0000
0100
0000
0010
0000
0001
0000
1000
0010
0100
0000
0001
0000
1000
0000
,
0001
0100
0010
0000
1000
0000
0001
0000
0100
0010
0100
0010
1000
0001
1000
0001
,
0100
0010
1000
0001
0100
0010
1000
0001
2000
0000
3100
0000
0200
0000
0310
0000
,
0020
0031
0002
1003
1100
0011
1001
0000
,
0001
0000
0100
0000
1000
0000
0100
0000
0001
0000
0100
0000
0020
0000
0000
1000
0000
0000
1030
0000
0000
0000
0000
0000
,
0200
0001
0301
0000
0001
0010
1000
0001
,
0100
0000
1000
0010
0100
0000
0001
0000
2000
0000
0100
0000
3100
0000
0000
0000
,
0002
0010
0013
0000
0010
0100
1000
0010
,
0101
0000
0000
1000
0010
0000
0001
0000
0010
0100
0001
0000
1000
0000
0001
0000
,
0100
0010
1000
0000
0001
0000
0010
0000
0110
0000
0000
1100
0000
0000
0011
0000
,
1010
0000
0000
0001
0100
0000
1000
0000
0100
0001
0010
0000
0100
0000
0001
0000
,
0100
1000
0010
0000
0001
0000
0010
0000
1000
0000
0100
0000
0011
0000
0000
0000
,
1010
0101
1100
0000
1001
0000
0000
0000
;

//---------------dance-double - ----------------
#NOTEDATA:;
#CHARTNAME:;
#STEPSTYPE:dance-double;
#DESCRIPTION:;
#CHARTSTYLE:;
#DIFFICULTY:Hard;
#METER:11;
#RADARVALUES:0.466677,0.488855,0.292774,0.169501,0.088603,424.000000,386.000000,38.000000,22.000000,0.000000,0.000000,0.000000,0.000000,0.000000,0.466677,0.488855,0.292774,0.169501,0.088603,424.000000,386.000000,38.000000,22.000000,0.000000,0.000000,0.000000,0.000000,0.000000;
#CREDIT:;
#DISPLAYBPM:132.000000;
#NOTES:
00000000
00000000
00000000
00000000
,
00000000
00000000
00000000
00000000
,
00000000
00000000
00000000
00000000
,
00000000
00000000
00000000
00000000
,
00000000
00000000
00002000
00100000
,
00100000
00103000
00020000
00000100
,
00000100
00030100
02002000
00000000
,
00000000
03003000
00020020
00000000
,
00000000
00030030
00011000
00001000
,
00100000
00010000
01000000
00000000
00001000
00000000
00010000
00000000
,
00000100
00001000
00000010
00000000
00010000
00000000
00001000
00000000
,
01000000
00000000
00010000
00000000
00100000
00000000
00000000
00000000
00001000
00000000
00000000
00010000
00000000
00000000
00000100
00000000
,
00001000
00000000
00000010
00000100
00000020
00000000
00000000
00000000
00001030
00000000
00000100
00000000
00000010
00000000
00000001
00000000
,
00001000
00000000
00000100
00000000
00000010
00000000
00000001
00000000
00000100
00000000
00000000
00001000
00010000
00000000
00000000
00000000
,
01000000
00000000
00000000
00010000
00001000
00000000
00000000
00000000
00100000
00000000
01000000
00000000
10000000
00000000
00100000
00000000
,
01000000
00000000
00010000
00000000
00100000
00000000
01000000
00000000
10000000
00000000
00000000
00100000
00000000
00000000
01000000
00000000
,
01010000
00000000
10100000
00000000
10000000
01000000
00100000
00010000
,
10000000
00000000
01000000
00000000
00100000
00000000
00010000
00000000
01000000
00000000
00000000
00001000
00000000
00000000
00010000
00000000
,
00010100
00000000
00000000
00000000
00101000
00000000
00100000
00000000
00010000
01000000
00000000
00001000
00000000
00000000
00010000
00000000
,
00000100
00001000
00000000
00000010
00000000
00000000
00000100
00000000
00000101
00000000
00000000
00000000
00001000
00000000
00000100
00000000
,
00000010
00000001
00002000
00000000
00003010
00010000
00001000
00100000
,
01000000
00000000
00000000
01000000
00000000
00000000
01000000
00000000
10000000
00000000
00100000
00000000
01000000
00000000
00010000
00000000
,
00100000
00000000
00000000
00100000
00000000
00000000
00100000
00000000
01000000
00000000
00010000
00000000
00001000
00000000
00001000
00000000
,
00010000
00001000
00000010
00000010
00000001
00000000
00001000
00000010
,
00010000
00000000
00001000
00000000
00011000
00000000
00000000
00000000
00010000
00000000
00000000
01000000
00000000
00000000
10000000
00000000
,
00100000
00000000
00000000
00010000
00000000
00000000
00001000
00000000
00000100
00000000
00000000
00000001
00000000
00000000
00000010
00000000
,
00001000
00000000
00000000
00010000
00000000
00000000
00100000
00000000
10000000
00000000
00000000
01000000
00000000
00000000
00100000
00000000
,
00010000
00000000
00000000
00001000
00000000
00000000
00000010
00000000
00000100
00000000
00000001
00000000
00001000
00000000
00000010
00000000
,
00000220
00000330
00001000
00000001
,
00000100
00001000
00010000
00100000
,
20000000
30010000
00010000
10000000
,
00100000
00010000
00001000
00000100
,
00000002
00001003
00000010
00000110
,
00001000
00011000
00100000
01100000
,
00010000
00011000
00000100
00000110
,
00000001
00001001
00000220
00000000
,
00000000
00000330
00010010
01001000
,
00001000
00010000
00000000
00010000
00100000
10000000
01000000
00010000
,
01000000
00000000
11000000
00000000
10000000
01000000
00100000
00010000
,
00001000
00000100
00001000
00000001
00000100
00000010
00001010
00000000
,
00001000
00000100
00010100
00000000
00010000
00001000
00000100
00000000
,
00000001
00000010
00000000
00000010
00001000
00010000
00100000
00010000
,
00001000
00000100
00001000
00010000
01000000
10000000
00100000
00010000
,
01000000
10000000
00100000
00010000
00001000
00010000
00011000
00000000
,
01001000
00000000
00010010
00000000
00000010
00001000
00000100
00000010
,
00001000
00010000
00000000
00001000
00010000
01000000
00100000
00010000
,
20000000
00000000
30200000
00000000
00310000
00001000
00100000
01000000
,
00010000
00001000
00000000
00010000
00001000
00000010
00000100
00010000
,
00001000
00000000
00011000
00000000
00100000
00010000
01000000
00100000
,
00010000
00001000
00000000
00010000
00001000
00000100
00000010
00001000
,
00000100
00000010
00000011
00000000
00000001
00000100
00001000
00000000
,
00010000
00100000
10000000
00000000
01000000
00100000
00020000
00000000
,
00031000
00011000
00101000
00010100
,
00010000
00001000
00000000
00001000
00000010
00000001
00000100
00001000
,
00000100
00000000
00000101
00000000
00000001
00000100
00000010
00001000
,
00010000
01000000
00010000
10000000
01000000
00100000
00110000
00000000
,
00010000
01000000
01001000
00000000
00001000
00010000
01000000
00000000
,
10000000
00100000
00000000
00100000
00010000
00001000
00000010
00001000
,
00010000
01000000
00010000
00001000
00000100
00000001
00000010
00001000
,
00000100
00000001
00000010
00001000
00022000
00000000
00000000
00000000
,
00000000
00000000
00033000
00000000
00010000
00100000
00010000
00001000
,
00000010
00001000
00010000
00100000
20000000
00000000
30000000
00000000
,
10000000
01000000
00100000
00010000
00100000
00001000
00020000
00000000
00000000
00030200
00000000
00000000
,
00001300
00001001
00000000
00000000
00000001
00000100
00001000
00010000
,
00100000
00000000
10100000
00000000
10000000
10000000
01000000
00100000
,
00010000
00010000
00000000
01000000
00100000
00010000
00001000
00000100
,
00000101
00000000
00000001
00000010
00000100
00000010
00001000
00010000
,
01000000
00000000
00100000
00000000
00000000
00000000
00100000
00000000
10000000
00000000
00000000
00100000
00000000
00000000
00001000
00000000
,
00010000
00100000
00010000
00001000
00000010
00001000
00010000
01000000
,
00010000
00001000
00000100
00000001
00000010
00000100
00001000
00000000
,
00010000
01000000
00100000
00000000
10010000
00000000
00000000
00000000
;

//---------------dance-double - ----------------
#NOTEDATA:;
#CHARTNAME:;
#STEPSTYPE:dance-double;
#DESCRIPTION:;
#CHARTSTYLE:;
#DIFFICULTY:Challenge;
#METER:14;
#RADARVALUES:0.587749,0.706124,0.508502,0.354410,0.296626,534.000000,468.000000,66.000000,46.000000,0.000000,0.000000,0.000000,0.000000,0.000000,0.587749,0.706124,0.508502,0.354410,0.296626,534.000000,468.000000,66.000000,46.000000,0.000000,0.000000,0.000000,0.000000,0.000000;
#CREDIT:;
#DISPLAYBPM:132.000000;
#NOTES:
00000000
00000000
00000000
00000000
,
00000000
00000000
00000000
00000000
,
00000000
00000000
00000000
00000000
,
00000000
00000000
00000000
00000000
,
00000000
00000000
20000000
32000000
,
03200000
00320000
00032000
00003200
,
00000320
00000032
00002000
00000000
,
00000000
00003003
00000210
00002300
,
00023000
00000000
00230000
00000000
10300000
01000000
00100000
00010000
,
00001000
00000010
00000110
00000000
00000001
00000010
00000100
00001000
,
00010000
01000000
01100000
00000000
10000000
00100000
01000000
00010000
,
00001000
00000000
00000100
00000000
00000110
00000000
00000000
00000000
00000011
00000000
00000000
00000100
00000000
00000000
00001100
00000000
,
00001000
00000010
00001000
00000010
00020000
00000000
00032000
00000000
00103000
00000000
00010000
00000000
00100000
00000000
01000000
00000000
,
10000000
00000000
00100000
00000000
01000000
00000000
00010000
00000000
10000000
00000000
00000000
01000000
00010000
00000000
00001000
00000000
,
00011000
00000000
00000000
00000100
00001000
00000000
00010000
00000000
00011000
00000000
00000100
00000000
00001000
00000000
00000100
00000000
,
00000010
00000000
00000001
00000000
00000100
00000000
00000010
00000000
00001010
00000000
00000000
00011000
00000000
00000000
00110000
00000000
,
00110000
00000000
00000000
00000000
10100000
00000000
00000000
00000000
10000000
00000000
01000000
00000000
00100000
01000000
00100000
01000000
,
00010000
00000000
00001000
00000000
00000010
00000000
00000100
00000000
00001100
00000000
00000000
00000011
00000000
00000000
00000101
00000000
,
00000101
00000000
00000000
00000000
00000100
00000000
00001000
00000000
00010000
00100000
00000000
00110000
00000000
00000000
00010000
00000000
,
00001000
00000010
00000000
00001010
00000000
00000000
00001000
00000000
00022000
00000000
00033000
00000000
00010000
00001000
00010000
00000000
,
00100000
01000000
00100000
01000000
00200000
00000000
00000000
00000000
10300000
00000000
01000000
00000000
00010000
00000000
00001000
00000000
,
00000010
00000000
00000000
00000010
00000001
00000000
00000100
00000000
00000010
00000000
00001000
00000000
00010000
00000000
01000000
00000000
,
00100000
00000000
00000000
00100000
10000000
00000000
01000000
00000000
00100000
00000000
00010000
00000000
01000000
00100000
01000000
00000000
,
00001000
00000000
00010000
00000000
00000010
00000100
00000010
00000000
00002000
00000000
00000000
00003100
00000010
00000100
00001000
00000000
,
00000001
00000000
00000100
00000000
00000110
00000000
00000000
00000000
00001001
00000000
00000000
00000001
00000100
00000000
00000000
00000100
,
00001000
00000000
00000000
00001000
00010000
00000000
00100000
00000000
10000000
00000000
00000000
10000000
01000000
00000000
00000000
01000000
,
00010000
00000000
00000000
00010000
00001000
00000000
00000010
00000000
00000001
00000000
00000000
00000001
00000100
00000000
00000000
00000100
,
00000010
00000000
00000000
00000010
00001000
00000000
00010000
00000000
01000000
00000000
00100000
00000000
10000000
00000000
02000000
00000000
,
00200000
03300000
20000000
32000000
,
03020000
00032000
00203000
02300000
,
03020000
00032000
00003020
00000230
,
00020300
00032000
00003200
00000302
,
00000023
00002030
00013000
00010010
,
00001000
01001000
00010000
00010100
,
00001000
00101000
01000000
01100000
,
00001000
00011000
00020200
00000000
,
00030000
00000000
00000010
00000310
00000110
00000000
00001001
00000000
,
00001100
00000000
00000011
00000000
00000000
00000000
00000001
00000000
00000100
00001000
00000100
00000000
00000010
00000000
00001000
00000000
,
00000100
00000000
00000010
00000000
00001000
00000000
00010000
00000000
01000000
00100000
01000000
00000000
10000000
00000000
00100000
00000000
,
01000000
00100000
01000000
00000000
00010000
00000000
00100000
00000000
11000000
00000000
00100000
00000000
00010000
00000000
00000000
00000000
,
00110000
01000000
10000000
00000000
10010000
00000000
01100000
00000000
,
10100000
00000000
01010000
00000000
00000000
00000000
00010000
00000000
00100000
01000000
00100000
00000000
00001000
00000000
00010000
00000000
,
00100000
00000000
00001000
00000000
00000010
00000000
00000100
00000000
00000001
00001000
00000001
00000000
00000100
00000000
00000010
00000000
,
00001000
00000001
00001000
00000000
00000010
00000000
00000100
00000000
00002000
00000000
00010000
00000000
00013000
00000000
00000000
00000000
,
00010010
00000000
01001000
00000000
00001000
00010000
01000000
10000000
,
00100000
01100000
00000000
01000000
00010000
00100000
01000000
00010000
,
00001000
00000000
00000010
00000100
00000010
00000000
00000110
00000000
00000001
00000000
00000100
00000000
00001000
00000000
00010000
00000000
,
00100000
00000000
10000000
00000000
00000000
00000000
10000000
00000000
01000000
00100000
01000000
00000000
00010000
00001000
00010000
00000000
,
00000010
00000000
00000100
00000010
00000100
00000000
00001000
00000000
00000100
00000000
00000001
00000000
00000010
00000000
00001000
00000000
,
00010000
00000000
01000000
00000000
00000000
00000000
10000000
00000000
10100000
00000000
00000000
01001000
00000000
00000000
00010100
00000000
,
00000110
00000000
00000010
00000000
00000100
00000000
00001000
00000000
00000001
00000000
00000010
00000000
00001000
00000000
00010000
00001000
,
00010000
01000000
10000000
00100000
00010000
00001000
00011000
00000000
,
00020000
00000000
00000000
00000000
00032000
00000000
00000000
00000000
00103000
00000000
00000000
00100000
00010000
00000000
00000000
00010000
,
01000000
00000000
00000000
01000000
00100000
00000000
00000000
00100000
10000000
00000000
00000000
10000000
01000000
00000000
00000000
01000000
,
00010000
00000000
00000000
00010000
00001000
00000000
00000000
00001000
00100000
00000000
01000000
00000000
00010000
00000000
00001000
00000000
,
00000010
00000100
00000010
00000000
00000001
00000000
00000100
00000000
00001010
00000000
00000100
00000000
00000001
00000000
00000000
00000000
,
00000101
00000000
00000010
00000000
00001000
00000000
00000000
00000000
00001001
00000000
00000000
00000001
00000100
00000000
00000000
00000100
,
00000010
00000000
00000000
00000010
00010000
00000000
00000000
00010000
00001000
00000000
00000000
00001000
00100000
00000000
00000000
00100000
,
01000000
00000000
00000000
01000000
10000000
00000000
00000000
10000000
00100000
00000000
00010000
00000000
00001000
00000000
00000100
00000000
,
00000001
00000010
00000001
00000000
00000010
00000000
00001000
00000000
00010000
00100000
01000000
00000000
00100000
10000000
01000000
00000000
,
00100000
00001000
00010000
00000000
00000100
00000010
00000001
00000000
00000101
00000000
00001000
00000000
00001100
00000000
00010000
00000000
,
00011000
00100000
00110000
10000000
10100000
00010000
00011000
00000000
,
00001000
00000000
00100000
00000000
00010000
00000000
01000000
00000000
00001000
00000000
00010000
00000000
00000200
00000000
00000000
00000010
00000000
00000000
00000310
00000000
00000000
00000000
00000000
00000000
,
00000002
00001000
00001003
00000000
00001000
00000010
00010000
00100000
,
10000000
00000000
01000000
00100000
01000000
00000000
00100000
00000000
00020000
00000000
10000000
00000000
10030000
00000000
00000000
00000000
,
02000000
00100000
03100000
00000000
00100000
00001000
00010000
00000100
,
00001100
00000000
00000000
00001000
00000001
00000000
00000100
00000000
00000010
00001000
00000010
00000000
00010000
00000000
00001000
00000000
,
01000000
00010000
01000000
00000000
00100000
00000000
10000000
00000000
11000000
00000000
00000000
01010000
00000000
00000000
00011000
00000000
,
00010100
00000000
00000000
00000100
00001000
00000000
00000100
00000000
00000010
00000001
00000010
00000000
00001000
00000000
00010000
00000000
,
01000000
10000000
01000000
00000000
00010000
00000000
00001000
00000000
00000100
00000000
00000001
00000000
00000011
00000000
00000000
00000000
,
00001010
00010000
00110000
00000000
10010000
00000000
00000000
00000000
;

//---------------dance-double - ----------------
#NOTEDATA:;
#CHARTNAME:;
#STEPSTYPE:dance-double;
#DESCRIPTION:;
#CHARTSTYLE:;
#DIFFICULTY:Easy;
#METER:6;
#RADARVALUES:0.216829,0.298745,0.146387,0.077046,0.000000,197.000000,178.000000,19.000000,10.000000,0.000000,0.000000,0.000000,0.000000,0.000000,0.216829,0.298745,0.146387,0.077046,0.000000,197.000000,178.000000,19.000000,10.000000,0.000000,0.000000,0.000000,0.000000,0.000000;
#CREDIT:;
#DISPLAYBPM:132.000000;
#NOTES:
00000000
00000000
00000000
00000000
,
00000000
00000000
00000000
00000000
,
00000000
00000000
00000000
00000000
,
00000000
00000000
00000000
00000000
,
00000000
00000000
00001000
00000000
,
00001000
00000000
00010000
00000000
,
00010000
00000000
00022000
00000000
,
00000000
00000000
00033000
00000000
,
00000000
00011000
00100000
00000000
,
00000000
00011000
00000100
00000000
,
00000000
00011000
01000000
01000000
,
01000000
01000000
00001000
00010000
,
00000010
00000110
00000100
00000001
,
00001000
00000010
00000100
00000000
,
00000100
00000000
00000010
00001000
,
00000001
00000100
00000010
00000000
,
00010000
00000000
00001000
01000000
,
00010000
00100000
00001000
00000000
,
00001000
00000000
00010000
00000100
,
00001000
00000010
00010000
00000000
,
00001000
00011000
00100000
00010000
,
01000000
00000000
00100000
10000000
,
01000000
00000000
00100000
00010000
,
01000000
00001000
00010000
00010000
,
00010000
00000000
00001000
00000000
,
00000100
00000000
00000001
00000000
,
00000010
00000000
00001000
00000000
,
00010000
00000000
01000000
10000000
,
10010000
00000000
00010000
00000000
,
01000000
00000000
00001000
00000000
,
00010000
00000000
00000100
00000000
,
00001000
00000000
00000010
00000000
,
00010000
00000000
00001000
00000000
,
00100000
00000000
01000000
00000000
,
00010000
00000000
00001000
00000000
,
00000010
00000000
00000110
00000000
,
00000000
00000000
00000001
00000100
,
00001000
00000100
00000001
00000010
,
00000100
00000000
00000010
00001000
,
00010000
00100000
10010000
00000000
,
10010000
00000000
10000000
01000000
,
00010000
01000000
10000000
00100000
,
01000000
00000000
00100000
00010000
,
00001000
00000100
00000010
00000000
,
00000110
00000110
00000001
00000000
,
00000100
00000000
00001000
00000000
,
00010000
00000000
00100000
00000000
,
10000000
00000000
00010000
10000000
,
20020000
30030000
10000000
00000000
,
01000000
00000000
00010000
00000000
,
00001000
00000000
00000010
00000000
,
00000001
00000000
00001000
00000001
,
00002002
00003003
00000001
00000100
,
00000010
00001000
00010000
01000000
,
00100000
00000000
01000000
00010000
,
00100000
01000000
10010000
00000000
,
10010000
00000000
10000000
01000000
,
00100000
00010000
00001000
00000010
,
00000100
00000000
00000010
00000100
,
00001000
00000001
00002002
00000000
,
00000000
00003003
00001000
00000010
,
00010000
00001000
00200000
00000000
,
02300000
00000000
13000000
00000000
,
10000000
00000000
00100000
00000000
,
00010000
00000000
00001000
00000000
,
00000100
00000000
00000001
00001000
,
00001001
00000000
00000001
00000000
,
00000010
00000000
00001000
00000000
,
00010000
00000000
01000000
10000000
,
00100000
01000000
00010000
00100000
,
00001000
00010000
00011000
00000000
;

//---------------dance-double - ----------------
#NOTEDATA:;
#CHARTNAME:;
#STEPSTYPE:dance-double;
#DESCRIPTION:;
#CHARTSTYLE:;
#DIFFICULTY:Medium;
#METER:8;
#RADARVALUES:0.355511,0.407379,0.215728,0.084750,0.011557,323.000000,295.000000,28.000000,11.000000,0.000000,0.000000,0.000000,0.000000,0.000000,0.355511,0.407379,0.215728,0.084750,0.011557,323.000000,295.000000,28.000000,11.000000,0.000000,0.000000,0.000000,0.000000,0.000000;
#CREDIT:;
#DISPLAYBPM:132.000000;
#NOTES:
00000000
00000000
00000000
00000000
,
00000000
00000000
00000000
00000000
,
00000000
00000000
00000000
00000000
,
00000000
00000000
00000000
00000000
,
00000000
00000000
00001000
00000000
,
00010000
00000000
00001000
00010000
,
00010010
00000000
02002000
00000000
,
00000000
00000000
03003000
00000000
,
00000000
00011000
00010000
00001000
,
00100000
00000000
00001000
00010000
,
00000100
00000000
00010000
00001000
,
00010000
00000000
00000000
00000000
00011000
00000000
00000000
00000000
00001000
00000000
00000000
00010000
00000000
00000000
00001000
00000000
,
02000000
03200000
10300000
01000000
,
00010000
00001000
00010000
00000000
00001000
00000000
00000100
00000000
,
00000001
00001000
00000001
00000000
00000001
00000000
00000010
00000000
,
00001000
00010000
00001000
00000000
00010000
00000000
00100000
00000000
,
10000000
00010000
10000000
00000000
10000000
00000000
01000000
00000000
,
00010000
00000000
00001000
00000000
00010000
00000000
00000000
00000000
00001000
00000000
00000000
00000010
00000000
00000000
00000001
00000000
,
00000001
00001001
00001000
00000010
,
00010000
00001000
00011000
00000000
,
00010000
00001000
02000000
00000000
03010000
00000000
00010000
00000000
,
10000000
01000000
10000000
00000000
01000000
00000000
00010000
00000000
,
00001000
00010000
00001000
00000000
00000010
00000000
00000001
00000000
,
00000100
00001000
00010000
00011000
,
00001000
00010000
00001000
00000000
00000100
00000000
00000001
00000000
,
00000010
00000100
00001000
00010000
,
00100000
01000000
10000000
00100000
,
00010000
00000000
00001000
00000000
00000100
00000010
00000100
00000010
,
00000100
00001001
00001000
00000010
,
00010000
00100000
10000000
01000000
,
00200000
00310000
00000000
01000000
,
00001000
00000100
00000001
00000010
,
00000200
00001300
00000000
00000010
,
00010000
00100000
00001000
00000100
,
00010000
01000000
00100000
00001000
,
00010000
00000100
00000220
00000000
,
00000000
00000330
00000011
00001100
,
00001000
00000001
00000000
00000100
00001000
00000000
00010000
00100000
,
10000000
00000000
01000000
00000000
00100000
01000000
00010000
00000000
,
00001000
00000010
00000100
00000000
00010000
00010000
00010000
00000000
,
00001000
00001000
00001000
00000000
00101000
00000000
00010010
00000000
,
00010000
00001000
00000000
00000100
00000001
00000000
00000010
00000100
,
00001000
00000000
00000010
00000000
00010000
00001000
01000000
00000000
,
00001000
00010000
00000010
00000000
00010000
00001000
00010000
00000000
,
00010100
01001000
01000000
00010000
,
00100000
01000000
00010000
00001000
,
00000010
00000100
00001000
00000001
,
00000100
00000000
00001000
00000000
00010000
00001000
00010000
00001000
,
00010000
00011000
00001000
00100000
,
01000000
10000000
00100000
00010000
,
00001000
00000100
00000001
00000010
,
00000100
00000000
00010000
00000000
00001000
01000000
00100000
00000000
,
01100000
10010000
10100000
01010000
,
00010000
10000000
00000000
01000000
00010000
00000000
00001000
00000010
,
00000001
00000000
00000100
00000000
00000010
00000100
00001000
00000000
,
00010000
00100000
01000000
00000000
00001000
00001000
00001000
00000000
,
00010000
00010000
00010000
00000000
00010010
00000000
00101000
00000000
,
00001000
00010000
00000000
01000000
10000000
00000000
00100000
01000000
,
00010000
00000000
00100000
00000000
00001000
00010000
00000100
00000000
,
00010000
00001000
00100000
00000000
01000000
00010000
00001000
00000000
,
00010000
00001000
00000010
00000000
00000001
00000100
00000010
00001000
,
00000100
00010000
00001000
00100000
02000000
00000000
00000000
00000000
,
23000000
00000000
30010000
10010000
,
10000000
01000000
00100000
00010000
,
00001000
00000010
00000100
00000001
,
00001000
00000000
00000100
00000000
00000010
00000001
00000100
00001000
,
00010000
00011000
00001000
00100000
,
01000000
00000000
00000000
00000000
01100000
00000000
00000000
00000000
10000000
00000000
00000000
00100000
00000000
00000000
00010000
00000000
,
00001000
00000000
00100000
00000000
01000000
00010000
00001000
00000000
,
00010000
00001000
00000010
00000000
00000001
00000100
00001000
00000000
,
00011000
01100000
10010000
00000000
;
