#TITLE:Serotonin;
#SUBTITLE:;
#ARTIST:Vospi;
#TITLETRANSLIT:;
#SUBTITLETRANSLIT:;
#ARTISTTRANSLIT:;
#GENRE:XROSS;
#CREDIT:MUINELIM;
#BANNER:Serotonin.png;
#BACKGROUND:Serotonin-bg.png;
#LYRICSPATH:;
#CDTITLE:;
#MUSIC:Serotonin.ogg;
#OFFSET:0.012000;
#SAMPLESTART:98.738853;
#SAMPLELENGTH:15.085716;
#SELECTABLE:YES;
#DISPLAYBPM:87.500000:175.000000;
#BPMS:0.000000=87.5,8.000000=175,40.000000=87.5,48.000000=175,176.000000=87.5,222.000000=175,290.000000=87.5;
#STOPS:
;
#BGCHANGES:;
#KEYSOUNDS:;
#ATTACKS:;

//---------------dance-single - ----------------
#NOTES:
     dance-single:
     :
     Beginner:
     4:
     0.155165,0.226346,0.022786,0.030382,0.000000,143.000000,140.000000,3.000000,4.000000,0.000000,0.000000,0.155165,0.226346,0.022786,0.030382,0.000000,143.000000,140.000000,3.000000,4.000000,0.000000,0.000000:
0000
0000
0000
0000
,
0000
0000
0000
0000
,
1000
0000
0000
0000
,
1000
0000
0000
0000
,
0100
0000
0000
0000
,
0100
0000
0000
0000
,
0010
0000
0000
0000
,
0010
0000
0000
0000
,
0001
0000
0000
0000
,
0001
0000
0000
0000
,
2002
0000
0000
0000
,
3003
0000
0000
0000
,
1000
0000
1000
0000
,
0001
0000
0001
0000
,
1000
0000
1000
0000
,
0001
0000
0000
0000
,
0100
0000
0100
0000
,
0010
0000
0010
0000
,
0100
0000
0100
0000
,
0010
0000
0000
0000
,
1000
0000
1000
0000
,
0100
0000
0100
0000
,
1000
0000
1000
0000
,
0100
0000
0000
0000
,
0001
0000
0001
0000
,
0010
0000
0010
0000
,
0001
0000
0001
0000
,
0010
0000
0000
0000
,
1000
0000
1000
0000
,
0001
0000
0001
0000
,
0100
0000
0100
0000
,
0010
0000
0010
0000
,
1000
0000
1000
0000
,
0100
0000
0100
0000
,
0010
0000
0010
0000
,
0001
0000
0001
0000
,
1000
0000
1000
0000
,
0010
0000
0010
0000
,
0001
0000
0001
0000
,
0100
0000
0100
0000
,
1000
0000
1000
0000
,
0001
0000
0001
0000
,
0100
0000
0100
0000
,
0010
0000
0010
0000
,
1000
0000
0100
0000
,
0010
0000
0001
0000
,
1000
0000
0100
0000
,
0010
0000
0000
0000
,
0001
0001
0001
0000
,
0100
0100
0100
0000
,
1000
1000
1000
0000
,
0010
0010
0010
0000
,
0001
0100
0001
0000
,
1000
0100
1000
0000
,
0001
0010
0001
0000
,
1000
0010
2000
0000
,
0000
3000
0001
0001
,
0000
1000
1000
0000
,
0001
0001
0001
0001
,
0000
1000
1000
0000
,
1001
0000
0010
0010
,
0000
0100
0100
0000
,
0010
0010
0010
0010
,
0000
0100
0100
0000
,
0110
0000
0010
0000
,
1000
0000
0001
0000
,
0100
0000
0010
0000
,
1000
0000
0001
0000
,
0100
0000
0010
0000
,
1000
0000
0100
0000
,
0010
0000
0001
0000
,
0100
0000
0010
0000
,
0100
0100
0200
0000
,
0000
0000
0000
0000
,
0000
0000
0300
0000
;

//---------------dance-single - ----------------
#NOTES:
     dance-single:
     :
     Easy:
     7:
     0.224610,0.282932,0.075955,0.075955,0.000000,207.000000,197.000000,10.000000,10.000000,0.000000,0.000000,0.224610,0.282932,0.075955,0.075955,0.000000,207.000000,197.000000,10.000000,10.000000,0.000000,0.000000:
0000
0000
0000
0000
,
0000
0000
0000
0000
,
1000
0000
1000
0000
,
0001
0000
0001
0000
,
1000
0000
1000
0000
,
0001
0000
0001
0001
,
0100
0000
0100
0000
,
0010
0000
0010
0000
,
0100
0000
0100
0000
,
0010
0000
0010
0010
,
1000
0000
0100
0000
0010
0000
0001
0002
,
0000
0000
0000
0003
,
1000
0000
0010
0000
,
1000
0000
0100
0000
,
1000
0000
0001
0000
,
1000
0000
0100
1000
,
0001
0000
0100
0000
,
0001
0000
0010
0000
,
0001
0000
1000
0000
,
0001
0000
0010
0001
,
1000
0000
0100
0000
,
0010
0000
0100
0000
,
1000
0000
0100
0000
,
0001
0000
0100
1000
,
0001
0000
0010
0000
,
0100
0000
0010
0000
,
0001
0000
0010
0000
,
1000
0000
0010
0001
,
0100
0100
0000
0010
,
0010
0000
1000
1000
,
0001
0001
0000
0100
,
0100
0000
0010
0110
,
1000
1000
0000
0001
,
0001
0000
0010
0010
,
0100
0100
0000
1000
,
1000
0000
0001
1001
,
0100
0100
0000
0001
,
0001
0000
0010
0010
,
1000
1000
0000
0010
,
0010
0000
0001
1001
,
0100
0100
0000
0001
,
0001
0000
0100
0100
,
1000
1000
0010
0010
,
0100
0100
0110
0000
,
1001
0000
0001
0000
,
0101
0000
0100
0000
,
0110
0000
0010
0000
,
1010
0000
1000
0000
,
0001
0100
0002
0003
,
1000
0100
2000
3000
,
0001
0010
0002
0003
,
1000
0010
2000
3000
,
0001
0010
0200
0300
,
1000
0100
0020
0030
,
0001
0100
0020
0030
,
1000
0010
0200
0000
,
0000
0300
0010
0010
,
0000
1000
1000
0000
,
0001
0001
0100
0100
,
0000
0010
0010
0000
,
1000
1001
0001
0001
,
0000
0010
0010
0000
,
0100
0100
1000
1000
,
0000
0001
0001
0000
,
0100
0110
0010
1000
,
0100
1000
0010
1000
,
0100
1000
0001
0010
,
0001
0100
0001
0010
,
0001
1000
0100
0010
,
0100
1000
0100
0001
,
0100
1000
0001
0010
,
0100
0010
0001
0010
,
1000
0010
0002
0000
,
0000
0000
0000
0000
,
0000
0000
0003
0000
;

//---------------dance-double - ----------------
#NOTES:
     dance-double:
     :
     Easy:
     7:
     0.212674,0.254639,0.045573,0.075955,0.000000,196.000000,190.000000,6.000000,10.000000,0.000000,0.000000,0.212674,0.254639,0.045573,0.075955,0.000000,196.000000,190.000000,6.000000,10.000000,0.000000,0.000000:
00000000
00000000
00000000
00000000
,
00000000
00000000
00000000
00000000
,
00001000
00000000
00001000
00000000
,
01000000
00000000
01000000
00000000
,
00001000
00000000
00001000
00000000
,
01000000
00000000
01000000
00001000
,
00010000
00000000
00010000
00000000
,
00000010
00000000
00000010
00000000
,
00010000
00000000
00010000
00000000
,
00000010
00000000
00000010
00010000
,
00001000
00000000
00100000
00000000
01000000
00000000
10000000
20000000
,
00000000
00000000
00000000
30000000
,
00100000
00000000
00010000
00000000
,
00001000
00000000
00010000
00000000
,
00100000
00000000
00010000
00000000
,
00001000
00000000
00010000
00001000
,
00000010
00000000
00001000
00000000
,
00010000
00000000
00001000
00000000
,
00000010
00000000
00001000
00000000
,
00010000
00000000
00001000
00010000
,
01000000
00000000
00010000
00000000
,
00001000
00000000
00010000
00000000
,
01000000
00000000
00010000
00000000
,
00001000
00000000
00010000
00001000
,
00000100
00000000
00001000
00000000
,
00010000
00000000
00001000
00000000
,
00000100
00000000
00001000
00000000
,
00010000
00000000
00001000
00010000
,
01000000
10000000
00000000
10000000
,
00100000
00000000
00100000
00010000
,
00100000
00010000
00000000
00010000
,
00001000
00000000
00010000
00001000
,
00000100
00000001
00000000
00000001
,
00000010
00000000
00000010
00001000
,
00000010
00001000
00000000
00001000
,
00010000
00000000
00001000
00010000
,
00100000
10000000
00000000
10000000
,
01000000
00000000
01000000
00010000
,
01000000
00010000
00000000
00010000
,
00001000
00000000
00010000
00001000
,
00000010
00000001
00000000
00000001
,
00000100
00000000
00000100
00001000
,
00000100
00001000
00010000
00001000
,
00010000
01000000
10000000
00000000
,
10010000
00000000
00010000
00000000
,
00011000
00000000
00001000
00000000
,
00001001
00000000
00000001
00000000
,
00000101
00000000
00000100
00000000
,
00000010
00000100
00002000
00003000
,
00000100
00001000
00020000
00030000
,
00001000
00010000
00200000
00300000
,
00010000
00100000
02000000
03000000
,
00100000
00010000
00002000
00003000
,
00010000
00001000
00000200
00000300
,
00001000
00000100
00000020
00000030
,
00000100
00000010
00000200
00000000
,
00000000
00000300
00000001
00000010
,
00000000
00000010
00001000
00000000
,
00001000
00010000
01000000
10000000
,
00000000
10000000
00100000
00000000
,
00100000
01100000
10000000
01000000
,
00000000
01000000
00010000
00000000
,
00010000
00001000
00000010
00000001
,
00000000
00000001
00000100
00000000
,
00000100
00000110
00000001
00000100
,
00000010
00000000
00001000
00000100
,
00010000
00000000
00001000
00100000
,
00010000
00000000
01000000
00100000
,
10000000
00000000
00010000
01000000
,
00001000
00000000
00010000
00000010
,
00001000
00000000
00000100
00000010
,
00000001
00000000
00000100
00001000
,
00010000
00100000
20000000
00000000
,
00000000
00000000
00000000
00000000
,
00000000
00000000
30000000
00000000
;

//---------------dance-single - ----------------
#NOTES:
     dance-single:
     :
     Medium:
     10:
     0.381945,0.424398,0.227865,0.106337,0.053168,352.000000,322.000000,30.000000,14.000000,0.000000,0.000000,0.381945,0.424398,0.227865,0.106337,0.053168,352.000000,322.000000,30.000000,14.000000,0.000000,0.000000:
0000
0000
0000
0000
,
0000
0000
0000
0000
,
1000
0010
0100
0001
,
0100
0010
1000
1000
,
0001
0100
0010
1000
,
0010
0100
0110
0110
,
0001
0010
0100
1000
,
0100
0010
0001
0001
,
1000
0100
0010
0001
,
0010
0100
2000
3001
,
0001
0100
0010
0000
1000
0010
0100
0002
,
0000
0000
0000
0003
,
1001
1000
0100
0010
,
0100
1000
0010
0100
,
0101
0001
0010
0100
,
1000
0010
0110
0110
,
1001
0001
0010
0100
,
0010
0001
0100
0010
,
1010
1000
0100
0010
,
0001
1000
0020
0130
,
0110
0010
1000
0001
,
1000
0010
0100
0001
,
0011
0010
0100
0010
,
0001
1000
1001
1001
,
0110
0100
0001
1000
,
0001
0100
0010
1000
,
1100
0100
0010
0100
,
1000
0001
0200
0310
,
0010
1000
0000
1000
0000
0000
0100
1000
,
0000
1000
0000
0010
1000
0000
1001
0000
,
0100
0001
0000
0001
0000
0000
0010
0001
,
0000
0001
0000
0100
0001
0000
1001
0000
,
0001
0010
0000
0010
0000
0000
1000
0010
,
0000
0010
0000
0001
0010
0000
0110
0000
,
1000
0100
0000
0100
0000
0000
0001
0100
,
0000
0100
0000
1000
0100
0000
0110
0000
,
0010
1000
0000
0100
0000
0000
0010
0001
,
0000
0100
0000
0010
0100
0000
0101
0000
,
0010
0001
0000
0100
0000
0000
0010
1000
,
0000
0100
0000
0010
0100
0000
1100
0000
,
0010
0001
0000
1000
0000
0000
0100
1000
,
0000
0001
0000
0100
0010
0000
0110
0000
,
1000
0010
1000
0000
0001
0100
0001
0000
,
1000
0001
1000
0001
1000
0000
0110
0000
,
0001
0000
0000
0100
0000
0000
0100
0000
0010
0000
0000
0100
0000
0000
0100
0000
,
0001
0000
0000
1000
0000
0000
1000
0000
0010
0000
0000
1000
0000
0000
1000
0000
,
0100
0000
0000
0010
0000
0000
0010
0000
0001
0000
0000
0010
0000
0000
0010
0000
,
1000
0010
0001
0100
,
0010
0000
1000
0000
0010
0000
1000
0200
0000
0000
0000
0000
0000
0000
0300
0000
,
0000
0000
0010
0000
0001
0000
0010
0002
0000
0000
0000
0000
0003
0000
0000
0000
,
0010
0000
0100
0000
0010
0000
0100
0020
0000
0000
0000
0000
0000
0000
0030
0000
,
0000
0000
0001
0000
1000
0000
0001
2000
0000
0000
0000
0000
3000
0000
0000
0000
,
0010
0000
1000
0000
0010
0000
0100
0002
0000
0000
0000
0000
0000
0000
0003
0000
,
0000
0000
0010
0000
0100
0000
1000
0020
0000
0000
0000
0000
0030
0000
0000
0000
,
0100
0000
0001
0000
0100
0000
0010
2000
0000
0000
0000
0000
0000
0000
3000
0000
,
0000
0000
0100
0000
0010
0000
0001
1000
0200
0000
0000
0000
0000
0000
0000
0000
,
0000
0000
0300
0000
1000
0010
1000
0010
,
0000
0000
1000
0100
1000
0100
0000
0000
,
1000
0010
1000
0010
0100
0001
0100
0001
,
0000
0000
0010
0001
0010
0001
0000
0000
,
0101
0000
1100
0000
0001
0010
0001
0010
,
0000
0000
0001
0100
0001
0100
0000
0000
,
0001
0010
0001
0010
0100
1000
0100
1000
,
0000
0000
0010
1000
0010
1000
0000
0000
,
1100
0101
0001
0010
,
1000
0010
0001
1000
,
1010
0101
0001
0010
,
0100
0000
1000
0010
0000
0110
0000
0100
,
0001
0000
1000
0000
0010
0100
0001
0000
,
1000
0000
0001
0000
0100
0010
1000
0000
,
0001
0000
1000
0000
0100
0010
0001
0000
,
1000
0100
0010
0000
0001
0100
0010
1000
,
0010
0100
0001
0000
2002
0000
0000
0000
,
0000
0000
0000
0000
,
0000
0000
3003
0000
;

//---------------dance-double - ----------------
#NOTES:
     dance-double:
     :
     Medium:
     10:
     0.374349,0.424398,0.189887,0.083550,0.053168,345.000000,320.000000,25.000000,11.000000,0.000000,0.000000,0.374349,0.424398,0.189887,0.083550,0.053168,345.000000,320.000000,25.000000,11.000000,0.000000,0.000000:
00000000
00000000
00000000
00000000
,
00000000
00000000
00000000
00000000
,
10000000
01000000
00100000
00010000
,
00100000
01000000
00100000
00100000
,
00010000
01000000
00001000
00010000
,
00000100
00001000
00001001
00001001
,
00000001
00000010
00000100
00001000
,
00000100
00000010
00000100
00000100
,
00001000
00000010
00010000
00001000
,
00100000
00010000
10000000
10010000
,
00010000
01000000
00100000
00000000
01000000
00100000
00010000
00002000
,
00000000
00000000
00000000
00003000
,
00011000
00010000
00001000
00000100
,
00001000
00010000
01000000
10000000
,
11000000
01000000
00010000
00001000
,
00100000
01000000
00010000
00001000
,
00011000
00001000
00010000
00100000
,
00010000
00001000
00000010
00000001
,
00000011
00000010
00001000
00010000
,
00000100
00000010
00001000
00010000
,
00011000
00010000
01000000
10000000
,
01000000
00100000
00010000
01000000
,
01010000
00010000
00100000
00001000
,
00010000
00100000
00010000
00001000
,
00011000
00001000
00000010
00000001
,
00000010
00000100
00001000
00000010
,
00001010
00001000
00000100
00010000
,
00001000
00000100
00001000
00010000
,
00001000
00100000
00000000
00010000
00000000
00000000
00100000
00001000
,
00000000
00010000
00000000
00001000
00100000
00000000
00110000
00000000
,
00010000
01000000
00000000
00100000
00000000
00000000
01000000
00010000
,
00000000
00100000
00000000
00001000
00010000
00000000
00011000
00000000
,
00010000
00000010
00000000
00001000
00000000
00000000
00000010
00010000
,
00000000
00001000
00000000
00010000
00001000
00000000
00011000
00000000
,
00010000
00000100
00000000
00001000
00000000
00000000
00000100
00010000
,
00000000
00001000
00000000
00010000
00000100
00000000
00001100
00000000
,
00001000
00000010
00000000
00000100
00000000
00000000
00000010
00001000
,
00000000
00000100
00000000
00010000
00001000
00000000
00011000
00000000
,
00001000
01000000
00000000
00010000
00000000
00000000
01000000
00001000
,
00000000
00010000
00000000
00001000
00010000
00000000
00011000
00000000
,
00001000
00100000
00000000
01000000
00000000
00000000
00100000
00001000
,
00000000
00010000
00000000
00000100
00000010
00000000
00000110
00000000
,
00000001
00000100
00001000
00010000
,
00100000
10000000
00100000
10000000
01000000
00000000
01100000
00000000
,
00010000
00000000
00000000
01000000
00000000
00000000
01000000
00000000
00001000
00000000
00000000
00010000
00000000
00000000
00010000
00000000
,
00000100
00000000
00000000
00001000
00000000
00000000
00001000
00000000
00000010
00000000
00000000
00010000
00000000
00000000
00010000
00000000
,
00001000
00000000
00000000
00100000
00000000
00000000
00100000
00000000
00010000
00000000
00000000
01000000
00000000
00000000
01000000
00000000
,
00001000
00010000
00000010
00000100
,
00000001
00000000
00001000
00000000
00000001
00000000
00001000
00000020
00000000
00000000
00000000
00000000
00000000
00000000
00000030
00000000
,
00000000
00000000
00010000
00000000
00001000
00000000
00010000
00002000
00000000
00000000
00000000
00000000
00003000
00000000
00000000
00000000
,
00100000
00000000
00010000
00000000
00100000
00000000
00010000
20000000
00000000
00000000
00000000
00000000
00000000
00000000
30000000
00000000
,
00000000
00000000
00100000
00000000
01000000
00000000
00100000
02000000
00000000
00000000
00000000
00000000
03000000
00000000
00000000
00000000
,
00010000
00000000
00100000
00000000
00010000
00000000
00100000
00002000
00000000
00000000
00000000
00000000
00000000
00000000
00003000
00000000
,
00000000
00000000
00010000
00000000
00000100
00000000
00010000
00000200
00000000
00000000
00000000
00000000
00000300
00000000
00000000
00000000
,
00001000
00000000
00000010
00000000
00001000
00000000
00000010
00000200
00000000
00000000
00000000
00000000
00000000
00000000
00000300
00000000
,
00000000
00000000
00000001
00000000
00000010
00000000
00000100
00001000
00000200
00000000
00000000
00000000
00000000
00000000
00000000
00000000
,
00000000
00000000
00000300
00000000
00010000
00001000
00010000
00001000
,
00000000
00000000
00001000
01000000
00001000
01000000
00000000
00000000
,
01000000
00100000
01000000
00100000
00010000
00001000
00010000
00001000
,
00000000
00000000
00001000
00100000
00001000
00100000
00000000
00000000
,
00001000
00000000
00011000
00000000
00001000
00010000
00001000
00010000
,
00000000
00000000
00010000
00000100
00010000
00000100
00000000
00000000
,
00000100
00000010
00000100
00000010
00001000
00010000
00001000
00010000
,
00000000
00000000
00010000
00000010
00010000
00000010
00000000
00000000
,
00010000
00011000
00010000
00100000
,
10000000
01000000
00010000
00001000
,
00101000
00010010
00010000
00001000
,
00000100
00000000
00000001
00000010
00000000
00000110
00000000
00000100
,
00001000
00000000
00000100
00000000
00010000
00001000
01000000
00000000
,
00010000
00000000
00100000
00000000
00001000
00010000
00000010
00000000
,
00001000
00000000
00000100
00000000
00010000
00001000
00100000
00000000
,
00001000
00010000
00000100
00000000
00001000
00000100
00010000
00001000
,
00010000
00001000
01000000
00000000
02200000
00000000
00000000
00000000
,
00000000
00000000
00000000
00000000
,
00000000
00000000
03300000
00000000
;

//---------------dance-single - ----------------
#NOTES:
     dance-single:
     :
     Hard:
     12:
     0.500218,0.622451,0.136719,0.106337,0.163303,461.000000,443.000000,18.000000,14.000000,0.000000,0.000000,0.500218,0.622451,0.136719,0.106337,0.163303,461.000000,443.000000,18.000000,14.000000,0.000000,0.000000:
0000
0000
0000
0000
,
0000
0000
0000
0000
,
1000
0000
0010
0000
0100
0001
0100
0000
,
0001
0000
0100
0000
0010
1000
0010
0000
,
1000
0000
0100
0000
0010
0001
0010
0000
,
0001
0000
0010
0000
0100
1000
0100
1000
,
0100
0000
1000
0000
0010
0100
0010
0000
,
0100
0000
0001
0000
0010
0100
0010
0000
,
0001
0000
0100
0000
0010
1000
0100
0000
,
1000
0000
0010
0000
0100
0001
0010
0100
,
1000
0000
1000
0000
1000
0010
0000
0100
0001
0000
0010
0000
0100
0000
0220
0000
,
0000
0000
0000
0330
,
1000
0010
0100
0001
0000
0010
0010
0000
,
0001
0100
0010
1000
0000
0100
0100
0000
,
1000
0010
0100
0001
0000
0001
0100
0010
,
0000
0010
0100
0001
1000
0010
1000
0010
,
0100
0001
0010
0100
0000
1000
1000
0000
,
0010
1000
0100
0010
0000
0001
0001
0000
,
0100
0001
0010
0100
0000
0100
0010
0001
,
0000
0001
0010
0100
2000
0000
3002
0000
,
1003
0100
0010
0100
0000
1000
1100
0000
,
0001
0010
0100
0010
0000
0001
0011
0000
,
0001
0100
0010
1000
0000
1000
0001
0010
,
0000
0010
0100
1000
0001
0100
0001
0100
,
0010
1000
0100
0010
0000
0001
0101
0000
,
0100
0001
0010
0100
0000
1000
1010
0000
,
0010
1000
0100
0010
0000
0010
0001
1000
,
0000
1000
0010
0100
0002
0000
2003
0000
,
3001
0010
0100
1000
0000
0000
0001
0010
,
0100
1000
0000
0001
0010
0000
1010
0000
,
1000
0100
0010
0001
0000
0000
1000
0100
,
0010
0001
0000
0001
0100
0010
0100
0001
,
1000
0010
0100
0001
0000
0000
1000
0010
,
0100
0001
0000
1000
0010
0000
0011
0000
,
0001
0100
0010
1000
0000
0000
0001
0100
,
0010
1000
0000
0001
0200
0000
0320
0000
,
1030
0100
0001
0100
0000
0000
1000
0100
,
0001
0100
0000
1000
0010
0000
0101
0000
,
0001
0010
1000
0010
0000
0000
0001
0010
,
1000
0010
0000
0001
0100
0010
1000
0001
,
0100
1000
0100
0001
0000
0000
0100
1000
,
0100
0001
0000
0010
0100
0000
1100
0000
,
1000
0010
0001
0010
1000
0100
0001
0100
,
1000
0010
0100
0001
0010
0000
0110
0000
,
1000
0000
0000
0010
0000
0100
0010
0000
0001
0000
0000
0010
0000
0100
0010
0000
,
1000
0000
0000
0010
0000
0100
0010
0000
0001
0000
0000
0010
0000
0100
0010
0000
,
1000
0000
0000
0100
0000
0010
0100
0000
0001
0000
0000
0100
0000
0010
0100
0000
,
1000
0010
0001
0100
,
1000
0001
1000
0001
1000
0000
0010
0200
0000
0000
0000
0000
0000
0000
0000
0000
,
0000
0301
0010
0001
0010
0000
0100
2000
0000
0000
0000
0000
0000
0000
0000
0000
,
3001
0100
0001
0100
0001
0000
1000
0020
0000
0000
0000
0000
0000
0000
0000
0000
,
0000
0130
0001
0100
0001
0000
0010
0100
0000
1000
0010
0000
0100
0001
0000
0000
,
0000
0010
0100
1000
0010
0000
0100
0001
0000
0000
0000
0011
0000
0000
0010
0000
,
0100
1000
0010
0100
0001
0000
1000
0100
0000
0000
0000
0110
0000
0000
0010
0000
,
0001
0100
0010
1000
0001
0000
0100
0010
0000
0000
0000
1010
0000
0000
1000
0000
,
0001
0010
0100
1000
0001
0000
0100
0010
0200
0000
0000
0000
0000
0000
0000
0000
,
0000
0000
0300
0000
0001
0010
1000
0010
,
0000
0000
0001
0100
1000
0100
0000
0000
,
0001
0010
1000
0010
0001
0100
1000
0100
,
0000
0000
0001
0010
1000
0010
0000
0000
,
0011
0000
1100
0000
1000
0010
0001
0010
,
0000
0000
1000
0100
0001
0100
0000
0000
,
1000
0010
0001
0010
1000
0100
0001
0100
,
0000
0000
1000
0010
0001
0010
0000
0000
,
1010
0000
0101
0000
0001
0010
0100
0000
,
0100
1000
0001
0000
0001
0100
0010
0000
,
0010
1000
0001
0000
0001
0010
0100
1000
,
0100
0010
0100
1000
0100
0001
0100
1000
,
0100
0001
0100
1000
0100
0010
0001
0100
,
0001
0010
0100
1000
0010
1000
0100
0010
,
0001
0010
1000
0010
0001
0010
0100
1000
,
0010
0100
1000
0100
0010
0001
0010
0100
,
0001
0010
0100
1000
2002
0000
0000
0000
,
0000
0000
0000
0000
,
0000
0000
3003
0000
;

//---------------dance-double - ----------------
#NOTES:
     dance-double:
     :
     Hard:
     13:
     0.499132,0.622451,0.159505,0.098741,0.163303,460.000000,439.000000,21.000000,13.000000,0.000000,0.000000,0.499132,0.622451,0.159505,0.098741,0.163303,460.000000,439.000000,21.000000,13.000000,0.000000,0.000000:
// measure 0
00000000
00000000
00000000
00000000
,  // measure 1
00000000
00000000
00000000
00000000
,  // measure 2
00000001
00000000
00000100
00000000
00001000
00010000
00001000
00000000
,  // measure 3
00000100
00000000
00000001
00000000
00000010
00000100
00000010
00000000
,  // measure 4
00000001
00000000
00000100
00000000
00001000
00010000
00001000
00000000
,  // measure 5
00010000
00000000
01000000
00000000
10000000
00100000
10000000
00100000
,  // measure 6
10000000
00000000
01000000
00000000
00010000
00001000
00010000
00000000
,  // measure 7
01000000
00000000
10000000
00000000
00100000
01000000
00100000
00000000
,  // measure 8
10000000
00000000
01000000
00000000
00010000
00001000
00010000
00000000
,  // measure 9
00001000
00000000
00000100
00000000
00000001
00000010
00000001
00000010
,  // measure 10
00000001
00000000
00000001
00000000
00000001
00000100
00000000
00000100
00001000
00000000
00010000
00000000
00001000
00000000
00022000
00000000
,  // measure 11
00000000
00000000
00000000
00033000
,  // measure 12
00010000
00001000
00000100
00000010
00000000
00000100
00000001
00000000
,  // measure 13
00000010
00000100
00001000
00000010
00000000
00010000
00001000
00000000
,  // measure 14
00100000
00010000
01000000
00100000
00000000
00100000
10000000
01000000
,  // measure 15
00000000
01000000
00100000
00010000
01000000
00100000
00010000
00010000
,  // measure 16
00001000
00010000
00100000
01000000
00000000
00100000
10000000
00000000
,  // measure 17
01000000
00100000
00010000
01000000
00000000
00001000
00010000
00000000
,  // measure 18
00000100
00001000
00000010
00000100
00000000
00000100
00000001
00000010
,  // measure 19
00000000
00000010
00000100
00001000
00000020
00000000
00000230
00000000
,  // measure 20
00000301
00000010
00000100
00001000
00000000
00000100
00010000
00000000
,  // measure 21
00001000
00010000
00100000
01000000
00000000
00100000
10000000
00000000
,  // measure 22
01000000
00100000
00010000
01000000
00000000
01000000
00100000
00010000
,  // measure 23
00000000
00010000
00001000
00100000
01000000
10000000
00100000
00100000
,  // measure 24
10000000
01000000
00100000
00010000
00000000
00100000
00001000
00000000
,  // measure 25
00010000
00001000
00000100
00000010
00000000
00000100
00000001
00000000
,  // measure 26
00000010
00000100
00001000
00000010
00000000
00000010
00000100
00001000
,  // measure 27
00000000
00001000
00010000
00000100
00000000
00000010
00000002
00000000
,  // measure 28
00000103
00001000
00010000
00100000
00000000
00000000
00100000
00010000
,  // measure 29
00001000
00000100
00000000
00001000
00010000
00000000
00011000
00000000
,  // measure 30
01000000
00010000
00001000
00000010
00000000
00000000
00000010
00001000
,  // measure 31
00010000
01000000
00000000
10000000
00100000
00010000
00100000
01000000
,  // measure 32
00100000
00010000
00001000
00000100
00000000
00000000
00000100
00001000
,  // measure 33
00010000
00100000
00000000
00010000
00001000
00000000
00011000
00000000
,  // measure 34
00000010
00001000
00010000
01000000
00000000
00000000
01000000
00010000
,  // measure 35
00001000
00000010
00000000
00000001
00000200
00000000
00000320
00000000
,  // measure 36
00010030
00001000
00000100
00000001
00000000
00000000
00000001
00000100
,  // measure 37
00001000
00010000
00000000
00001000
00100000
00000000
00110000
00000000
,  // measure 38
10000000
01000000
00010000
00001000
00000000
00000000
00001000
00010000
,  // measure 39
01000000
10000000
00000000
00100000
01000000
00010000
00100000
01000000
,  // measure 40
10000000
00100000
00010000
00001000
00000000
00000000
00010000
00001000
,  // measure 41
00000100
00000001
00000000
00000010
00000100
00000000
00001001
00000000
,  // measure 42
00000001
00000100
00001000
00010000
00100000
10000000
01000000
00010000
,  // measure 43
00001000
00000010
00000001
00000100
00001000
00000000
00011000
00000000
,  // measure 44
00100000
00000000
00000000
00010000
00000000
00100000
00010000
00000000
01000000
00000000
00000000
00100000
00000000
01000000
00100000
00000000
,  // measure 45
10000000
00000000
00000000
01000000
00000000
10000000
01000000
00000000
00010000
00000000
00000000
00001000
00000000
00010000
00001000
00000000
,  // measure 46
00000100
00000000
00000000
00000001
00000000
00000100
00000001
00000000
00000010
00000000
00000000
00000100
00000000
00000010
00000100
00000000
,  // measure 47
00001000
00010000
00100000
01000000
,  // measure 48
10000000
00100000
10000000
00100000
10000000
00000000
00010000
02000000
00000000
00000000
00000000
00000000
00000000
00000000
00000000
00000000
,  // measure 49
00000000
03001000
00010000
00001000
00010000
00000000
00000100
00002000
00000000
00000000
00000000
00000000
00000000
00000000
00000000
00000000
,  // measure 50
00003001
00000010
00000001
00000010
00000001
00000000
00000100
00000020
00000000
00000000
00000000
00000000
00000000
00000000
00000000
00000000
,  // measure 51
00000000
00010030
00001000
00010000
00001000
00000000
00100000
01000000
00000000
10000000
00100000
00000000
00010000
00001000
00000000
00000000
,  // measure 52
00000000
00100000
00010000
00100000
00001000
00000000
00010000
00000100
00000000
00000000
00000000
00001100
00000000
00000000
00001000
00000000
,  // measure 53
00000010
00000100
00000001
00000100
00000010
00000000
00001000
00000010
00000000
00000000
00000000
00010010
00000000
00000000
00010000
00000000
,  // measure 54
00001000
00010000
00100000
00010000
00001000
00000000
00100000
01000000
00000000
00000000
00000000
11000000
00000000
00000000
10000000
00000000
,  // measure 55
00100000
00010000
00001000
00010000
00100000
00000000
01000000
00100000
02000000
00000000
00000000
00000000
00000000
00000000
00000000
00000000
,  // measure 56
00000000
00000000
03000000
00000000
01100000
10000000
01000000
00010000
,  // measure 57
00000000
00000000
01100000
00010000
01000000
10000000
00000000
00000000
,  // measure 58
01100000
10000000
01000000
00010000
00001000
00000010
00000001
00000100
,  // measure 59
00000000
00000000
00001000
00000100
00000001
00000010
00000000
00000000
,  // measure 60
00001100
00000000
00000011
00000000
00000110
00000001
00000100
00001000
,  // measure 61
00000000
00000000
00000110
00001000
00000100
00000001
00000000
00000000
,  // measure 62
00000110
00000001
00000100
00001000
00010000
00100000
10000000
01000000
,  // measure 63
00000000
00000000
00010000
01000000
10000000
00100000
00000000
00000000
,  // measure 64
01010000
10100000
10000000
01000000
,  // measure 65
00100000
00010000
00001000
00000010
,  // measure 66
00000100
00000000
00000001
00000000
00001001
00000100
00001000
00000100
,  // measure 67
00000001
00000010
00001000
00000010
00000001
00000010
00000100
00001000
,  // measure 68
00000100
00000001
00000100
00001000
00000100
00000010
00001000
00010000
,  // measure 69
01000000
00100000
00010000
10000000
00100000
01000000
10000000
01000000
,  // measure 70
00010000
00100000
10000000
00100000
00010000
00100000
01000000
00010000
,  // measure 71
00001000
00000010
00000100
00001000
00000010
00000001
00001000
00000100
,  // measure 72
00000001
00000010
00000100
00010000
00022000
00000000
00000000
00000000
,  // measure 73
00000000
00000000
00000000
00000000
,  // measure 74
00000000
00000000
00033000
00000000
;
