#VERSION:0.83;
#TITLE:セイクリッド・ルイン;
#SUBTITLE:;
#ARTIST:Drop&祇羽 feat. 葉月ゆら;
#TITLETRANSLIT:Sacred Ruin;
#SUBTITLETRANSLIT:Drop & Gionha feat. Yura Hatsuki;
#ARTISTTRANSLIT:;
#GENRE:VARIETY;
#ORIGIN:;
#CREDIT:MUINELIM;
#BANNER:Sacred Ruin.png;
#BACKGROUND:Sacred Ruin-bg.png;
#PREVIEWVID:;
#JACKET:Sacred Ruin-jacket.png;
#CDIMAGE:;
#DISCIMAGE:;
#LYRICSPATH:;
#CDTITLE:;
#MUSIC:Sacred Ruin.ogg;
#OFFSET:-0.283000;
#SAMPLESTART:54.484550;
#SAMPLELENGTH:12.903229;
#SELECTABLE:YES;
#BPMS:0.000=186.000;
#STOPS:;
#DELAYS:;
#WARPS:;
#TIMESIGNATURES:0.000=4=4;
#TICKCOUNTS:0.000=4;
#COMBOS:0.000=1;
#SPEEDS:0.000=1.000=0.000=0;
#SCROLLS:0.000=1.000;
#FAKES:;
#LABELS:0.000=Song Start;
#BGCHANGES:;
#KEYSOUNDS:;
#ATTACKS:
;

//---------------dance-single - ----------------
#NOTEDATA:;
#CHARTNAME:;
#STEPSTYPE:dance-single;
#DESCRIPTION:;
#CHARTSTYLE:;
#DIFFICULTY:Beginner;
#METER:4;
#RADARVALUES:0.170763,0.256093,0.036222,0.000000,0.000000,165.000000,160.000000,5.000000,0.000000,0.000000,0.000000,0.000000,0.000000,0.000000,0.170763,0.256093,0.036222,0.000000,0.000000,165.000000,160.000000,5.000000,0.000000,0.000000,0.000000,0.000000,0.000000,0.000000;
#CREDIT:MILEN;
#NOTES:
0000
0000
0000
0000
,
0000
0000
0000
0000
,
0000
0000
0000
0000
,
0000
0000
0000
0000
,
0010
0000
0000
0000
,
0010
0000
0000
0000
,
0010
0000
0010
0000
,
0010
0000
0010
0000
,
1000
0000
0001
0000
,
1000
0000
0001
0000
,
1000
0000
0001
0000
,
1000
0000
0001
0000
,
1000
1000
1000
0000
,
0001
0001
0001
0000
,
0100
0000
0010
0000
,
0100
0100
0100
0000
,
0010
0000
0000
0000
,
1000
0000
0000
0000
,
0001
0000
0000
0000
,
0100
0000
0000
0000
,
0010
0000
0000
0000
,
1000
0000
0000
0000
,
0001
0000
0000
0000
,
0100
0000
0000
0000
,
0001
0000
0000
0000
,
0010
0000
0000
0000
,
0100
0000
0000
0000
,
1000
0000
0000
0000
,
0001
0000
0000
0000
,
0010
0000
0000
0000
,
0100
0000
0000
0000
,
1000
0000
0000
0000
,
0010
0000
0000
0000
,
0100
0000
0000
0000
,
0001
0000
0000
0000
,
1000
0000
0000
0000
,
0100
0000
0000
0000
,
0010
0000
0000
0000
,
0001
0000
0000
0000
,
1000
0000
0000
0000
,
1001
0000
0000
0000
,
0000
0000
0000
0000
,
0001
0000
0001
0000
,
0001
0000
0001
0000
,
0100
0000
0100
0000
,
0100
0000
0100
0000
,
1000
0000
1000
0000
,
0010
0000
0010
0000
,
0001
0000
1000
0000
,
1001
0000
0000
0000
,
1000
0000
1000
0000
,
1000
0000
1000
0000
,
0010
0000
0010
0000
,
0010
0000
0010
0000
,
0001
0000
0001
0000
,
0100
0000
0100
0000
,
1000
0000
0001
0000
,
1001
0000
0000
0000
,
0010
0000
0010
0000
,
0010
0000
0100
0000
,
0010
0000
1000
0000
,
0001
0000
1000
0000
,
0001
0000
0010
0000
,
0100
0000
1000
0000
,
0001
0000
0100
0000
,
1000
0000
0010
0000
,
0001
0000
1000
0000
,
0001
0000
0000
0000
,
1000
0000
0001
0000
,
1000
0000
0001
0000
,
0100
0000
0010
0000
,
0100
0000
0010
0000
,
1000
0000
0001
0000
,
0100
0100
0100
0000
,
0000
0000
0000
0000
,
0110
0000
0000
0000
,
0000
0000
0000
0000
,
0000
0000
0000
0000
,
0000
0000
0000
0000
,
0010
0000
0000
0000
,
0100
0000
0000
0000
,
0010
0000
0100
0000
,
0010
0010
0000
0000
,
0010
0010
0000
0000
,
1000
0000
0100
0000
,
0010
0000
0001
0000
,
1000
0000
0100
0000
,
0010
0000
0001
0000
,
0100
0000
1000
0000
,
0010
0000
0001
0000
,
1000
0000
0010
0000
,
0100
0100
0100
0000
,
0001
0000
1000
0000
,
0001
0000
1000
0000
,
0001
0000
1000
0000
,
0001
0000
1000
0000
,
0001
0001
0001
0000
,
1000
1000
1000
0000
,
0010
0000
0100
0000
,
0010
0010
0010
0000
,
1000
0000
0001
0000
,
1001
0000
0000
0000
;

//---------------dance-single - ----------------
#NOTEDATA:;
#CHARTNAME:;
#STEPSTYPE:dance-single;
#DESCRIPTION:;
#CHARTSTYLE:;
#DIFFICULTY:Easy;
#METER:8;
#RADARVALUES:0.285640,0.406416,0.079689,0.079689,0.000000,276.000000,265.000000,11.000000,11.000000,0.000000,0.000000,0.000000,0.000000,0.000000,0.285640,0.406416,0.079689,0.079689,0.000000,276.000000,265.000000,11.000000,11.000000,0.000000,0.000000,0.000000,0.000000,0.000000;
#CREDIT:MILEN;
#NOTES:
0000
0000
0000
0000
,
0000
0000
0000
0000
,
0000
0000
0000
0000
,
0000
0000
0000
0000
,
0010
0000
0000
0000
0000
0000
0000
0100
,
0000
0100
0000
0000
0000
0000
0000
0000
,
0010
0000
0100
0000
,
0010
0000
0100
0110
,
0001
0000
1000
0000
,
0001
0000
1000
0000
,
0001
1000
0001
0000
,
1000
0001
1000
0000
,
0001
1000
0100
0000
,
1000
0001
0010
0000
,
0001
1000
0001
1000
,
0010
0100
0010
0100
,
0010
0000
1000
0000
,
0100
0000
0010
0000
,
1000
0000
0100
0000
,
0001
0000
1000
0000
,
0100
0000
0010
0000
,
1000
0000
0100
0000
,
0001
0000
1000
0000
,
0010
0100
0010
0110
,
0100
0000
0001
0000
,
0010
0000
0100
0000
,
0001
0000
0010
0000
,
1000
0000
0001
0000
,
0010
0000
0100
0000
,
0001
0000
0010
0000
,
1000
0000
0001
0000
,
0100
0010
0100
0110
,
0001
0000
0001
0000
,
0100
0000
0100
0000
,
1000
0000
1000
0000
,
0010
0000
0010
0000
,
0001
1000
0001
0000
,
1000
0001
1000
0000
,
0010
0100
0010
1000
,
0001
0100
0020
0000
,
0200
0000
0000
0000
,
0000
0000
0000
0330
0000
0010
0010
0000
,
1000
0100
1000
0000
,
0001
0010
0001
0000
,
1000
0100
1000
0001
,
0010
0001
1000
0000
,
0001
0100
0001
0000
,
1000
0010
1000
0000
,
0001
0100
0010
1000
,
0001
0000
0000
0100
0000
0100
0000
0000
,
0010
1000
0010
0000
,
0100
0001
0100
0000
,
0010
1000
0010
0100
,
0001
0100
0010
0000
,
1000
0100
0010
0001
,
1000
0001
2002
3003
,
1000
0010
0100
0001
,
0000
0100
0100
0000
0020
0000
0030
0000
,
1000
0000
0100
0000
,
0001
0000
0010
0000
,
1000
0000
0001
0000
,
0100
0010
0110
0000
,
1000
0010
1000
0010
,
0001
0100
0001
0100
,
1000
0000
0010
0000
,
0001
0000
0100
0100
0000
0100
0000
0000
,
0010
1000
0010
1000
,
0002
0000
0103
0000
,
0100
0001
0100
0001
,
2000
0000
3010
0000
,
0010
0100
0010
0000
,
1000
0001
1000
0000
,
0010
0000
0100
0000
0001
0000
1000
1000
,
0000
0010
0000
0100
0000
0000
0000
0000
,
0000
0000
0000
0000
,
0110
0000
0000
0000
,
0000
0000
0000
0000
,
0000
0000
0000
0000
,
0000
0000
0000
0000
,
0001
0000
0100
0000
,
1000
0000
0010
0000
,
0001
0000
0100
0000
,
1000
0010
0200
0300
,
0001
0100
0020
0030
,
1000
0100
0010
0100
,
1000
0100
0010
0010
,
0001
0010
0100
0010
,
0001
0010
0010
0100
,
1000
0000
0001
0001
0000
0100
0000
0100
,
0000
0010
0000
0010
0000
0000
1000
0000
,
1001
0001
0100
1000
,
0000
0010
0010
0000
0000
0000
0110
0000
,
1000
0000
0100
0000
,
0001
0000
0010
0000
,
1000
0001
1000
0000
,
0010
0100
0010
0000
,
1000
0100
0001
0000
,
0001
0010
1000
0000
,
1000
0000
0001
0000
0100
0000
0010
0010
,
0000
0100
0000
0100
0000
1001
0000
0000
,
1010
0000
0000
0101
0000
0000
0200
0020
,
0000
0000
0000
0000
,
0330
0000
0000
0000
;

//---------------dance-single - ----------------
#NOTEDATA:;
#CHARTNAME:;
#STEPSTYPE:dance-single;
#DESCRIPTION:;
#CHARTSTYLE:;
#DIFFICULTY:Medium;
#METER:12;
#RADARVALUES:0.560930,0.628097,0.383958,0.311513,0.054334,542.000000,489.000000,53.000000,43.000000,0.000000,0.000000,0.000000,0.000000,0.000000,0.560930,0.628097,0.383958,0.311513,0.054334,542.000000,489.000000,53.000000,43.000000,0.000000,0.000000,0.000000,0.000000,0.000000;
#CREDIT:MILEN;
#NOTES:
0000
0000
0000
0000
,
0000
0000
0000
0000
,
0000
0000
0000
0000
,
0000
0000
0000
0000
,
0010
0010
0000
0000
0000
0000
0000
0100
,
0000
0100
0000
0000
0000
0000
0000
0000
,
0010
0100
0010
2000
0000
3002
0000
0203
,
0000
0310
0100
0010
0100
0001
0010
0100
,
1000
1000
0010
0010
,
0001
0001
0100
0100
,
1000
0010
0001
0100
,
0001
0010
1000
1001
,
0001
0100
0001
0010
0000
0010
0100
1000
,
0000
0001
0010
0100
0000
0100
1000
0010
,
1000
0000
0100
0000
0010
0000
0001
0100
,
0000
0110
0000
1010
0000
0202
0303
0000
,
0001
0010
0001
0100
,
0001
0000
0010
0000
0001
0100
0001
0000
,
1000
0100
1000
0010
,
1000
0000
0100
0000
1000
0010
1000
0000
,
0001
0010
0001
0100
0000
0010
1000
0100
,
0000
0010
0001
0100
0000
0010
1000
0100
,
2000
0000
3010
0000
0002
0000
0103
0100
,
0000
1000
0010
0100
0001
0100
0010
1000
,
0001
0100
1000
0100
,
0001
0000
0100
0000
0010
0100
0010
0000
,
1000
0010
0001
0010
,
1000
0000
0010
0000
0100
0010
0100
0000
,
0001
0010
0100
1000
0000
0100
0010
0001
,
0000
0010
0100
1000
0000
0100
0010
0001
,
2000
0000
3100
0000
0002
0000
0013
0010
,
0000
1000
0100
0010
0001
0010
0100
1000
,
0001
0100
0010
0001
,
1000
0100
0010
1000
,
0001
0100
0010
0001
,
1000
0100
0010
1000
,
0001
0010
0100
0020
0000
0130
1000
0200
,
0000
0310
0001
0020
0000
0130
1000
0001
,
1001
0000
0100
0000
0110
0000
0010
2000
,
0000
3100
0010
0002
0000
0103
0010
0010
,
2000
0000
0000
0000
,
3002
0000
0000
0000
0000
0000
0000
0000
0000
0000
1003
0100
1000
0000
0000
0000
,
0001
0100
1000
0100
0000
0101
0000
0021
,
0000
0000
0130
0000
0010
0000
0001
0100
,
0000
1000
0100
0001
0000
0011
0000
1100
,
0000
1000
0010
0200
0000
0000
0301
0000
,
0001
0010
1000
0010
0000
0011
0000
0201
,
0000
0000
0310
0000
0010
0000
1000
0100
,
0000
0110
0000
0011
0000
0001
0010
0100
,
1000
0010
0100
0010
0000
0010
1001
0000
,
1000
0100
0001
0100
0000
1100
0000
1020
,
0000
0000
0130
0000
0010
0000
1000
0100
,
0000
0001
0100
1000
0000
1010
0000
0101
,
0000
0001
0010
0200
0000
0000
1300
0000
,
1000
0010
0001
0010
0000
1010
0000
1100
,
0000
0011
0000
0201
0000
0000
0310
0010
,
1000
0100
0010
0001
1000
0100
0010
0001
,
0000
0100
0110
0000
1000
0001
1001
0000
,
1000
0000
0000
0000
1000
0000
0010
0000
0000
0000
0010
0000
0100
0000
0000
0000
0100
0000
0001
0000
0000
0020
0000
0000
,
0000
0000
0031
0000
0100
0000
0010
0000
1000
0000
0000
0100
0000
0000
0010
0000
,
0002
0000
0000
0000
0013
0100
1000
0020
,
0000
0000
1030
0200
0000
0000
1300
0010
,
0100
0000
0100
0001
0000
0001
0010
0000
0010
0100
0000
0100
,
1000
0000
1000
0010
0000
0010
0100
0000
0100
0001
0000
0001
,
1000
0000
0000
0010
0000
0000
0001
0000
0010
0000
0000
1000
0000
0000
0100
0000
,
0001
0100
1000
0010
0000
0110
0100
0001
,
2000
3010
0002
0103
,
2000
3100
0002
0013
,
2000
0000
3001
0000
0200
0000
0310
0100
,
0000
0010
1000
0001
0000
0100
0001
1000
,
0010
0100
0001
1000
0000
1100
0000
0011
,
0000
0101
0000
1010
0000
1000
0100
0010
,
0001
0100
1000
0100
0001
0100
1000
0100
,
0000
0110
0000
2002
0000
0000
0000
0000
,
0000
0000
3003
0000
0001
0010
0100
1000
,
1010
0000
0000
0000
0000
0000
0000
0011
,
0000
0000
0000
0000
0000
1100
0000
0000
,
0101
0000
0000
0000
0000
0000
0000
0110
,
0000
1000
0100
0010
0000
0001
0010
0100
,
0110
0001
0100
1000
,
0010
0001
0010
1000
,
0100
0001
0010
0100
,
1000
0010
0100
0001
0000
0100
0010
0100
,
0001
0010
0100
1000
0000
0010
0100
0010
,
1000
0100
0001
0100
0000
1100
0000
0012
,
0000
0000
0103
0000
0001
0000
1000
0010
,
0000
0001
0100
1000
0000
1010
0000
0201
,
0000
0310
1000
0200
0000
0000
0310
0000
,
0010
0001
0100
1000
0000
1100
0000
0101
,
0000
1010
0000
0021
0000
0000
0130
0100
,
0001
0010
0100
1000
0010
0001
1000
0200
,
0000
0310
0110
0000
0001
1000
1001
0000
,
0001
0001
0010
0010
,
1000
1000
0100
0100
,
0001
0010
1000
0100
,
1000
0010
0001
1001
,
1000
0100
1000
0010
0000
0010
0100
0001
,
0000
1000
0010
0100
0000
0100
0001
0010
,
0001
0100
1000
0100
0001
0010
0001
0100
,
0000
1100
0000
1010
0000
0022
0033
0000
,
0001
0100
1000
0001
0000
0010
1000
2002
,
0000
0000
0000
0000
,
3003
0000
0000
0000
;

//---------------dance-single - ----------------
#NOTEDATA:;
#CHARTNAME:;
#STEPSTYPE:dance-single;
#DESCRIPTION:;
#CHARTSTYLE:;
#DIFFICULTY:Hard;
#METER:16;
#RADARVALUES:0.790684,0.970037,0.565070,0.318757,0.347735,764.000000,686.000000,78.000000,44.000000,0.000000,0.000000,0.000000,0.000000,0.000000,0.790684,0.970037,0.565070,0.318757,0.347735,764.000000,686.000000,78.000000,44.000000,0.000000,0.000000,0.000000,0.000000,0.000000;
#CREDIT:MILEN;
#NOTES:
0000
0000
0000
0000
,
0000
0000
0000
0000
,
0000
0000
0000
0000
,
0000
0000
0000
0000
,
1001
1001
0000
0000
0000
0000
0000
0110
,
0000
0110
0000
0000
0000
0000
0000
0000
,
1001
0010
0100
0010
0000
1010
0000
0101
,
0000
0001
0010
0100
1000
0010
0100
0001
,
1002
1003
0100
0001
0100
1000
0010
0001
,
0010
1000
0100
0001
0100
1000
0010
0100
,
0210
0310
1000
0100
0000
0010
0001
0100
,
0000
0000
0010
0000
1000
0000
0200
0000
0000
0000
0310
0000
0010
0001
0010
0001
,
0100
0010
1000
1010
0000
0100
0001
0101
,
0000
0000
0010
0000
0100
0000
0110
0000
0000
0000
0010
0000
1000
0001
1000
0001
,
1000
0010
0100
0001
0010
0100
1000
1010
,
0000
0011
0000
1100
0000
0202
0303
0000
,
1001
1000
0010
0100
0010
1000
0010
0100
,
0001
0100
0010
0100
0001
0010
0100
1000
,
0010
0100
0001
0100
0010
0100
0001
1000
,
0010
0100
0010
1000
0010
0100
0001
0010
,
0100
1000
0010
0200
0000
1300
0100
0020
,
0000
0000
1030
0000
0100
0000
0020
0000
0000
0000
0130
0000
1000
0000
0100
0010
,
0200
0000
0001
0301
0000
0100
1000
1010
,
0000
0010
0100
0001
0010
0100
1000
0010
,
1001
0001
0010
0100
0010
0001
0010
0100
,
1000
0100
0010
0100
1000
0010
0100
0001
,
0010
0100
1000
0100
0010
0100
1000
0001
,
0010
0100
0010
0001
0010
0100
1000
0010
,
0100
0001
0010
0200
0000
0301
0100
0020
,
0000
0000
0031
0000
0100
0000
0020
0000
0000
0000
0130
0000
0001
0000
0100
0010
,
0200
0000
1000
1300
0000
0100
0001
0011
,
0000
0010
0100
1000
0001
0010
0100
1000
,
0020
0001
0100
1030
,
0200
1000
0010
0301
,
0002
0010
1000
0103
,
2000
0000
0000
0000
0010
0000
0000
0000
3001
0000
0001
0010
0100
0000
0010
0100
,
1000
0010
0100
0101
0000
0100
0010
1010
,
0000
1000
0100
1100
0000
0001
0010
0001
,
0011
0000
0000
0000
0010
0001
0100
0000
0010
1000
0100
0000
0010
0000
0200
0000
,
0000
0000
1300
0000
0010
0000
0110
0000
0000
0000
0100
0000
0001
0010
0100
1000
,
0020
0001
0100
1030
,
0200
0000
0000
0000
1000
0000
0000
0000
0310
0000
0001
1000
0001
0000
0000
0000
,
1000
0010
0001
1000
0000
0001
0010
1000
,
0000
0001
0100
1000
0001
1000
0100
0001
,
0000
0010
0100
1100
0000
0100
0010
0011
,
0000
0000
0010
0000
0100
0000
1001
0000
0000
0000
0001
0000
0100
0010
0100
0010
,
1000
1000
0100
0010
0001
0001
0010
0100
,
1000
1000
0010
0100
0001
0001
0100
0010
,
1000
0100
1000
0000
0010
0000
1000
0000
0001
0010
0001
0000
0100
0000
0001
0000
,
0011
0000
0100
0000
1000
0000
1010
0000
0000
0000
0010
0000
0001
0010
0100
1000
,
0001
0010
1000
0001
0000
1000
0010
0001
,
0000
1000
0100
0001
1000
0001
0100
1000
,
0000
0100
0010
1010
0000
0010
0100
0101
,
0000
0000
0100
0000
0010
0000
1001
0000
0000
0000
1000
0000
0100
0010
0100
0010
,
0001
0100
0010
1010
0000
1100
0000
0101
,
0000
0000
0011
0000
0000
0000
0110
0000
0000
0000
0100
0000
1000
0010
1000
0010
,
0100
0000
0001
0010
0001
0010
0100
0000
1000
0010
0100
0001
1000
0000
0200
0000
,
0000
0000
0310
0000
0110
0000
0000
0000
0001
0100
0010
1000
0002
0000
0000
0000
,
1003
0000
0100
0000
1000
0000
0010
0000
0100
0000
0001
0000
0010
0000
0001
0000
0100
0000
0010
0000
0000
2000
0000
0000
,
0000
0000
3001
0010
0100
0000
0010
0100
1000
0000
0000
0010
0000
0000
0100
0000
,
0002
0000
0000
0000
0000
0000
0000
0000
1003
0100
1000
0100
0010
0001
0020
0000
,
0000
0000
0130
0000
1000
0000
0200
0000
0000
0000
0310
0000
0001
0100
0010
1000
,
0001
0100
0010
1000
0100
0010
0001
1000
0010
0100
0001
0010
,
0100
1000
0001
0100
0010
1000
0100
0001
0100
1000
0010
0100
,
0001
0000
0000
0010
0000
0000
1000
0000
0100
0000
0000
0001
0000
0000
0010
0000
,
1010
0000
1000
0000
0100
0000
0011
0000
0000
0000
0001
0000
0100
0010
1000
0001
,
0010
0100
0001
0100
1000
0100
0001
0100
,
0010
0000
1000
0000
0010
0000
0001
0000
0010
0000
1000
0000
0010
0000
0100
1000
,
0001
0010
0100
2000
0000
3100
0010
0002
,
0000
0013
0100
2000
0000
3010
0100
0001
,
1001
1000
0010
0100
0000
0101
0000
0011
,
0000
1010
0000
1100
0000
0110
0010
0001
,
0100
0000
0100
0000
0010
1000
0010
0000
0100
0000
0001
0010
0100
1000
0010
0000
,
0000
0110
0000
2002
0000
0000
0000
0000
,
0000
0000
0000
3003
0000
0000
0001
0100
0010
1000
0001
0010
,
0110
0000
0000
0000
0000
0000
0000
1100
,
0000
0000
0000
0000
0000
0011
0000
0000
,
1010
0000
0000
0000
0000
0000
0000
0101
,
0000
0000
0001
0000
0010
0000
0200
0000
0000
0000
1300
0000
0010
0100
0001
1000
,
0200
0001
0010
1300
,
0020
1000
0100
0031
,
0200
0001
1000
0310
,
0010
1000
0001
1100
0000
0010
1000
0100
,
0010
0000
0001
0000
1000
0000
0101
0000
0000
0000
0010
0000
0100
0001
1000
0100
,
0010
0001
0100
1000
0100
0001
0010
0100
,
1000
0010
0100
0000
0001
0010
0100
0000
1000
0010
0100
0000
0001
0010
0100
1000
,
0100
0010
0001
0101
0010
1000
0100
1100
,
0010
0000
0001
0000
0100
0000
0120
0000
0000
0000
1030
0000
0001
0010
0100
0010
,
1000
0010
0001
0101
0000
1100
0000
0011
,
0000
0000
1010
0000
0000
0000
1001
0000
0000
0000
0001
0000
0010
0001
0010
0001
,
0100
0000
0010
1000
0010
1000
0100
0000
0010
0001
0100
0010
1000
0000
0200
0000
,
0000
0000
0301
0000
0011
0000
0000
0000
0010
0100
1000
0001
0100
0000
0000
0000
,
2001
3001
0100
1000
0100
0001
0010
1000
,
0010
0001
0100
1000
0100
0001
0010
0100
,
0210
0310
0001
0100
0000
0010
1000
0100
,
0000
0000
0010
0000
0001
0000
0200
0000
0000
0000
0310
0000
0010
1000
0010
1000
,
0100
0010
0001
0011
0000
0100
1000
1100
,
0000
0000
0010
0000
0100
0000
0110
0000
0000
0000
0010
0000
1000
0001
0100
0010
,
1000
0100
0001
1000
0010
0001
0100
1010
,
0000
0101
0000
1100
0000
0022
0033
0000
,
0001
0100
1000
0100
0010
0000
1010
0000
0000
0000
1100
0000
0011
0000
2002
0000
,
0000
0000
0000
0000
,
0000
0000
0000
0000
,
3003
0000
0000
0000
;

//---------------dance-double - ----------------
#NOTEDATA:;
#CHARTNAME:;
#STEPSTYPE:dance-double;
#DESCRIPTION:;
#CHARTSTYLE:;
#DIFFICULTY:Hard;
#METER:16;
#RADARVALUES:0.777230,0.970037,0.579559,0.376713,0.322380,751.000000,671.000000,80.000000,52.000000,0.000000,0.000000,0.000000,0.000000,0.000000,0.777230,0.970037,0.579559,0.376713,0.322380,751.000000,671.000000,80.000000,52.000000,0.000000,0.000000,0.000000,0.000000,0.000000;
#CREDIT:MILEN;
#NOTES:
// measure 0
00000000
00000000
00000000
00000000
,  // measure 1
00000000
00000000
00000000
00000000
,  // measure 2
00000000
00000000
00000000
00000000
,  // measure 3
00000000
00000000
00000000
00000000
,  // measure 4
00011000
00011000
00000000
00000000
00000000
00000000
00000000
00010010
,  // measure 5
00000000
01001000
00000000
00000000
00000000
00000000
00000000
00000000
,  // measure 6
00011000
00010000
00001000
00010000
00000000
00010100
00000000
00101000
,  // measure 7
00000000
00001000
00010000
00000100
00001000
00000010
00000100
00000001
,  // measure 8
00002001
00003001
00000100
00000001
00000100
00001000
00000100
00010000
,  // measure 9
00001000
00100000
00010000
00100000
10000000
00100000
00010000
01000000
,  // measure 10
00100000
00100000
10000000
01000000
00000000
01000000
00010000
00100000
,  // measure 11
00000000
00000000
00100000
00000000
10000000
00000000
02000000
00000000
00000000
00000000
03100000
00000000
00100000
00010000
00100000
00010000
,  // measure 12
01000000
00001000
00010000
00010100
00000000
00010000
00001000
01001000
,  // measure 13
00000000
00000000
00001000
00000000
00010000
00000000
00010010
00000000
00000000
00000000
00010000
00000000
00000100
00001000
00000100
00001000
,  // measure 14
00000010
00000100
00000001
00000010
00000100
00001000
00000010
00010010
,  // measure 15
00000000
00011000
00000000
00101000
00000000
00022000
00033000
00000000
,  // measure 16
00011000
00010000
00000100
00001000
00000010
00001000
00000100
00010000
,  // measure 17
00001000
00100000
00010000
01000000
00010000
00100000
00001000
00010000
,  // measure 18
00000100
00000010
00000100
00010000
00001000
00100000
01000000
00100000
,  // measure 19
00001000
00010000
00100000
01000000
00100000
00010000
00001000
00000100
,  // measure 20
00000010
00000100
00001000
00020000
00000000
00031000
00010000
00200000
,  // measure 21
00000000
00000000
00310000
00000000
00100000
00000000
20000000
00000000
00000000
00000000
30100000
00000000
10000000
00000000
01000000
00100000
,  // measure 22
02000000
00000000
00010000
03010000
00000000
00010000
00001000
00011000
,  // measure 23
00000000
00010000
00001000
00000010
00000001
00000100
00001000
00010000
,  // measure 24
00011000
00001000
01000000
00010000
00100000
00010000
01000000
00001000
,  // measure 25
00010000
00000010
00001000
00000100
00001000
00000010
00010000
00001000
,  // measure 26
01000000
00100000
01000000
00001000
00010000
00000010
00000100
00000010
,  // measure 27
00010000
00001000
00000010
00000100
00000010
00001000
00010000
01000000
,  // measure 28
00100000
01000000
00010000
00002000
00000000
00013000
00001000
00000020
,  // measure 29
00000000
00000000
00001030
00000000
00000010
00000000
00000002
00000000
00000000
00000000
00000013
00000000
00000001
00000000
00000100
00000010
,  // measure 30
00000200
00000000
00001000
00001300
00000000
00001000
00010000
00011000
,  // measure 31
00000000
00001000
00100000
01000000
00010000
00001000
00000010
00000100
,  // measure 32
00002000
00003001
00000002
00000103
,  // measure 33
00000200
00001300
00002000
00013000
,  // measure 34
00020000
00130000
00200000
10300000
,  // measure 35
20000000
00000000
00000000
00000000
30010000
00000000
00000000
00000000
10010000
00000000
10000000
01000000
10000000
00000000
00010000
00100000
,  // measure 36
00010000
01000000
00001000
00011000
00000000
00000100
00010000
00011000
,  // measure 37
00000000
00100000
00001000
00011000
00000000
00000010
00010000
00001000
,  // measure 38
00011000
00000000
00000000
00000000
00010000
00001000
00010000
00000000
00000100
00001000
00000100
00000000
00000010
00000000
00000002
00000000
,  // measure 39
00000000
00000000
00000103
00000000
00001000
00000000
00011000
00000000
00000000
00000000
00010000
00000000
00001000
00010000
00001000
00010000
,  // measure 40
00002000
00000000
00000000
00000000
,  // measure 41
00023000
00000000
00000000
00000000
00000000
00000000
00000000
00000000
00000000
00000000
00031000
00100000
00020000
00000000
00000000
00000000
,  // measure 42
10030000
01000000
00010000
00011000
00000000
00010000
01000000
10000000
,  // measure 43
00000000
10000000
00100000
00010000
00001000
00000100
00000001
00001001
,  // measure 44
00000000
00001000
00000100
00000110
00000000
00000001
00000010
00000110
,  // measure 45
00000000
00000000
00001000
00000000
00000100
00000000
00000110
00000000
00000000
00000000
00000001
00000000
00000100
00000010
00000100
00000010
,  // measure 46
00001000
00000100
00000010
00000011
00000000
00001100
00000000
00011000
,  // measure 47
00000000
00010000
01000000
10000000
00100000
00010000
00100000
10000000
,  // measure 48
01000000
01000000
00010000
10000000
01000000
01000000
00010000
00100000
,  // measure 49
00001000
00000000
00010000
00000000
00000010
00000000
00000110
00000000
00000000
00000000
00000100
00000000
00000010
00000100
00000010
00000100
,  // measure 50
00000001
00000010
00001000
00011000
00000000
00001000
00000010
00000001
,  // measure 51
00000000
00000001
00000100
00001000
00010000
00100000
10000000
10010000
,  // measure 52
00000000
00010000
00100000
01100000
00000000
10000000
01000000
01100000
,  // measure 53
00000000
00000000
00010000
00000000
00100000
00000000
01100000
00000000
00000000
00000000
10000000
00000000
00100000
01000000
00100000
01000000
,  // measure 54
00010000
00100000
01000000
11000000
00000000
00110000
00000000
00011000
,  // measure 55
00000000
00000000
00001010
00000000
00000000
00000000
00000101
00000000
00000000
00000000
00000001
00000000
00000010
00000100
00000010
00000100
,  // measure 56
00001000
00000000
00000100
00010000
00000100
00010000
00001000
00000000
00100000
00010000
00100000
00010000
01000000
00000000
00200000
00000000
,  // measure 57
00000000
00000000
10300000
00000000
11000000
00000000
00000000
00000000
01000000
00100000
01000000
00100000
00020000
00000000
00000000
00000000
,  // measure 58
00130000
00000000
00001000
00000000
00010000
00000000
00000100
00000000
00010000
00000000
00001000
00000000
00100000
00000000
00001000
00000000
00010000
00000000
00000100
00000000
00000000
00000020
00000000
00000000
,  // measure 59
00000000
00000000
00000031
00000000
00000100
00000000
00001000
00000000
00010000
00000000
00000000
00100000
00000000
00000000
10000000
00000000
,  // measure 60
22000000
00000000
00000000
00000000
33000000
00000000
00000000
00000000
01000000
00100000
00010000
00100000
00010000
00100000
00002000
00000000
,  // measure 61
00000000
00000000
00013000
00000000
00001000
00000000
00000020
00000000
00000000
00000000
00000031
00000000
00000001
00000100
00000001
00000100
,  // measure 62
00000001
00000010
00000100
00001000
00000010
00010000
00001000
01000000
00010000
00100000
01000000
10000000
,  // measure 63
00100000
01000000
00010000
00100000
00001000
00010000
00000100
00001000
00000010
00000100
00000001
00001000
,  // measure 64
00000100
00000000
00000000
00000010
00000000
00000000
00001000
00000000
00010000
00000000
00000000
01000000
00000000
00000000
00100000
00000000
,  // measure 65
00110000
00000000
10000000
00000000
01000000
00000000
11000000
00000000
00000000
00000000
10000000
00000000
00100000
00010000
00100000
00010000
,  // measure 66
00001000
00100000
01000000
00100000
00001000
00100000
01000000
00010000
,  // measure 67
00001000
00000010
00000100
00000010
00001000
00000010
00000100
00000010
,  // measure 68
00000010
00000001
00000100
00002000
00000000
00003100
00001000
00020000
,  // measure 69
00000000
00031000
00010000
00200000
00000000
00310000
00100000
10000000
,  // measure 70
10010000
00010000
00100000
01000000
00000000
11000000
00000000
01010000
,  // measure 71
00000000
00011000
00000000
00001010
00000000
00000011
00000001
00000100
,  // measure 72
00001000
00000000
00010000
00000000
00100000
10000000
00100000
00000000
10000000
00000000
01000000
00100000
00010000
00100000
00001000
00000000
,  // measure 73
00000000
00010000
00000000
00022000
00000000
00000000
00000000
00000000
,  // measure 74
00000000
00000000
00000000
00033000
00000000
00000000
00010000
00001000
00000100
00000010
00001000
00000100
,  // measure 75
00000010
00000000
00000000
00000000
00000000
00000000
00000000
00100000
,  // measure 76
00000000
00000000
00000000
00000000
00000000
00000100
00000000
00000000
,  // measure 77
01000000
00000000
00000000
00000000
00000000
00000000
00000000
20020000
,  // measure 78
30030000
00000000
10000000
00000000
01000000
00000000
00200000
00000000
00000000
00000000
00310000
00000000
00100000
00001000
00010000
00001000
,  // measure 79
00000200
00000301
00000002
00000013
,  // measure 80
00000020
00001030
00002000
00013000
,  // measure 81
00020000
01030000
02000000
13000000
,  // measure 82
10000000
00100000
00010000
00011000
00000000
00010000
00001000
00000100
,  // measure 83
00000001
00000000
00000010
00000000
00001000
00000000
00011000
00000000
00000000
00000000
00001000
00000000
00010000
00001000
00010000
00001000
,  // measure 84
00100000
00010000
01000000
00100000
10000000
01000000
00010000
00001000
,  // measure 85
00000010
00000100
00000010
00000000
00001000
00000000
00010000
00000000
01000000
00100000
01000000
00000000
00010000
00000000
00001000
00000000
,  // measure 86
00011000
00000100
00000010
00000011
00000001
00000100
00001000
00011000
,  // measure 87
00100000
00000000
01000000
00000000
11000000
00000000
00020000
00000000
00000000
00000000
00130000
00000000
00100000
00001000
00010000
00000010
,  // measure 88
00000100
00000001
00000010
00001010
00000000
00011000
00000000
00110000
,  // measure 89
00000000
00000000
00011000
00000000
00000000
00000000
00001100
00000000
00000000
00000000
00011000
00000000
00010000
00100000
00010000
00100000
,  // measure 90
01000000
00000000
00100000
10000000
00100000
10000000
01000000
00000000
00010000
00001000
00010000
00001000
00000010
00000000
00000002
00000000
,  // measure 91
00000000
00000000
00001003
00000000
00001100
00000000
00000000
00000000
00000100
00010000
00001000
00100000
01000000
00000000
00000000
00000000
,  // measure 92
10020000
10030000
01000000
10000000
01000000
00010000
01000000
00001000
,  // measure 93
00010000
00000010
00001000
00000010
00000001
00000010
00001000
00000100
,  // measure 94
00000010
00000010
00000001
00000100
00000000
00000100
00001000
00000010
,  // measure 95
00000000
00000000
00000010
00000000
00000001
00000000
00000200
00000000
00000000
00000000
00000310
00000000
00000010
00001000
00000010
00001000
,  // measure 96
00000100
00010000
00001000
01001000
00000000
00001000
00010000
00010100
,  // measure 97
00000000
00000000
00010000
00000000
00001000
00000000
00101000
00000000
00000000
00000000
00001000
00000000
01000000
00010000
01000000
00010000
,  // measure 98
10000000
00100000
00010000
00001000
00000100
00000001
00000010
00001100
,  // measure 99
00000000
00010010
00000000
01001000
00000000
00220000
00330000
00000000
,  // measure 100
00010000
00100000
01000000
10000000
00100000
01000000
00010000
00000000
00000000
00000000
00110000
00000000
00011000
00000000
00020020
00000000
,  // measure 101
00000000
00000000
00000000
00000000
,  // measure 102
00000000
00000000
00000000
00000000
00000000
00000000
00000000
00000030
,  // measure 103
00030000
00000000
00000000
00000000
;

//---------------dance-double - ----------------
#NOTEDATA:;
#CHARTNAME:;
#STEPSTYPE:dance-double;
#DESCRIPTION:;
#CHARTSTYLE:;
#DIFFICULTY:Easy;
#METER:8;
#RADARVALUES:0.271151,0.369469,0.079689,0.072445,0.000000,262.000000,251.000000,11.000000,10.000000,0.000000,0.000000,0.000000,0.000000,0.000000,0.271151,0.369469,0.079689,0.072445,0.000000,262.000000,251.000000,11.000000,10.000000,0.000000,0.000000,0.000000,0.000000,0.000000;
#CREDIT:MILEN;
#NOTES:
// measure 0
00000000
00000000
00000000
00000000
,  // measure 1
00000000
00000000
00000000
00000000
,  // measure 2
00000000
00000000
00000000
00000000
,  // measure 3
00000000
00000000
00000000
00000000
,  // measure 4
00001000
00000000
00000000
00000000
00000000
00000000
00000000
00010000
,  // measure 5
00000000
00010000
00000000
00000000
00000000
00000000
00000000
00000000
,  // measure 6
00001000
00000000
00010000
00000000
,  // measure 7
00001000
00000000
00010000
00011000
,  // measure 8
00100000
00000000
01000000
00000000
,  // measure 9
00100000
00000000
01000000
00000000
,  // measure 10
00010000
00000000
00001000
00000000
,  // measure 11
00010000
00000000
00001000
00000000
,  // measure 12
00000010
00000000
00000100
00000000
,  // measure 13
00000010
00000000
00000100
00000000
,  // measure 14
00010000
00001000
01000000
00000000
,  // measure 15
00001000
00010000
00000010
00000000
,  // measure 16
00010000
00000000
00001000
00000000
,  // measure 17
00000100
00000000
00010000
00000000
,  // measure 18
00001000
00000000
00000010
00000000
,  // measure 19
00010000
00000000
00001000
00000000
,  // measure 20
00000100
00000000
00010000
00000000
,  // measure 21
00001000
00000000
00000010
00000000
,  // measure 22
00010000
00000000
00001000
00000000
,  // measure 23
01000000
00001000
00010000
00011000
,  // measure 24
00001000
00000000
00010000
00000000
,  // measure 25
01000000
00000000
00001000
00000000
,  // measure 26
00010000
00000000
00100000
00000000
,  // measure 27
00001000
00000000
00010000
00000000
,  // measure 28
01000000
00000000
00001000
00000000
,  // measure 29
00010000
00000000
00100000
00000000
,  // measure 30
00001000
00000000
00010000
00000000
,  // measure 31
00000100
00010000
00001000
00011000
,  // measure 32
00010000
00000000
01000000
00000000
,  // measure 33
10000000
00000000
00100000
00000000
,  // measure 34
00010000
00000000
00001000
00000000
,  // measure 35
00000100
00000000
00000001
00000000
,  // measure 36
00000010
00000100
00000010
00000000
,  // measure 37
00000100
00000010
00000100
00000000
,  // measure 38
00001000
00000100
00000010
00000001
,  // measure 39
00000100
00001000
00020000
00000000
,  // measure 40
00002000
00000000
00000000
00000000
,  // measure 41
00000000
00000000
00000000
00033000
00000000
00010000
00010000
00000000
,  // measure 42
00000100
00001000
00000010
00000000
,  // measure 43
00000100
00000010
00001000
00000000
,  // measure 44
00000100
00001000
00000010
00000100
,  // measure 45
00000010
00001000
00000100
00000000
,  // measure 46
00000010
00000001
00000100
00000000
,  // measure 47
00000100
00001000
00010000
00000000
,  // measure 48
00010000
01000000
10000000
00100000
,  // measure 49
00010000
00000000
00000000
00001000
00000000
00011000
00000000
00000000
,  // measure 50
00100000
00010000
01000000
00000000
,  // measure 51
00100000
01000000
00010000
00000000
,  // measure 52
00100000
00010000
01000000
00100000
,  // measure 53
01000000
00010000
00100000
00000000
,  // measure 54
01000000
10000000
00100000
00010000
,  // measure 55
00001000
00010000
00022000
00033000
,  // measure 56
00001000
00010000
00001000
00000100
,  // measure 57
00000000
00000001
00000001
00000000
00002002
00000000
00003003
00000000
,  // measure 58
00001000
00000000
00000010
00000000
,  // measure 59
00010000
00000000
00100000
00000000
,  // measure 60
10000000
00000000
01000000
00000000
,  // measure 61
00010000
00001000
00011000
00000000
,  // measure 62
00010000
00001000
00000100
00000010
,  // measure 63
00001000
00000100
00000010
00000001
,  // measure 64
00000100
00000000
00001000
00000000
,  // measure 65
00010000
00000000
00100000
00100000
00000000
00100000
00000000
00000000
,  // measure 66
10000000
00000000
01000000
00000000
,  // measure 67
00010000
00000000
00001000
00000000
,  // measure 68
00000010
00000000
00000001
00000000
,  // measure 69
00000100
00000000
00001000
00000000
,  // measure 70
00010000
00001000
00100000
00000000
,  // measure 71
00001000
00010000
00000100
00000000
,  // measure 72
00010000
00000000
00001000
00000000
00010000
00000000
00100000
00100000
,  // measure 73
00000000
10000000
00000000
01000000
00000000
00000000
00000000
00000000
,  // measure 74
00000000
00000000
00000000
00000000
,  // measure 75
01100000
00000000
00000000
00000000
,  // measure 76
00000000
00000000
00000000
00000000
,  // measure 77
00000000
00000000
00000000
00000000
,  // measure 78
00000000
00000000
00000000
00000000
,  // measure 79
00000110
00000000
00000010
00000000
,  // measure 80
00000001
00000000
00000100
00000000
,  // measure 81
00001000
00000000
00010000
00000000
,  // measure 82
00100000
10000000
02000000
03000000
,  // measure 83
00100000
00010000
02000000
03000000
,  // measure 84
00100000
00010000
00001000
00010000
,  // measure 85
00100000
00010000
00001000
00001000
,  // measure 86
00000010
00001000
00010000
00001000
,  // measure 87
00000010
00001000
00001000
00010000
,  // measure 88
00000100
00000000
00000010
00000010
00000000
00000001
00000000
00000001
,  // measure 89
00000000
00000100
00000000
00000100
00000000
00000000
00001000
00000000
,  // measure 90
00011000
00010000
01000000
10000000
,  // measure 91
00000000
00100000
00100000
00000000
00000000
00000000
01100000
00000000
,  // measure 92
01000000
00000000
00100000
00000000
,  // measure 93
01000000
00000000
00100000
00000000
,  // measure 94
00010000
00000000
00001000
00000000
,  // measure 95
00010000
00000000
00001000
00000000
,  // measure 96
00000100
00000000
00000010
00000000
,  // measure 97
00000100
00000000
00000010
00000000
,  // measure 98
00010000
00000000
00001000
00000000
00010000
00000000
00001000
00100000
,  // measure 99
00000000
00100000
00000000
01000000
00000000
00010000
00000000
00000000
,  // measure 100
00001000
00000000
00000000
00000100
00000000
00000000
00000002
00002000
,  // measure 101
00000000
00000000
00000000
00000000
,  // measure 102
00003003
00000000
00000000
00000000
;

//---------------dance-double - ----------------
#NOTEDATA:;
#CHARTNAME:;
#STEPSTYPE:dance-double;
#DESCRIPTION:;
#CHARTSTYLE:;
#DIFFICULTY:Medium;
#METER:13;
#RADARVALUES:0.556791,0.628097,0.383958,0.275291,0.050711,538.000000,485.000000,53.000000,38.000000,0.000000,0.000000,0.000000,0.000000,0.000000,0.556791,0.628097,0.383958,0.275291,0.050711,538.000000,485.000000,53.000000,38.000000,0.000000,0.000000,0.000000,0.000000,0.000000;
#CREDIT:MILEN;
#NOTES:
// measure 0
00000000
00000000
00000000
00000000
,  // measure 1
00000000
00000000
00000000
00000000
,  // measure 2
00000000
00000000
00000000
00000000
,  // measure 3
00000000
00000000
00000000
00000000
,  // measure 4
00001000
00001000
00000000
00000000
00000000
00000000
00000000
00010000
,  // measure 5
00000000
00010000
00000000
00000000
00000000
00000000
00000000
00000000
,  // measure 6
00001000
00010000
00001000
01001000
00000000
00011000
00000000
00010100
,  // measure 7
00000000
00000100
00001000
00000100
00000010
00000001
00000010
00000100
,  // measure 8
00001000
00001000
00000010
00000010
,  // measure 9
00010000
00010000
00100000
00100000
,  // measure 10
10000000
01000000
00010000
00001000
,  // measure 11
00000010
00000001
00000100
00001010
,  // measure 12
00001000
00000100
00000010
00000001
00000000
00000001
00000100
00001000
,  // measure 13
00000000
00010000
00100000
10000000
00000000
10000000
01000000
00100000
,  // measure 14
00010000
00000000
01000000
00000000
00001000
00000000
00000100
00000100
,  // measure 15
00000000
00000101
00000000
00001010
00000000
00022000
00033000
00000000
,  // measure 16
00010000
00100000
10000000
01000000
,  // measure 17
10000000
00100000
00010000
00011000
,  // measure 18
00001000
00000100
00000001
00000010
,  // measure 19
00000001
00000100
00001000
00011000
,  // measure 20
00010000
00001000
00100000
01000000
00000000
10000000
00100000
00010000
,  // measure 21
00000000
00001000
00000100
00000001
00000000
00000010
00000100
00010000
,  // measure 22
00002000
00000000
01003000
00000000
00020000
00000000
00030100
00000100
,  // measure 23
00000000
00000100
00000010
00000001
00001000
00000100
00000010
00010000
,  // measure 24
00001000
00000010
00000001
00000100
,  // measure 25
00000001
00000010
00001000
00011000
,  // measure 26
00010000
01000000
10000000
00100000
,  // measure 27
10000000
01000000
00010000
00011000
,  // measure 28
00001000
00010000
00000010
00000100
00000000
00000001
00000010
00001000
,  // measure 29
00000000
00010000
01000000
10000000
00000000
01000000
00100000
00001000
,  // measure 30
00020000
00000000
00030100
00000000
00002000
00000000
01003000
01000000
,  // measure 31
00000000
01000000
00100000
10000000
00010000
00100000
01000000
10000000
,  // measure 32
00100000
00010000
00001000
00000100
,  // measure 33
00000001
00000010
00001000
00010000
,  // measure 34
01000000
10000000
00100000
00010000
,  // measure 35
00001000
00000100
00000001
00000010
,  // measure 36
00000100
00000010
00000100
00000110
00000000
00000001
00000100
00001000
,  // measure 37
00000000
00010000
00100000
10000000
00000000
01000000
00100000
01000000
,  // measure 38
01100000
00000000
00010000
00000000
00011000
00000000
00000100
00002000
,  // measure 39
00000000
00003100
00000010
00000002
00000000
00000103
00001000
00010000
,  // measure 40
00012000
00000000
00000000
00000000
,  // measure 41
00023000
00000000
00000000
00000000
00000000
00031000
00011000
00000000
,  // measure 42
00001000
00010000
01000000
10000000
00000000
00100000
00000000
00120000
,  // measure 43
00000000
00000000
00031000
00000000
00010000
00000000
00001000
00000100
,  // measure 44
00000000
00000001
00000010
00001000
00000000
01001000
00000000
00010100
,  // measure 45
00000000
00010000
00001000
00000200
00000000
00000000
00000301
00000000
,  // measure 46
00000001
00000010
00001000
00010000
00000000
00100000
00000000
20100000
,  // measure 47
00000000
00000000
31000000
00000000
10000000
00000000
00100000
00010000
,  // measure 48
00000000
00001000
00000000
00011000
00000000
00010000
00001000
00000100
,  // measure 49
00000001
00000010
00000100
00000010
00000000
00001000
00011000
00000000
,  // measure 50
00010000
00001000
00000100
00000001
00000000
00000010
00000000
00002010
,  // measure 51
00000000
00000000
00013000
00000000
00001000
00000000
00010000
01000000
,  // measure 52
00000000
10000000
00100000
00010000
00000000
00010100
00000000
01001000
,  // measure 53
00000000
00001000
00010000
02000000
00000000
00000000
13000000
00000000
,  // measure 54
10000000
00100000
00010000
00001000
00000000
00101000
00000000
00011000
,  // measure 55
00000000
00010010
00000000
00002010
00000000
00000000
00003100
00000100
,  // measure 56
00000010
00000001
00001000
00000100
00000010
00001000
00010000
01000000
,  // measure 57
00000000
10000000
10100000
00000000
00100000
00010000
00002000
00000000
,  // measure 58
00103000
00000000
00000000
00000000
01000000
00000000
00010000
00000000
00000000
00000000
00010000
00000000
00001000
00000000
00000000
00000000
00001000
00000000
00000010
00000000
00000000
00000200
00000000
00000000
,  // measure 59
00000000
00000000
00000310
00000000
00000001
00000000
00000100
00000000
00001000
00000000
00000000
00010000
00000000
00000000
00100000
00000000
,  // measure 60
20100000
00000000
00000000
00000000
30010000
00100000
01000000
00020000
,  // measure 61
00000000
00000000
00031000
00000020
00000000
00000000
00000130
00000010
,  // measure 62
00000001
00000000
00000100
00001000
00000000
00001000
00010000
00000000
00010000
01000000
00000000
10000000
,  // measure 63
00100000
00000000
00100000
00010000
00000000
00010000
00001000
00000000
00001000
00000100
00000000
00000001
,  // measure 64
00001000
00000000
00000000
00000010
00000000
00000000
00010000
00000000
00100000
00000000
00000000
00001000
00000000
00000000
00000100
00000000
,  // measure 65
00010000
01000000
10000000
00100000
00000000
01100000
01000000
00010000
,  // measure 66
00200000
00301000
00020000
00030010
,  // measure 67
00002000
00003100
00000020
00000031
,  // measure 68
00000200
00000000
00001300
00000000
00020000
00000000
01030000
01000000
,  // measure 69
00000000
00100000
10000000
01000000
00000000
01000000
00010000
00001000
,  // measure 70
00000010
00000001
00001000
00000100
00000000
00000110
00000000
00000011
,  // measure 71
00000000
00000101
00000000
00001100
00000000
00001000
00010000
01000000
,  // measure 72
00010000
00001000
00010000
01000000
10000000
00100000
01000000
00001000
,  // measure 73
00000000
00101000
00000000
00020020
00000000
00000000
00000000
00000000
,  // measure 74
00000000
00000000
00030030
00000000
00010000
00001000
00000100
00000010
,  // measure 75
00000001
00000000
00000000
00000000
00000000
00000000
00000000
00001000
,  // measure 76
00000000
00000000
00000000
00000000
00000000
00010000
00000000
00000000
,  // measure 77
10000000
00000000
00000000
00000000
00000000
00000000
00000000
01100000
,  // measure 78
00000000
00100000
10000000
01000000
00000000
01000000
00010000
00001000
,  // measure 79
00011000
00100000
01000000
00010000
,  // measure 80
00001000
00000010
00000100
00010000
,  // measure 81
00001000
00100000
01000000
10000000
,  // measure 82
00100000
00010000
00001000
00000100
00000000
00001000
00000100
00000001
,  // measure 83
00000010
00000100
00010000
00001000
00000000
00010000
00001000
00100000
,  // measure 84
01000000
10000000
00100000
00010000
00000000
00001000
00000000
00021000
,  // measure 85
00000000
00000000
00030010
00000000
00010000
00000000
00001000
00000100
,  // measure 86
00000000
00000001
00000010
00000100
00000000
00001100
00000000
00020100
,  // measure 87
00000000
00031000
00100000
02000000
00000000
00000000
13000000
00000000
,  // measure 88
00100000
00010000
00001000
00000100
00000000
00000011
00000000
00000110
,  // measure 89
00000000
00010100
00000000
02001000
00000000
00000000
03100000
00100000
,  // measure 90
00010000
00100000
10000000
01000000
00010000
01000000
10000000
00200000
,  // measure 91
00000000
00310000
00011000
00000000
00001000
00010000
00001000
01000000
,  // measure 92
00010000
00010000
00100000
00100000
,  // measure 93
00001000
00001000
00000010
00000010
,  // measure 94
00000001
00000100
00001000
00010000
,  // measure 95
00100000
10000000
01000000
00110000
,  // measure 96
00010000
01000000
00100000
10000000
00000000
10000000
01000000
00010000
,  // measure 97
00000000
00001000
00000010
00000001
00000000
00000001
00000100
00000010
,  // measure 98
00010000
00000100
00001000
00010000
00100000
00001000
01000000
00010000
,  // measure 99
00000000
00110000
00000000
11000000
00000000
20200000
30300000
00000000
,  // measure 100
00100000
00010000
00001000
00000100
00000000
00010000
00001000
00022000
,  // measure 101
00000000
00000000
00000000
00000000
,  // measure 102
00033000
00000000
00000000
00000000
;
