#TITLE:STORM;
#SUBTITLE:;
#ARTIST:Koyote;
#TITLETRANSLIT:;
#SUBTITLETRANSLIT:;
#ARTISTTRANSLIT:;
#GENRE:K-POP;
#CREDIT:MUINELIM;
#BANNER:STORM.png;
#BACKGROUND:STORM-bg.png;
#LYRICSPATH:;
#CDTITLE:;
#MUSIC:STORM.mp3;
#OFFSET:-0.216000;
#SAMPLESTART:15.331914;
#SAMPLELENGTH:12.086331;
#SELECTABLE:YES;
#BPMS:0.000000=139.000000
;
#STOPS:
;
#BGCHANGES:;
#KEYSOUNDS:;
#ATTACKS:;

//---------------dance-single - ----------------
#NOTES:
     dance-single:
     :
     Hard:
     11:
     0.514416,0.537330,0.362682,0.405858,0.107941,417.000000,375.000000,42.000000,47.000000,0.000000,0.000000,0.514416,0.537330,0.362682,0.405858,0.107941,417.000000,375.000000,42.000000,47.000000,0.000000,0.000000:
// measure 0
0000
0000
0000
0000
,  // measure 1
0000
0000
0000
0000
,  // measure 2
0000
0000
0000
0000
,  // measure 3
0000
0000
0000
0000
,  // measure 4
0000
0000
0000
0000
,  // measure 5
0000
1000
0000
0001
,  // measure 6
0000
1000
0100
0010
,  // measure 7
0001
0000
1000
0010
0100
0001
1000
0010
,  // measure 8
0100
0001
0000
1001
1001
0000
0010
0100
,  // measure 9
0010
0100
0001
0010
0100
1000
0010
0100
,  // measure 10
0001
1000
0200
0000
0320
0000
0031
0001
,  // measure 11
1000
1000
0001
0100
0010
1000
0001
0010
,  // measure 12
0100
1000
0020
0000
0230
0000
0301
0001
,  // measure 13
1000
1000
0100
0010
0001
0000
1000
0100
,  // measure 14
0010
0000
0001
0100
0010
0000
1000
0010
,  // measure 15
0100
0000
0001
0010
0100
1000
0010
0100
,  // measure 16
0001
1000
0000
1010
0101
0000
0001
0010
,  // measure 17
0100
0000
1000
0000
0010
0000
0100
0001
0000
0001
0100
0000
0010
0000
0000
0000
,  // measure 18
1000
0000
0100
0000
0010
0000
0001
0000
0100
0010
0100
0000
0101
0000
0000
0000
,  // measure 19
1010
0000
0000
0000
0010
0000
0000
1000
0000
0000
0100
0000
0220
0000
0330
0000
,  // measure 20
0000
0000
0010
0000
0001
0000
0010
0000
0100
1000
0000
0000
1001
0000
0000
0000
,  // measure 21
0110
0000
0000
0000
0100
0000
0001
0010
0000
0010
0001
0000
0100
0000
0000
0000
,  // measure 22
0010
0000
1000
0000
0001
0000
0010
0000
0100
0010
0100
0000
1100
0000
0000
0000
,  // measure 23
0011
0000
0000
0000
0010
0000
0000
0100
0000
0000
1000
0000
2002
0000
3003
0000
,  // measure 24
0000
0000
0001
0000
0010
0000
0100
0000
1000
0010
0000
0000
0110
0000
0000
0000
,  // measure 25
0101
0000
0000
0000
1010
0000
0000
0000
0000
0000
0010
0000
0100
0000
0000
0001
,  // measure 26
0000
0000
0010
0000
0022
0000
0033
0000
0000
0000
0001
0000
0100
0000
0000
0010
,  // measure 27
0000
0000
1000
0000
2200
0000
3300
0000
0000
0000
0100
0000
0010
0000
0000
0001
,  // measure 28
0000
0000
1000
0000
2020
0000
3030
0000
0000
0000
0010
0000
0100
0000
0000
0001
,  // measure 29
0000
0000
1000
0000
2002
0000
3003
0000
0000
0000
0001
0000
1000
0000
0000
0010
,  // measure 30
0000
0000
0100
0000
0202
0000
0303
0000
0000
0000
0001
0000
0010
0000
0000
0100
,  // measure 31
0000
0000
0010
0000
0220
0000
0330
0000
0000
0000
0100
0000
1000
0000
0000
0010
,  // measure 32
0000
0100
0101
0000
0010
0000
1010
0000
,  // measure 33
0100
0000
0220
0000
0000
0000
0330
0000
0000
0000
0010
0000
1000
0000
0000
0001
,  // measure 34
0000
0000
0100
0000
0220
0000
0330
0000
0010
0000
1000
0000
0100
0000
0000
0010
,  // measure 35
0000
0000
0001
0000
0202
0000
0303
0000
0100
0000
0001
0000
0010
0000
0000
0100
,  // measure 36
0000
0000
1000
0000
2020
0000
3030
0000
0010
0000
1000
0000
0001
0000
0000
0010
,  // measure 37
0000
0000
0100
0000
2200
0000
3300
0000
1000
0000
0010
0000
0100
0000
0000
0001
,  // measure 38
0000
0000
0010
0000
0022
0000
0033
0000
0001
0000
0100
0000
1000
0000
0000
0100
,  // measure 39
0000
0010
0220
0330
0100
0000
0001
0010
,  // measure 40
0100
1000
0010
0000
0001
0010
1000
0000
,  // measure 41
0100
0001
0100
1000
0100
0010
0001
1000
,  // measure 42
0100
0010
0001
0000
0201
0001
0000
0010
,  // measure 43
0000
1000
0000
0010
0000
0001
0000
0020
,  // measure 44
0330
0000
1001
0000
0002
0010
0000
1000
,  // measure 45
0000
0103
0101
0000
1010
0000
0010
0100
,  // measure 46
0001
1000
0100
0000
0020
1000
0000
0001
,  // measure 47
0000
0200
0000
0330
0000
1100
0000
0011
,  // measure 48
0000
0001
1000
0100
0010
0001
0100
0010
,  // measure 49
1000
0000
0001
0000
0000
0000
0101
0000
1010
0000
0000
0000
1000
0001
1000
0000
,  // measure 50
0001
1000
0001
0000
0100
0000
0010
0000
1000
0000
0001
0000
0010
0000
0100
0000
,  // measure 51
0001
0100
2000
0000
3002
0000
0013
0010
,  // measure 52
0100
0100
0010
0100
1000
0001
0100
0010
,  // measure 53
0001
0010
2000
0000
3002
0000
0103
0100
,  // measure 54
0010
0010
1000
0100
0010
0000
0100
0010
,  // measure 55
0001
0000
1000
0100
0001
0000
0001
0010
,  // measure 56
1000
0000
0100
0010
0001
1000
0100
0010
,  // measure 57
0001
0100
0000
0110
1001
0000
0001
0100
,  // measure 58
1000
0010
0001
0100
0001
0010
0001
0100
,  // measure 59
0001
0010
1000
0100
1000
0010
1000
0100
,  // measure 60
1000
0010
0001
0100
1000
0100
0001
0100
,  // measure 61
1000
0100
0001
0010
1000
0010
0001
0010
,  // measure 62
1000
0010
0002
0100
0103
0001
0010
1000
,  // measure 63
0010
0001
2000
0010
3010
1000
0100
0001
,  // measure 64
0100
1000
0020
0100
0130
0001
0020
0100
,  // measure 65
0130
1000
0000
1010
0011
0000
0000
0000
;

//---------------dance-double - ----------------
#NOTES:
     dance-double:
     :
     Hard:
     12:
     0.523051,0.509050,0.371317,0.025906,0.073400,424.000000,381.000000,43.000000,3.000000,0.000000,0.000000,0.523051,0.509050,0.371317,0.025906,0.073400,424.000000,381.000000,43.000000,3.000000,0.000000,0.000000:
00000000
00000000
00000000
00000000
,
00000000
00000000
00000000
00000000
,
00000000
00000000
00000000
00000000
,
00000000
00000000
00000000
00000000
,
00000000
00000000
00000000
00000000
,
00000000
00001000
00000000
00010000
,
00000000
00001000
00010000
00001000
,
00010000
00000000
00001000
00010000
00000010
00010000
00001000
00100000
,
00001000
00010000
00000000
00011000
00011000
00000000
00001000
00010000
,
00000100
00010000
00001000
00100000
00010000
01000000
00100000
10000000
,
01000000
00100000
00010000
00100000
00001000
00100000
00010000
00100000
,
01000000
10000000
00100000
00100000
01000000
00010000
01000000
00100000
,
10000000
00100000
01000000
00010000
01000000
00001000
01000000
00010000
,
01000000
01000000
00100000
10000000
01000000
00100000
00010000
01000000
,
00100000
00010000
00001000
00010000
00100000
01000000
00010000
00100000
,
01000000
10000000
00100000
01000000
00010000
01000000
00100000
10000000
,
00100000
01000000
00000000
01010000
00001000
00000000
00010000
00001000
,
00000100
00000000
00000001
00000000
00000010
00000000
00000000
00000100
00000000
00000000
00000010
00000000
00000110
00000000
00000000
00000000
,
00000001
00000100
00001000
00010000
01000000
10000000
10100000
00000000
,
01010000
00000000
00000000
00000000
00010000
00000000
00000000
10000000
00000000
00000000
00010000
00000000
10010000
00000000
00000000
00000000
,
00000000
10000000
01000000
00010000
00001000
00000000
01001000
00000000
,
00010100
00000000
00000000
00000000
00000100
00000000
00000000
00001000
00000000
00000000
00000001
00000000
00000011
00000000
00000000
00000000
,
00000010
00000100
00001000
00000100
00010000
00001000
00101000
00000000
,
00010010
00000000
00000000
00000000
00010000
00000000
00000000
00001000
00000000
00000000
00100000
00000000
00110000
00000000
00000000
00000000
,
00000000
00010000
00100000
01000000
10000000
00000000
11000000
00000000
,
00110000
00000000
00000000
00000000
00011000
00000000
00000000
00000000
00000000
00000000
00010000
00000000
00001000
00000000
00000000
00000100
,
00000000
00000000
00000001
00000000
00000011
00000000
00000000
00000000
00000000
00000000
00000010
00000000
00000100
00000000
00000000
00001000
,
00000000
00000000
00000100
00000000
00010100
00000000
00000000
00000000
00000000
00000000
00010000
00000000
00001000
00000000
00000000
00100000
,
00000000
00000000
00010000
00000000
01010000
00000000
00000000
00000000
00000000
00000000
01000000
00000000
00100000
00000000
00000000
10000000
,
00000000
00000000
00010000
00000000
00110000
00000000
00000000
00000000
00000000
00000000
00100000
00000000
01000000
00000000
00000000
10000000
,
00000000
00000000
00100000
00000000
01100000
00000000
00000000
00000000
00000000
00000000
01000000
00000000
00001000
00000000
00000000
00010000
,
00000000
00000000
00000100
00000000
00001100
00000000
00000000
00000000
00000000
00000000
00001000
00000000
00000010
00000000
00000000
00000100
,
00000000
00000001
00001001
00000000
00000100
00000000
00011000
00000000
,
00100000
00000000
02200000
00000000
00000000
00000000
03300000
00000000
00000000
00000000
10000000
00000000
00100000
00000000
00000000
00010000
,
00000000
00000000
00001000
00000000
00011000
00000000
00000000
00000000
00010000
00000000
00000100
00000000
00001000
00000000
00000000
00000001
,
00000000
00000000
00000100
00000000
00000110
00000000
00000000
00000000
00000010
00000000
00010000
00000000
00001000
00000000
00000000
00100000
,
00000000
00000000
00010000
00000000
10010000
00000000
00000000
00000000
10000000
00000000
00100000
00000000
01000000
00000000
00000000
00010000
,
00000000
00000000
00100000
00000000
01100000
00000000
00000000
00000000
01000000
00000000
00010000
00000000
00001000
00000000
00000000
00010000
,
00000000
00000000
00000100
00000000
00001100
00000000
00000000
00000000
00001000
00000000
00000010
00000000
00000001
00000000
00000000
00000010
,
00000000
00000100
00000101
00000000
00001000
00000000
00000010
00000100
,
00001000
00010000
00100000
00000000
00010000
00001000
00000010
00000000
,
00001000
00010000
01000000
10000000
01000000
00010000
01000000
10000000
,
01000000
00100000
00010000
00000000
01010000
00001000
00000000
00100000
,
00000000
01000000
00000000
00010000
00000000
00001000
00000000
00000010
,
00000000
00000000
00000011
00000000
00001100
00010000
00000000
01000000
,
00000000
10000000
10100000
00000000
01001000
00000000
00001000
00010000
,
00100000
00010000
00001000
00000000
00011000
00000100
00000000
00000010
,
00000000
00000002
00000000
00000003
00000000
00000101
00000000
00001100
,
00000000
00001000
00000010
00010000
00001000
00100000
00010000
01000000
,
00001000
00010000
00000000
00011000
00011000
00000000
00010000
00001000
,
01000000
00001000
00010000
00000010
00001000
00000100
00000010
00000001
,
00000100
00000010
00001000
00000010
00010000
00000010
00001000
00000010
,
00000100
00000001
00000010
00000010
00000100
00001000
00000100
00000010
,
00000001
00000010
00000100
00001000
00000100
00010000
00000100
00001000
,
00000100
00000100
00000010
00000001
00000100
00000010
00001000
00000100
,
00000010
00001000
00010000
00001000
00000010
00000100
00001000
00000010
,
00000100
00000001
00000010
00000100
00001000
00000100
00000010
00000001
,
00000010
00000100
00000000
00001100
00010000
00000000
00001000
00010000
,
00100000
10000000
01000000
00010000
00001000
00010000
01000000
00010000
,
00001000
00010000
00001000
00000100
00001000
00010000
00001000
00000100
,
00000001
00000010
00001000
00000010
00000001
00000010
00001000
00000010
,
00001000
00010000
01000000
10000000
01000000
00010000
01000000
10000000
,
01000000
10000000
00100000
00010000
00001000
00010000
00100000
10000000
,
01000000
00010000
00001000
00010000
00001000
00000100
00000001
00000010
,
00001000
00010000
00001000
00000010
00000001
00000100
00001000
00010000
,
00100000
10000000
00000000
10010000
00001000
00000000
00000000
00000000
;

//---------------dance-single - ----------------
#NOTES:
     dance-single:
     :
     Beginner:
     3:
     0.096222,0.141403,0.017271,0.000000,0.000000,78.000000,76.000000,2.000000,0.000000,0.000000,0.000000,0.096222,0.141403,0.017271,0.000000,0.000000,78.000000,76.000000,2.000000,0.000000,0.000000,0.000000:
0000
0000
0000
0000
,
0000
0000
0000
0000
,
0000
0000
0000
0000
,
0000
0000
0000
0000
,
0000
0000
0000
0000
,
0000
0000
0000
0000
,
0000
0000
0000
0000
,
0000
0000
0000
0000
,
0000
0000
0000
0000
,
0000
1000
0000
1000
,
0000
1000
0000
0000
,
0000
0001
0000
0001
,
0000
0001
0000
0000
,
0000
1000
0000
0000
,
0000
0001
0000
0000
,
0000
1001
0000
0000
,
0000
0000
0000
0000
,
0000
0100
0000
0000
,
0000
0010
0000
0000
,
0000
0100
0000
0000
,
0000
0010
0000
0000
,
0000
1000
0000
0000
,
0000
0001
0000
0000
,
0000
1000
0000
0000
,
0000
0001
0000
0000
,
0000
0000
0000
0000
,
0000
1000
0000
0000
,
0000
0100
0000
0000
,
0000
0010
0000
0000
,
0000
0001
0000
0000
,
0000
1000
0000
0000
,
0000
0100
0000
0000
,
0000
0010
0000
0000
,
0000
0001
0000
0000
,
0000
1000
0000
1000
,
0000
0010
0000
0010
,
0000
0100
0000
0100
,
0000
0001
0000
0001
,
0000
1000
0000
0010
,
0000
0100
0000
0001
,
0000
1000
0000
0001
,
0000
1000
0000
0000
,
0000
0001
0000
0000
,
0000
0010
0000
0000
,
0000
1000
0000
0000
,
0000
0100
0000
0000
,
0000
0001
0000
0001
,
0000
0001
0000
0000
,
0000
1000
0000
1000
,
0000
1000
0000
0000
,
0000
0010
0000
0010
,
0000
0010
0000
0000
,
0000
0100
0000
0100
,
0000
0100
0000
0000
,
0000
0010
0000
0000
,
0000
0100
0000
0000
,
0000
0010
0000
0000
,
0000
0110
0000
0000
,
0000
1000
0000
0100
,
0000
1000
0000
0100
,
0000
0010
0000
0001
,
0000
0010
0000
0001
,
0000
0100
0000
0010
,
0000
0100
0000
0010
,
0000
1000
0000
0001
,
0000
1000
1000
0000
;

//---------------dance-single - ----------------
#NOTES:
     dance-single:
     :
     Easy:
     5:
     0.214648,0.282805,0.138164,0.000000,0.000000,174.000000,158.000000,16.000000,0.000000,0.000000,0.000000,0.214648,0.282805,0.138164,0.000000,0.000000,174.000000,158.000000,16.000000,0.000000,0.000000,0.000000:
0000
0000
0000
0000
,
0000
0000
0000
0000
,
0000
0000
0000
0000
,
0000
0000
0000
0000
,
0000
0000
0000
0000
,
0000
0000
0000
0000
,
0000
0000
0000
0000
,
0000
0000
0000
0000
,
0000
0000
0000
1000
,
0001
1000
0100
0010
,
0001
1000
0000
0001
,
0000
1000
0100
0010
,
0001
1000
0000
0001
,
0000
1000
0010
1000
,
0000
0001
0100
0001
,
0000
1000
0010
0100
,
0001
0000
1001
0000
,
0000
1000
0100
1000
,
0000
1000
0100
1000
,
1000
0001
0010
0001
,
0000
0001
0010
0001
,
0001
1000
0010
1000
,
0000
1000
0010
1000
,
1000
0001
0100
0001
,
0000
0001
0100
0001
,
0001
0000
0000
0000
,
0000
1001
0000
0000
,
0000
1000
0000
0000
,
0000
1001
0000
0000
,
0000
0001
0000
0000
,
0000
1001
0000
0000
,
0000
1000
0000
0000
,
0000
1001
0000
0000
,
0001
0001
0000
0100
,
0010
0110
0000
0100
,
0000
0110
0000
0010
,
0000
0110
0000
0100
,
0000
0110
0000
0001
,
0000
1001
0000
1000
,
0000
1001
0000
0001
,
0000
1000
0000
0001
,
0000
0100
0010
0100
,
0100
0001
0010
0100
,
0000
1000
0010
0100
,
0000
0001
0010
0100
,
1000
0010
0100
0010
,
0100
0110
0000
1000
,
0001
1001
0000
1000
,
0010
0100
0001
1000
,
0000
0000
0110
0000
,
0000
0001
0100
0010
,
1000
0001
0000
1000
,
0000
0001
0100
0010
,
1000
0001
0000
1000
,
0000
0001
0010
0001
,
0000
1000
0100
1000
,
0000
0001
0010
0100
,
1000
0000
1001
0000
,
0000
0010
0100
0001
,
0100
0010
0100
0001
,
0001
0100
0010
1000
,
0010
0100
0010
1000
,
1000
0100
0010
0001
,
0100
0001
0010
0100
,
1000
0010
1000
0100
,
0010
0000
1001
0000
;

//---------------dance-double - ----------------
#NOTES:
     dance-double:
     :
     Easy:
     6:
     0.215882,0.282805,0.155435,0.000000,0.000000,175.000000,157.000000,18.000000,0.000000,0.000000,0.000000,0.215882,0.282805,0.155435,0.000000,0.000000,175.000000,157.000000,18.000000,0.000000,0.000000,0.000000:
00000000
00000000
00000000
00000000
,
00000000
00000000
00000000
00000000
,
00000000
00000000
00000000
00000000
,
00000000
00000000
00000000
00000000
,
00000000
00000000
00000000
00000000
,
00000000
00000000
00000000
00000000
,
00000000
00000000
00000000
00000000
,
00000000
00000000
00000000
00000000
,
00000000
00000000
00000000
00001000
,
00010000
00000010
00001000
00000010
,
00001000
00000010
00000000
00010000
,
00000000
00000100
00001000
00000100
,
00001000
00000100
00000000
00010000
,
00000000
00000010
00001000
00000010
,
00000000
00001000
00000100
00001000
,
00000000
00000010
00001000
00000100
,
00010000
00001000
00011000
00000000
,
00000000
00010000
00000000
01000000
,
00000000
10000000
00100000
00010000
,
00010000
00001000
00000000
00000010
,
00000000
00000001
00000100
00001000
,
00001000
00010000
00000000
00100000
,
00000000
10000000
01000000
00010000
,
00010000
00001000
00000000
00000100
,
00000000
00000001
00000010
00001000
,
00001000
00000000
00000000
00000000
,
00000000
00011000
00000000
00000000
,
00000000
00010000
00000000
00000000
,
00000000
00010010
00000000
00000000
,
00000000
00010000
00000000
00000000
,
00000000
00011000
00000000
00000000
,
00000000
00001000
00000000
00000000
,
00000000
00101000
00000000
00000000
,
00001000
00001000
00000000
00010000
,
00001000
00011000
00000000
00010000
,
00000000
00010100
00000000
00010000
,
00000000
00011000
00000000
00001000
,
00000000
01001000
00000000
00001000
,
00000000
00011000
00000000
00010000
,
00000000
00011000
00000000
00001000
,
00000000
00010000
00000000
00001000
,
00000000
00010000
01000000
10000000
,
10000000
00100000
00010000
00001000
,
00000000
00010000
00001000
00000010
,
00000000
00001000
00000010
00000100
,
00000010
00000001
00000100
00001000
,
00010000
00011000
00000000
00010000
,
00001000
00011000
00000000
00001000
,
00010000
00100000
10000000
01000000
,
00010000
00001000
00011000
00010000
,
00001000
00100000
00010000
00100000
,
00010000
00100000
00000000
00001000
,
00000000
01000000
00010000
01000000
,
00010000
01000000
00000000
00001000
,
00000000
00100000
00010000
00100000
,
00000000
00010000
01000000
00010000
,
00000000
00100000
00010000
01000000
,
00001000
00010000
00011000
00000000
,
00000000
00001000
00000100
00000001
,
00000100
00001000
00000000
00011000
,
00000000
00010000
00100000
10000000
,
00100000
00010000
00000000
00011000
,
00000000
00001000
00000010
00000001
,
00000010
00001000
00010000
01000000
,
10000000
01000000
00010000
00001000
,
00000100
00000001
00001001
00000000
;

//---------------dance-single - ----------------
#NOTES:
     dance-single:
     :
     Medium:
     8:
     0.377485,0.395928,0.319505,0.069082,0.000000,306.000000,269.000000,37.000000,8.000000,0.000000,0.000000,0.377485,0.395928,0.319505,0.069082,0.000000,306.000000,269.000000,37.000000,8.000000,0.000000,0.000000:
0000
0000
0000
0000
,
0000
0000
0000
0000
,
0000
0000
0000
0000
,
0000
0000
0000
0000
,
0000
0000
0000
0000
,
0000
1000
0000
0001
,
0000
1000
0001
1000
,
0001
0100
0010
1000
,
0001
0000
0000
0100
0100
0000
0110
0000
,
0110
0001
0010
0100
,
1000
0010
0100
0010
,
1001
1000
0100
0010
,
0001
0100
0010
0100
,
1001
0110
0010
1000
,
0100
0110
0010
0001
,
0100
0110
0010
1000
,
0001
0000
0000
0100
0100
0000
0010
0100
,
0010
0100
0001
0011
,
0010
0001
0100
0101
,
1010
0010
1000
1100
,
0100
1000
0010
1010
,
0101
0001
1000
1010
,
0010
1000
0001
0011
,
1100
1000
0001
0101
,
0100
0001
1000
1100
,
0011
0000
0000
0000
0000
0001
0001
0000
,
1000
0001
0100
0000
0001
0000
0100
0000
,
0001
1000
0010
0000
1000
0000
0010
0000
,
1000
0100
0010
0000
0001
0000
0010
0000
,
0001
0010
0100
0000
1000
0000
0100
0000
,
1000
0010
0100
0000
0010
0000
0100
0000
,
0001
0010
0100
0000
0010
0000
0100
0000
,
1000
0010
0200
0000
0001
0000
0001
0000
,
0301
0001
0000
0000
1000
0000
0010
0000
,
0100
0000
0110
0000
0010
0000
1000
0100
,
0010
0000
0110
0000
0100
0000
0010
0001
,
0100
0000
0110
0000
0010
0000
0100
0001
,
1000
0000
1001
0000
0100
0000
0010
1000
,
0001
0000
1001
0000
1000
0000
0001
0010
,
0100
0110
0001
1000
,
0100
0010
0100
0000
0010
0100
0010
0000
,
0001
1000
0001
1000
0001
0000
2000
0000
,
3002
0013
0100
1000
,
0001
0200
0010
1000
,
0301
1000
0010
0100
,
0001
0020
0100
1000
,
0031
1001
2000
3010
,
0001
1001
0002
0103
,
1000
1010
0101
0001
,
0010
0100
0000
0010
0100
0000
1001
0000
,
1001
1000
0010
0001
,
0010
1000
0100
0010
,
0011
0001
0100
1000
,
0100
0001
0010
0100
,
1100
1010
0010
0100
,
0001
0101
0100
0010
,
1000
0000
1001
0000
0001
0000
0010
0100
,
0010
0100
0000
1000
0002
0000
0000
0000
,
0003
0000
1000
0010
1000
0000
0100
0000
,
0010
0000
0001
0100
0001
0000
0010
0000
,
0100
0000
1000
0100
1000
0000
0010
0000
,
0100
0000
0001
0010
0001
0000
0100
0010
,
0100
0000
0010
1000
0100
0000
1000
0001
,
0010
0000
0001
1000
0100
0000
0010
0001
,
0100
0000
0001
0010
0100
0000
1000
0100
,
0010
0001
0000
0100
0110
0000
0000
0000
;

//---------------dance-double - ----------------
#NOTES:
     dance-double:
     :
     Medium:
     8:
     0.354046,0.395928,0.198611,0.069082,0.000000,287.000000,264.000000,23.000000,8.000000,0.000000,0.000000,0.354046,0.395928,0.198611,0.069082,0.000000,287.000000,264.000000,23.000000,8.000000,0.000000,0.000000:
00000000
00000000
00000000
00000000
,
00000000
00000000
00000000
00000000
,
00000000
00000000
00000000
00000000
,
00000000
00000000
00000000
00000000
,
00000000
00000000
00000000
00000000
,
00000000
00001000
00000000
00010000
,
00000000
00001000
00010000
00001000
,
00010000
00000100
00001000
00000001
,
00000010
00000000
00000000
00000100
00000100
00000000
00001001
00000000
,
00001001
00000001
00000100
00001000
,
00010000
00100000
10000000
00010000
,
10010000
10000000
00100000
00010000
,
00001000
00000100
00000001
00001000
,
00001001
00000110
00000100
00001000
,
00010000
00011000
00001000
00010000
,
00100000
01100000
10000000
00010000
,
01000000
00000000
00000000
00100000
00100000
00000000
01000000
00100000
,
01000000
00010000
00100000
10000000
,
00000000
10000000
00100000
01000000
,
00010000
00001000
00000100
00000001
,
00000000
00000001
00000100
00000010
,
00001000
00010000
01000000
10000000
,
00000000
10000000
01000000
00100000
,
00010000
00001000
00000010
00000001
,
00000000
00000001
00000010
00000100
,
00001000
00000000
00000000
00000000
00000000
00010000
00010000
00000000
,
01000000
00100000
01000000
00000000
00100000
00000000
10000000
00000000
,
01000000
00100000
01000000
00000000
00010000
00000000
00100000
00000000
,
00001000
00010000
00001000
00000000
00000100
00000000
00001000
00000000
,
00010000
00001000
00010000
00000000
01000000
00000000
00010000
00000000
,
00001000
00010000
00001000
00000000
00000100
00000000
00000001
00000000
,
00000010
00000100
00000010
00000000
00000001
00000000
00000100
00000000
,
00001000
00010000
00002000
00000000
00100000
00000000
00100000
00000000
,
00103000
00100000
00000000
00000000
00010000
00000000
01000000
00000000
,
00100000
00000000
10100000
00000000
10000000
00000000
01000000
00010000
,
00001000
00000000
00011000
00000000
00010000
00000000
00001000
00000100
,
00000001
00000000
00000011
00000000
00000010
00000000
00001000
00010000
,
00100000
00000000
10100000
00000000
10000000
00000000
01000000
00100000
,
00010000
00000000
00110000
00000000
00100000
00000000
00001000
00010000
,
00000100
00001100
00001000
00000001
,
00000100
00000010
00000100
00000000
00001000
00000000
00010000
00000000
,
00100000
01000000
00100000
01000000
00100000
00000000
20000000
00000000
,
30020000
01030000
00001000
00010000
,
00000100
00002000
00000010
00000001
,
00003100
00000100
00010000
00001000
,
00100000
00020000
01000000
10000000
,
00130000
01100000
02000000
03001000
,
00010000
00011000
00000020
00010030
,
00001000
00011000
00010000
01000000
,
10000000
00100000
00000000
01000000
00100000
00000000
00010000
00000000
,
00011000
00001000
00000100
00000001
,
00000010
00000001
00000100
00001000
,
00011000
00010000
00100000
10000000
,
01000000
10000000
00100000
00010000
,
00011000
01001000
00001000
00010000
,
00000010
00010010
00010000
00001000
,
00100000
00000000
00011000
00000000
00000100
00000000
00001000
00000010
,
00001000
00000010
00000000
00010000
00002000
00000000
00000000
00000000
,
00003000
00000000
00100000
00010000
00100000
00000000
00001000
00000000
,
00010000
00000000
00000100
00001000
00000100
00000000
00010000
00000000
,
00001000
00000000
01000000
00010000
01000000
00000000
00001000
00000000
,
00010000
00000000
00000010
00001000
00000010
00000000
00000100
00000001
,
00000100
00000000
00000001
00000010
00000001
00000000
00000010
00001000
,
00000010
00000000
00001000
00010000
00001000
00000000
00010000
01000000
,
00010000
00000000
01000000
10000000
01000000
00000000
10000000
00100000
,
01000000
00010000
00000000
00001000
00011000
00000000
00000000
00000000
;
