#VERSION:0.83;
#TITLE:Rollercoaster;
#SUBTITLE:;
#ARTIST:Chung Ha;
#TITLETRANSLIT:;
#SUBTITLETRANSLIT:;
#ARTISTTRANSLIT:;
#GENRE:K-POP;
#ORIGIN:;
#CREDIT:MUINELIM;
#BANNER:Rollercoaster.png;
#BACKGROUND:Rollercoaster-bg.png;
#PREVIEWVID:;
#JACKET:Rollercoaster-jacket.png;
#CDIMAGE:;
#DISCIMAGE:;
#LYRICSPATH:;
#CDTITLE:;
#MUSIC:Rollercoaster.ogg;
#OFFSET:-0.116000;
#SAMPLESTART:59.662460;
#SAMPLELENGTH:14.769226;
#SELECTABLE:YES;
#DISPLAYBPM:130.000000;
#BPMS:0.000=130.000;
#STOPS:;
#DELAYS:;
#WARPS:;
#TIMESIGNATURES:0.000=4=4;
#TICKCOUNTS:0.000=4;
#COMBOS:0.000=1;
#SPEEDS:0.000=1.000=0.000=0;
#SCROLLS:0.000=1.000;
#FAKES:;
#LABELS:0.000=Song Start;
#BGCHANGES:0.000=Rollercoaster-bg.png=1.000=0=0=1====#000000=#000000,
1.000=Rollercoaster.avi=1.000=1=0=0=StretchNoLoop==CrossFade==,
99999=-nosongbg-=1.000=0=0=0 // don't automatically add -songbackground-
;
#KEYSOUNDS:;
#ATTACKS:
;

//---------------dance-single - ----------------
#NOTEDATA:;
#CHARTNAME:;
#STEPSTYPE:dance-single;
#DESCRIPTION:;
#CHARTSTYLE:;
#DIFFICULTY:Beginner;
#METER:3;
#RADARVALUES:0.110290,0.161023,0.000000,0.000000,0.000000,105.000000,105.000000,0.000000,0.000000,0.000000,0.000000,0.000000,0.000000,0.000000,0.110290,0.161023,0.000000,0.000000,0.000000,105.000000,105.000000,0.000000,0.000000,0.000000,0.000000,0.000000,0.000000,0.000000;
#CREDIT:;
#DISPLAYBPM:130.000000;
#NOTES:
0000
0000
0000
0000
,
0000
0000
0000
0000
,
0000
0000
0000
0000
,
0000
0000
0000
0000
,
0000
1000
0000
1000
,
0000
1000
0000
0000
,
0000
0001
0000
0001
,
0000
0001
0000
0000
,
0000
1000
0000
0100
,
0000
0010
0000
0001
,
0000
0010
0000
0000
,
0000
0010
0000
0010
,
0000
0001
0000
0100
,
0000
0010
0000
1000
,
0000
0100
0000
0000
,
0000
0100
0000
0100
,
0100
0100
0000
1000
,
0000
0001
0000
0000
,
0000
0010
0000
0001
,
0000
1000
0000
0000
,
0000
0010
0000
1000
,
0000
0001
0000
0000
,
0000
0100
0000
0001
,
0000
1000
0000
0010
,
0010
0010
0000
0000
,
0000
0100
0000
0000
,
0000
0010
0000
0000
,
0000
0100
0000
0000
,
0000
0001
0000
0001
,
0000
1000
0000
1000
,
0000
0001
0001
0001
,
0001
0000
0000
0000
,
0000
1000
0000
0000
,
0000
0100
0000
0000
,
0000
0010
0000
0000
,
0000
0001
0000
0000
,
0000
1000
0000
0000
,
0000
0010
0000
0000
,
0000
0100
0000
0000
,
0000
0001
0000
0000
,
0000
1000
0000
1000
,
0000
1000
0000
0000
,
0000
0001
0000
0001
,
0000
0001
0000
0000
,
0000
0100
0000
0100
,
0000
0100
0000
0000
,
0000
0010
0000
0010
,
0000
0010
0000
0000
,
0000
1000
0000
0000
,
0000
0001
0000
0000
,
0000
1000
0000
0000
,
0000
0001
0000
0000
,
0000
0010
0000
0010
,
0000
0100
0000
0100
,
0000
0010
0000
0100
,
0000
0010
0010
0010
,
0000
0000
0000
0000
,
0000
0001
0000
0000
,
0000
0100
0000
0000
,
0000
1000
0000
0000
,
0000
0010
0000
0000
,
0000
0001
0000
0000
,
0000
0100
0000
0000
,
0000
1000
0000
0000
,
0000
0010
0000
0000
,
0000
0001
0000
0001
,
0000
1000
0000
1000
,
0000
0100
0000
0100
,
0000
0010
0000
0010
,
0000
0001
0000
0001
,
0000
0100
0000
0100
,
0000
0010
0000
0010
,
0000
1000
0000
1000
,
1000
0000
0000
0000
;

//---------------dance-single - ----------------
#NOTEDATA:;
#CHARTNAME:;
#STEPSTYPE:dance-single;
#DESCRIPTION:;
#CHARTSTYLE:;
#DIFFICULTY:Easy;
#METER:5;
#RADARVALUES:0.207976,0.268372,0.058821,0.014705,0.000000,198.000000,190.000000,8.000000,2.000000,0.000000,0.000000,0.000000,0.000000,0.000000,0.207976,0.268372,0.058821,0.014705,0.000000,198.000000,190.000000,8.000000,2.000000,0.000000,0.000000,0.000000,0.000000,0.000000;
#CREDIT:;
#DISPLAYBPM:130.000000;
#NOTES:
0000
0000
0000
0000
,
0000
0000
0000
0000
,
0000
0000
0000
0000
,
0000
0000
0000
0000
,
0000
1000
0000
0001
,
0000
1000
0000
0010
,
0010
0001
0000
1000
,
0000
0001
0000
0100
,
0100
1000
0000
0010
,
0000
0100
0000
0010
,
0000
1000
1000
0001
,
0000
1000
1000
0010
,
0100
0001
0000
0010
,
0000
0100
0000
0010
,
0000
0001
0001
1000
,
0000
0001
0001
0010
,
0100
1000
0001
1000
,
0001
1000
1000
1001
,
0000
0010
0100
0010
,
0100
0010
0010
0110
,
0000
1000
0100
1000
,
0100
0010
0010
0010
,
0000
0001
0100
0001
,
0100
0010
0010
0020
,
0030
1000
0000
0001
,
0000
0100
0000
0100
,
0000
1000
0000
0001
,
0000
0010
0000
0010
,
0000
1000
0100
0010
,
0010
0001
0010
0100
,
0100
1000
0001
1000
,
0001
1001
0000
0000
,
0000
1000
0010
0100
,
0000
1000
0010
0100
,
0000
1000
0010
0100
,
0010
0010
0000
1000
,
1001
0001
0010
0100
,
0000
0001
0010
0100
,
0000
0001
0010
0100
,
0100
0100
0000
1000
,
0001
1001
1000
0010
,
0100
0010
0000
1000
,
0000
0001
0100
0010
,
0100
0001
0000
1000
,
0000
1001
0001
0010
,
0100
0010
0000
0001
,
0000
1000
0100
0010
,
0100
1000
0000
0001
,
0000
0100
0000
0000
,
0000
0100
0000
0000
,
0000
0010
0000
0000
,
0000
0010
0000
0000
,
0000
1000
0000
0001
,
0000
1000
0000
0001
,
0000
1000
1000
1000
,
0000
0001
0001
0001
,
0000
0000
0000
0000
,
0000
1000
0000
0010
,
0000
0100
0000
0001
,
0000
0010
0000
0100
,
0000
1000
0000
0001
,
0000
0100
0000
0010
,
0000
1000
0000
0100
,
0000
0010
0000
0001
,
0000
1000
0000
0010
,
0010
0100
0001
0100
,
1000
0100
0100
0000
,
0110
0010
1000
0010
,
0001
0010
0010
0100
,
0000
0010
1000
0100
,
0001
0100
1000
0000
,
0010
0100
0001
0010
,
1000
0020
0000
0031
,
1001
0000
0000
0000
;

//---------------dance-single - ----------------
#NOTEDATA:;
#CHARTNAME:;
#STEPSTYPE:dance-single;
#DESCRIPTION:;
#CHARTSTYLE:;
#DIFFICULTY:Medium;
#METER:7;
#RADARVALUES:0.300409,0.375721,0.095585,0.095585,0.000000,286.000000,273.000000,13.000000,13.000000,0.000000,0.000000,0.000000,0.000000,0.000000,0.300409,0.375721,0.095585,0.095585,0.000000,286.000000,273.000000,13.000000,13.000000,0.000000,0.000000,0.000000,0.000000,0.000000;
#CREDIT:;
#DISPLAYBPM:130.000000;
#NOTES:
0000
0000
0000
0000
,
0000
0000
0000
0000
,
0000
0000
0000
0000
,
0000
0000
0000
0000
,
0000
1000
0010
0100
,
0001
1000
0010
0110
,
0110
0001
0100
0010
,
1000
0001
0100
0220
,
0330
0010
1000
0001
,
0100
0010
0000
0100
0000
0010
0100
0000
,
0001
0000
1000
0010
0000
0100
0001
0000
,
0100
0000
0001
0100
0000
0010
1000
0010
,
1000
0100
0010
0001
,
0100
0010
0000
0100
0000
0010
0000
0000
,
1000
0100
1000
0100
0000
0000
1000
0000
,
0001
0010
0001
0010
0000
0000
0001
1000
,
0001
1000
0010
0100
,
0001
0010
0100
1001
,
1001
0001
0100
0010
,
1000
0100
0010
0001
,
0100
0010
0100
0000
0001
0000
1000
0000
,
0010
0100
0010
0000
1000
0000
0001
0000
,
1000
0010
1000
0010
0000
0100
0010
0000
,
0100
0001
0100
0000
0010
0000
0200
0000
,
0320
1030
0000
0100
,
0000
0001
0000
0010
,
0000
0001
0000
0100
,
0000
1000
0000
0010
,
0000
0100
0100
0010
,
0010
1000
0001
1000
,
0001
0000
0100
0010
0100
0000
0010
0100
,
0010
0100
0220
0000
0000
0000
0000
0000
,
0330
0001
1000
0100
,
1100
1000
0001
0010
,
0011
0001
1000
0010
,
0100
0001
0000
1000
0010
0000
0100
0000
,
0010
1000
0001
0100
,
0101
0001
1000
0010
,
1010
1000
0001
0010
,
0100
1000
0000
0001
0010
0000
0100
0010
,
0100
0010
0100
0000
1000
0000
0010
0000
,
0100
0001
0020
0000
,
0031
0001
0100
0010
,
1000
0100
0010
0001
,
1001
0100
0001
0010
,
0100
1000
0020
0000
,
1030
1000
0100
0010
,
0001
0200
0000
0000
,
0300
0001
0000
0010
,
0000
1000
0000
0100
,
0000
1000
0000
0010
,
0000
0001
0000
0100
,
0000
0010
0010
0100
,
0100
0010
1000
0001
,
0100
0000
0010
1000
0010
0000
0100
0001
,
0100
0000
0010
0100
0010
2000
0000
0000
,
0000
3001
0000
0000
,
0000
0001
0100
0010
,
1000
0100
0001
0100
,
1000
0010
0100
0001
,
0010
1000
0010
0001
,
0100
0000
0010
1000
0001
0000
0100
0000
,
0010
0000
0100
0001
1000
0000
0100
0000
,
0010
0000
0001
0100
0010
0000
1000
0010
,
0100
0000
0001
0010
0100
1000
0001
0010
,
0100
1000
0010
0100
,
0001
1000
0200
0000
,
0310
0010
0001
1000
,
0010
0100
0001
0010
,
0110
0001
0100
0010
,
1000
0001
0020
0000
,
0130
1000
0010
0100
,
0001
2000
0000
3010
,
0101
0000
0000
0000
;

//---------------dance-single - ----------------
#NOTEDATA:;
#CHARTNAME:;
#STEPSTYPE:dance-single;
#DESCRIPTION:;
#CHARTSTYLE:;
#DIFFICULTY:Hard;
#METER:12;
#RADARVALUES:0.494730,0.511654,0.345576,0.169111,0.088232,471.000000,424.000000,47.000000,23.000000,0.000000,0.000000,0.000000,0.000000,0.000000,0.494730,0.511654,0.345576,0.169111,0.088232,471.000000,424.000000,47.000000,23.000000,0.000000,0.000000,0.000000,0.000000,0.000000;
#CREDIT:;
#DISPLAYBPM:130.000000;
#NOTES:
0000
0000
0000
0000
,
0000
0000
0000
0000
,
0000
0000
0000
0000
,
0000
0000
0000
0000
,
0000
0000
0000
0000
1000
0000
0000
1000
0000
0000
1000
0000
0001
0000
0000
0001
,
0000
0000
0001
0000
0100
0000
0000
0100
0000
0000
0100
0000
0101
0000
0000
0000
,
1010
0000
0000
0000
0010
0000
0000
0010
0000
0000
0010
0000
0100
0000
0000
0100
,
0000
0000
0100
0000
0001
0000
0000
0001
0000
0000
0001
0000
0010
0000
0010
0000
,
0100
0100
1000
0000
0001
0000
0100
0000
,
0010
1000
0000
0110
0000
0001
0100
0000
,
0010
0100
0110
0110
0000
0001
1000
0000
,
0100
0000
0010
0000
0110
0000
0000
0000
0011
0000
0000
1100
0000
0000
1000
0000
,
0001
0100
0010
0000
0100
0000
0001
0000
,
1000
0100
0000
1001
0000
0010
0000
0001
,
0100
0010
1010
1010
0000
1000
0100
0000
,
0010
0000
0011
0011
0000
0001
0100
0010
,
2002
3003
1000
0010
0100
0001
0010
0100
,
1000
0001
1000
0000
0010
0000
0100
0000
0001
0000
0000
0000
0101
0000
0000
0000
,
1010
0000
0010
0100
0001
0010
0100
1000
,
0010
0100
0010
0000
1000
0000
0100
0000
0010
0000
0000
0001
0000
0000
1000
0000
,
1100
0000
0100
1000
0010
0100
0001
0010
,
0100
1000
0010
0100
0001
0000
1000
0100
,
0010
0001
0101
0101
0000
0100
0010
0000
,
1000
0100
1100
1100
0000
1000
0010
0100
,
0001
0000
0010
0000
0100
0000
0000
1000
0000
0000
0010
0000
0100
0000
0001
0000
,
1000
0000
0100
0000
0010
0000
0000
0001
0000
0000
2000
0000
0000
0000
0000
0000
,
0000
0000
3010
0000
0100
0000
0000
0001
0000
0000
1000
0000
0100
0000
0010
0000
,
0001
0000
1000
0000
0010
0000
0000
0100
0000
0000
0002
0000
0000
0000
0000
0000
,
0000
0000
1003
0000
0010
0000
0000
0100
0000
0000
0001
0000
0010
0000
0100
0000
,
1000
0000
0001
0000
0100
0000
0000
0010
0000
0000
0220
0000
0000
0000
0330
0000
,
0000
0010
1000
0001
0010
0100
1000
0001
,
0100
0010
0220
0000
0030
0000
1000
0000
,
0301
0000
0001
0010
0100
1000
1010
0000
,
0011
0000
0001
0010
0100
1000
1010
0000
,
0011
0000
0101
0100
0010
1000
0200
0000
,
0310
0002
0000
0103
0010
1000
1001
0000
,
0110
0000
1000
0010
0100
0001
0011
0000
,
1010
0000
1000
0010
0100
0001
0011
0000
,
1010
0000
1100
0100
0010
0001
0200
0000
,
0310
0000
1000
0000
0001
0000
0010
0000
0100
0000
1000
0000
0010
0100
0010
0000
,
0110
0000
0100
1000
0100
0001
0100
0000
,
0010
0001
0010
1000
0010
0000
0100
0001
,
1000
0010
0100
0001
0100
1000
0100
0000
,
0010
0001
0010
1000
0010
0000
0100
0001
,
0010
0100
1000
0010
0001
0010
1000
0000
,
0001
0100
1000
0100
0001
0000
0010
0100
,
0010
0001
0100
1000
0001
0010
1000
0000
,
0100
0010
2002
0000
0000
0000
0000
0000
,
3003
0010
0000
1000
,
0000
0100
0000
0001
,
0010
0200
0000
0310
0200
0000
0301
0000
,
0100
0020
0000
0130
0020
0000
1030
0000
,
1001
0010
1010
0100
,
0101
0010
0011
0100
,
1100
0000
0001
0010
0100
1000
0010
0100
,
0001
0000
1000
0000
0100
0010
0100
0010
0100
0010
0200
0000
0000
0000
0000
0000
,
0000
0310
0000
2002
,
3003
0000
0001
0100
1000
0100
0001
0010
,
0100
0000
1000
0010
0001
0010
1000
0100
,
0010
0000
0001
0100
1000
0001
0010
0100
,
0010
0000
1000
0100
0001
1000
0010
0100
,
0010
0000
0001
0100
1000
0100
0001
0010
,
0100
0001
0100
1000
0100
0010
0001
1000
,
0010
0001
0010
1000
0100
0010
1000
0010
,
0001
0000
0010
0000
0100
0000
0100
0000
1000
0000
1000
0000
0001
0100
0001
0100
,
0002
0000
1003
0010
0100
1000
0100
0000
,
0001
0100
0010
0001
0010
0000
0110
0000
,
1000
0100
1000
0000
0010
0000
0001
0000
0010
0000
0100
0000
0001
0000
0000
0000
,
0100
1000
0100
0010
1000
0001
0101
0000
,
1010
0000
1000
0100
0001
0100
0010
0000
,
0001
0010
1000
0010
0100
0000
1001
0000
,
0001
0100
0001
0000
0010
0000
0100
0000
0001
0000
0100
0000
1000
0000
0000
0000
,
0100
0010
1000
0010
0001
1000
0200
0000
,
0020
0330
0000
0000
;

//---------------dance-double - ----------------
#NOTEDATA:;
#CHARTNAME:;
#STEPSTYPE:dance-double;
#DESCRIPTION:;
#CHARTSTYLE:;
#DIFFICULTY:Hard;
#METER:12;
#RADARVALUES:0.464269,0.511654,0.169111,0.235285,0.084556,442.000000,419.000000,23.000000,32.000000,0.000000,0.000000,0.000000,0.000000,0.000000,0.464269,0.511654,0.169111,0.235285,0.084556,442.000000,419.000000,23.000000,32.000000,0.000000,0.000000,0.000000,0.000000,0.000000;
#CREDIT:;
#DISPLAYBPM:130.000000;
#NOTES:
00000000
00000000
00000000
00000000
,
00000000
00000000
00000000
00000000
,
00000000
00000000
00000000
00000000
,
00000000
00000000
00000000
00000000
,
00000000
00000000
00000000
00000000
01000000
00000000
00000000
00001000
00000000
00000000
00010000
00000000
00000010
00000000
00000000
00010000
,
00000000
00000000
00001000
00000000
00100000
00000000
00000000
00001000
00000000
00000000
00010000
00000000
00011000
00000000
00000000
00000000
,
00011000
00000000
00000000
00000000
00000100
00000000
00000000
00010000
00000000
00000000
00001000
00000000
00100000
00000000
00000000
00001000
,
00000000
00000000
00010000
00000000
00000010
00000000
00000000
00010000
00000000
00000000
00001000
00000000
00100000
00000000
01000000
00000000
,
10000000
00100000
00010000
00000000
00001000
00000000
00000100
00000000
,
00000001
00000010
00000000
00000110
00000000
00001000
00000100
00000000
,
00000010
00000001
00000100
00001000
00000000
00001000
00010000
00000000
,
01000000
00000000
10000000
00000000
00100000
00000000
00000000
00000000
01100000
00000000
00000000
10010000
00000000
00000000
00010000
00000000
,
00100000
01000000
00010000
00000000
00001000
00000000
00000010
00000000
,
00000001
00000100
00000000
00000110
00000000
00001000
00000000
00000010
,
00010000
00001000
00100000
01000000
00000000
10000000
00100000
00000000
,
00010000
00000000
00001000
00010000
00000000
00000100
00000010
00000001
,
00002002
00003003
00001000
00000010
00010000
00001000
00000100
00000001
,
00000010
00000100
00000010
00000000
00001000
00000000
00010000
00000000
01000000
00000000
00000000
00000000
11000000
00000000
00000000
00000000
,
00110000
00000000
00100000
01000000
10000000
00100000
00010000
00001000
,
00000010
00000100
00000010
00000000
00000001
00000000
00000100
00000000
00001000
00000000
00000000
00010000
00000000
00000000
00001000
00000000
,
00011000
00000000
00010000
00100000
10000000
01000000
00100000
00010000
,
01000000
00100000
00010000
00001000
00000100
00000000
00000001
00000010
,
00000100
00001000
00000010
00010000
00000000
00100000
00001000
00000000
,
00000100
00010000
01000000
00100000
00000000
00110000
00010000
10000000
,
01000000
00000000
00100000
00000000
00010000
00000000
00000000
01000000
00000000
00000000
00001000
00000000
00010000
00000000
00000100
00000000
,
00001000
00000000
00000100
00000000
00000010
00000000
00000000
00000001
00000000
00000000
00002000
00000000
00000000
00000000
00000000
00000000
,
00000000
00000000
00003010
00000000
00010000
00000000
00000000
00001000
00000000
00000000
00100000
00000000
01000000
00000000
10000000
00000000
,
00100000
00000000
00010000
00000000
00001000
00000000
00000000
00100000
00000000
00000000
02000000
00000000
00000000
00000000
00000000
00000000
,
00000000
00000000
03010000
00000000
00001000
00000000
00000000
00000010
00000000
00000000
00000001
00000000
00001000
00000000
00000100
00000000
,
00000010
00000000
00000001
00000000
00000100
00000000
00000000
00001000
00000000
00000000
00022000
00000000
00000000
00000000
00033000
00000000
,
00000000
00010000
00100000
10000000
01000000
00100000
00010000
01000000
,
00001000
00010000
00022000
00000000
00033000
00000000
01001000
00000000
,
00010010
00000000
00010000
00001000
00000100
00000001
00000010
00000100
,
00000010
00000000
00001000
00010000
01000000
10000000
00100000
01000000
,
00100000
00000000
00010000
00001000
00000010
00001000
00010000
00100000
,
00010000
00001000
00000010
00000001
00000100
00001000
00010000
00000000
,
00011000
00000000
00001000
00100000
01000000
00010000
01000000
10000000
,
00100000
00000000
00010000
00000100
00000010
00001000
00000010
00000001
,
00000100
00000000
00001000
00010000
00100000
00010000
00001000
00000010
,
00001000
00000000
00010000
00000000
00100000
00000000
10000000
00000000
01000000
00000000
00100000
00000000
00001000
00010000
00001000
00010000
,
00001000
00000010
00000002
00000000
00000000
00001003
00000020
00000000
,
00000130
00000002
00000000
00000000
00000000
00000000
00000013
00001000
,
00010000
00100000
20000000
00000000
00000000
32000000
00000000
03100000
,
00010000
02000000
00000000
03100000
00020000
00000000
00031000
00100000
,
01000000
10000000
00200000
00000000
00000000
00310000
00002000
00000000
,
00003010
00000002
00000000
00000000
00000000
00000000
00000103
00000010
,
00001000
00000100
00000020
00000000
00000000
00002030
00000000
00000000
,
00013000
01000000
20020000
00000000
00000000
00000000
00000000
00000000
,
30030000
10000000
00000000
00010000
,
00000000
00001000
00000000
00000001
,
00000100
00000020
00000000
00001030
00000200
00000000
00000310
00000000
,
00001000
00020000
00000000
00130000
20000000
00000000
31000000
00000000
,
10010000
00100000
01000000
00010000
,
00001000
00000010
00000100
00010000
,
00001000
00000000
00100000
01000000
10000000
00100000
00010000
00001000
,
00000100
00000000
00000001
00000000
00000010
00000100
00000010
00000100
00000010
00000100
00000020
00000000
00000000
00000000
00000000
00000000
,
00000000
00000130
00000000
00002002
,
00003003
00000000
00000001
00000100
00001000
00010000
00000010
00000100
,
00000001
00000010
00001000
00010000
00000010
00000100
00001000
00010000
,
00100000
10000000
10000000
01000000
00010000
00001000
00100000
01000000
,
10000000
00100000
00010000
00001000
00100000
01000000
00010000
00001000
,
00000010
00000001
00000100
00001000
00010000
01000000
00010000
00001000
,
00000100
00001000
00010000
01000000
10000000
00100000
01000000
00001000
,
00100000
01000000
00010000
00001000
00000100
00001000
00010000
00100000
,
00010000
00000000
00001000
00000000
00000010
00000000
00000001
00000000
00000100
00000000
00001000
00000000
00010000
00001000
00010000
00001000
,
00020000
00000000
00031000
00010000
00100000
01000000
00100000
00000000
,
00010000
00001000
00000100
00000010
00000100
00000000
00001001
00000000
,
00000001
00000100
00001000
00010000
01000000
00100000
01000000
00000000
,
00010000
00001000
00000010
00000100
00000010
00000001
00000101
00000000
,
00001010
00000000
00000001
00000010
00000100
00001000
00010000
00000000
,
00001000
00010000
00100000
01000000
10000000
00000000
10010000
00000000
,
00100000
01000000
10000000
00100000
01000000
00010000
00001000
00000000
,
00010000
00001000
00000010
00000100
00000001
00001000
00000200
00000000
,
00000020
00000330
00000000
00000000
;

//---------------dance-double - ----------------
#NOTEDATA:;
#CHARTNAME:;
#STEPSTYPE:dance-double;
#DESCRIPTION:;
#CHARTSTYLE:;
#DIFFICULTY:Easy;
#METER:5;
#RADARVALUES:0.194321,0.268372,0.051469,0.029411,0.000000,185.000000,178.000000,7.000000,4.000000,0.000000,0.000000,0.000000,0.000000,0.000000,0.194321,0.268372,0.051469,0.029411,0.000000,185.000000,178.000000,7.000000,4.000000,0.000000,0.000000,0.000000,0.000000,0.000000;
#CREDIT:;
#DISPLAYBPM:130.000000;
#NOTES:
00000000
00000000
00000000
00000000
,
00000000
00000000
00000000
00000000
,
00000000
00000000
00000000
00000000
,
00000000
00000000
00000000
00000000
,
00000000
00001000
00000000
00010000
,
00000000
00001000
00000000
00100000
,
01000000
00010000
00000000
00001000
,
00000000
00010000
00000000
00000100
,
00000010
00001000
00000000
00010000
,
00000000
01000000
00000000
10000000
,
00000000
00100000
00100000
01000000
,
00000000
00100000
00100000
00010000
,
00000000
00001000
00000000
00000100
,
00000000
00000001
00000000
00000010
,
00000000
00000100
00000100
00000010
,
00000000
00000100
00000100
00001000
,
00000000
00000001
00000100
00001000
,
00010000
00100000
10000000
10010000
,
00000000
10000000
01000000
00010000
,
00001000
00000010
00000001
00001001
,
00000000
00001000
00000010
00010000
,
00001000
01000000
00010000
00100000
,
00000000
00010000
01000000
00001000
,
00010000
00000100
00001000
00000020
,
00000030
00000100
00000000
00000001
,
00000000
00000010
00000000
00001000
,
00000000
00010000
00000000
01000000
,
00000000
10000000
00000000
00100000
,
00000000
01000000
00010000
00100000
,
00000000
01000000
00010000
00001000
,
00000000
00010000
00001000
00000010
,
00000001
00001001
00000000
00000000
,
00000000
00001000
00000010
00000100
,
00000000
00000010
00001000
00000100
,
00000000
00001000
00000010
00000100
,
00001000
00010000
00000000
00100000
,
01100000
00010000
01000000
00100000
,
00000000
01000000
00010000
00100000
,
00000000
00010000
01000000
00100000
,
00010000
00001000
00000000
00000100
,
00000110
00000001
00000000
00000100
,
00000000
00001000
00000000
00010000
,
00000000
00100000
00000000
10000000
,
00000000
01000000
00000000
00100000
,
00000000
00010000
00000000
00001000
,
00000000
00000100
00000000
00000010
,
00000000
00000001
00000000
00000100
,
00000000
00001000
00000000
00022000
,
00033000
01000000
00000000
00000000
,
00000000
00001000
00000000
00000000
,
00000000
00010000
00000000
00000000
,
00000000
00000010
00000000
00000000
,
00000000
00010000
00000000
00001000
,
00000000
00010000
00000000
00001000
,
00000000
00010000
00010000
00010000
,
00000000
00001000
00001000
00001000
,
00000000
00000000
00000000
00000000
,
00000000
00010000
00000000
00001000
,
00000000
00000010
00000000
00001000
,
00000000
00010000
00000000
00100000
,
00000000
00010000
00000000
00001000
,
00000000
00000100
00000000
00001000
,
00000000
00010000
00000000
01000000
,
00000000
00010000
00000000
00001000
,
00000000
00000010
00000000
00000001
,
00000001
00000100
00001000
00010000
,
00100000
10000000
01000000
00000000
,
10000000
10000000
01000000
00010000
,
00001000
00000010
00000001
00000100
,
00000000
00001000
00010000
00100000
,
01000000
00100000
10000000
00000000
,
01000000
00010000
00001000
00000010
,
00000001
00000200
00000000
00000310
,
00000110
00000000
00000000
00000000
;

//---------------dance-double - ----------------
#NOTEDATA:;
#CHARTNAME:;
#STEPSTYPE:dance-double;
#DESCRIPTION:;
#CHARTSTYLE:;
#DIFFICULTY:Medium;
#METER:8;
#RADARVALUES:0.298308,0.375721,0.102937,0.088232,0.000000,284.000000,270.000000,14.000000,12.000000,0.000000,0.000000,0.000000,0.000000,0.000000,0.298308,0.375721,0.102937,0.088232,0.000000,284.000000,270.000000,14.000000,12.000000,0.000000,0.000000,0.000000,0.000000,0.000000;
#CREDIT:;
#DISPLAYBPM:130.000000;
#NOTES:
// measure 0
00000000
00000000
00000000
00000000
,  // measure 1
00000000
00000000
00000000
00000000
,  // measure 2
00000000
00000000
00000000
00000000
,  // measure 3
00000000
00000000
00000000
00000000
,  // measure 4
00000000
00001000
00010000
00000100
,  // measure 5
00001000
00000010
00010000
00001000
,  // measure 6
00011000
00010000
00001000
00100000
,  // measure 7
00010000
01000000
00001000
00022000
,  // measure 8
00033000
00010000
00000100
00001000
,  // measure 9
00000001
00000100
00000000
00000010
00000000
00000100
00000001
00000000
,  // measure 10
00001000
00000000
00000010
00010000
00000000
00001000
01000000
00000000
,  // measure 11
00100000
00000000
10000000
01000000
00000000
00100000
00010000
00100000
,  // measure 12
00001000
01000000
00010000
00100000
,  // measure 13
01000000
10000000
00000000
00100000
00000000
10000000
00000000
00000000
,  // measure 14
01000000
00100000
01000000
00010000
00000000
00000000
00001000
00000000
,  // measure 15
00000010
00000100
00000010
00000001
00000000
00000000
00000100
00001000
,  // measure 16
00010000
01000000
10000000
00100000
,  // measure 17
01000000
00010000
00100000
00001000
,  // measure 18
00011000
00010000
00000100
00001000
,  // measure 19
00000010
00000100
00000001
00001000
,  // measure 20
00000100
00000010
00000100
00000000
00010000
00000000
00001000
00000000
,  // measure 21
00100000
01000000
00100000
00000000
00010000
00000000
10000000
00000000
,  // measure 22
00100000
01000000
00100000
01000000
00000000
00001000
00010000
00000000
,  // measure 23
00000010
00000100
00000010
00000000
00001000
00000000
00000100
00000000
,  // measure 24
00000010
00000011
00000000
00001000
,  // measure 25
00000000
00010000
00000000
00100000
,  // measure 26
00000000
10100000
00000000
00010000
,  // measure 27
00000000
00001000
00000000
00000100
,  // measure 28
00000000
00000001
00000010
00001000
,  // measure 29
00010000
01000000
10000000
00100000
,  // measure 30
00010000
00000000
00001000
00010000
00001000
00000000
00010000
00001000
,  // measure 31
00010000
00001000
00022000
00000000
00000000
00000000
00000000
00000000
,  // measure 32
00033000
00010000
00001000
00000010
,  // measure 33
00000011
00001000
00000100
00000010
,  // measure 34
00000011
00000001
00000100
00001000
,  // measure 35
00010000
00001000
00000000
00001000
00010000
00000000
01000000
00000000
,  // measure 36
00010000
00001000
00010000
00100000
,  // measure 37
10100000
00010000
01000000
00100000
,  // measure 38
10100000
10000000
01000000
00010000
,  // measure 39
00001000
00010000
00000000
00010000
00001000
00000000
00000100
00000010
,  // measure 40
00000100
00000001
00000010
00000100
,  // measure 41
00001000
00010000
02000000
00000000
,  // measure 42
03100000
00100000
10000000
00010000
,  // measure 43
00100000
01000000
10000000
00010000
,  // measure 44
10010000
10000000
00100000
01000000
,  // measure 45
00010000
00001000
00000200
00000000
,  // measure 46
00000310
00000010
00000001
00000100
,  // measure 47
00001000
00022000
00000000
00000000
,  // measure 48
00033000
00010000
00000000
00100000
,  // measure 49
00000000
10000000
00000000
01000000
,  // measure 50
00000000
00010000
00000000
00001000
,  // measure 51
00000000
00000010
00000000
00000001
,  // measure 52
00000000
00000100
00001000
00010000
,  // measure 53
00001000
00000010
00001000
00010000
,  // measure 54
00100000
10000000
01000000
00100000
,  // measure 55
00001000
00000000
00010000
00000100
00010000
00002000
00000000
00000000
,  // measure 56
00000000
01003000
00000000
00000000
,  // measure 57
00000000
01000000
00100000
00010000
,  // measure 58
00001000
00100000
01000000
00010000
,  // measure 59
00001000
00000010
00000100
00001000
,  // measure 60
00000010
00000001
00001000
00000100
,  // measure 61
00000010
00000000
00010000
00001000
00010000
00000000
00100000
00000000
,  // measure 62
01000000
00000000
00001000
00010000
00001000
00000000
00000100
00000000
,  // measure 63
00000001
00000000
00000010
00001000
00010000
00000000
00001000
00010000
,  // measure 64
00100000
00000000
10000000
01000000
00100000
01000000
00100000
00010000
,  // measure 65
01000000
00100000
00010000
00001000
,  // measure 66
00000100
00000010
00002000
00000000
,  // measure 67
00003001
00000001
00000100
00001000
,  // measure 68
00000010
00000001
00000100
00001000
,  // measure 69
00000110
00000100
00001000
00010000
,  // measure 70
00100000
01000000
00020000
00000000
,  // measure 71
10030000
00100000
00010000
01000000
,  // measure 72
10000000
00200000
00000000
00310000
,  // measure 73
00011000
00000000
00000000
00000000
;
