#VERSION:0.83;
#TITLE:RHYTHM TA;
#SUBTITLE:;
#ARTIST:iKON;
#TITLETRANSLIT:;
#SUBTITLETRANSLIT:;
#ARTISTTRANSLIT:;
#GENRE:K-POP;
#ORIGIN:;
#CREDIT:MUINELIM;
#BANNER:Rhythm Ta.png;
#BACKGROUND:Rhythm Ta-bg.png;
#PREVIEWVID:;
#JACKET:Rhythm Ta-jacket.png;
#CDIMAGE:;
#DISCIMAGE:;
#LYRICSPATH:;
#CDTITLE:;
#MUSIC:Rhythm Ta.mp3;
#OFFSET:0.000000;
#SAMPLESTART:55.220001;
#SAMPLELENGTH:11.879997;
#SELECTABLE:YES;
#BPMS:0.000=82.000,
72.000=41.000,
74.000=82.000,
122.000=41.000,
123.000=82.000;
#STOPS:;
#DELAYS:;
#WARPS:;
#TIMESIGNATURES:0.000=4=4;
#TICKCOUNTS:0.000=4;
#COMBOS:0.000=1;
#SPEEDS:0.000=1.000=0.000=0;
#SCROLLS:0.000=1.000;
#FAKES:;
#LABELS:0.000=Song Start;
#BGCHANGES:-10000.000=black.mpg=1.000=1=0=1===CrossFade==,
-0.300=1546.avi=1.000=0=0=0=StretchNoLoop====,
0.000=Rhythm Ta.avi=1.000=1=0=0=StretchNoLoop==CrossFade==,
99999=-nosongbg-=1.000=0=0=0 // don't automatically add -songbackground-
;
#KEYSOUNDS:;
#ATTACKS:
;

//---------------dance-single - ----------------
#NOTEDATA:;
#CHARTNAME:;
#STEPSTYPE:dance-single;
#DESCRIPTION:;
#CHARTSTYLE:;
#DIFFICULTY:Beginner;
#METER:1;
#RADARVALUES:0.055627,0.098043,0.074170,0.000000,0.000000,42.000000,34.000000,8.000000,0.000000,0.000000,0.000000,0.000000,0.000000,0.000000,0.055627,0.098043,0.074170,0.000000,0.000000,42.000000,34.000000,8.000000,0.000000,0.000000,0.000000,0.000000,0.000000,0.000000;
#CREDIT:MILEN;
#NOTES:
0000
0000
0000
0000
,
0000
0000
0000
0000
,
0000
0000
0000
0000
,
1000
0000
0000
0000
,
0001
0000
0000
0000
,
1000
0000
0000
0000
,
0001
0000
0000
0000
,
1000
0000
0000
0000
,
1000
0000
0000
0000
,
0001
0000
0000
0000
,
0001
0000
0000
0000
,
1000
0000
0000
0000
,
0001
0000
0000
0000
,
1000
0000
0000
0000
,
0001
0000
0000
0000
,
1000
0000
0000
0000
,
0001
0000
0000
0000
,
1000
0000
0000
0000
,
0001
0000
1001
0000
,
0000
0000
1001
0000
,
0000
0000
1000
0000
,
0000
0000
0001
0000
,
0000
0000
1001
0000
,
0000
0000
1001
0000
,
0000
0000
1000
0000
,
0000
0000
0001
0000
,
0000
0000
1000
0000
,
0000
0000
1000
0000
,
0000
0000
0001
0000
,
0000
0000
0001
0000
,
0000
0000
1001
0000
,
0000
1001
0000
0000
,
0000
1001
0000
0000
,
0000
1000
0000
0000
,
0000
0001
0000
0000
,
0000
1001
0000
0000
;

//---------------dance-single - ----------------
#NOTEDATA:;
#CHARTNAME:;
#STEPSTYPE:dance-single;
#DESCRIPTION:;
#CHARTSTYLE:;
#DIFFICULTY:Easy;
#METER:4;
#RADARVALUES:0.148339,0.163405,0.083441,0.037085,0.000000,112.000000,103.000000,9.000000,4.000000,0.000000,0.000000,0.000000,0.000000,0.000000,0.148339,0.163405,0.083441,0.037085,0.000000,112.000000,103.000000,9.000000,4.000000,0.000000,0.000000,0.000000,0.000000,0.000000;
#CREDIT:MILEN;
#NOTES:
0000
0000
0000
0000
,
0000
0000
0000
0000
,
0000
0000
0000
0000
,
1000
0001
1000
1000
,
0001
1000
0001
0001
,
1000
0001
1000
1000
,
0001
1000
0001
1001
,
0010
0000
0100
0010
,
0100
0000
0010
0100
,
0010
0000
0100
0010
,
0110
0000
0000
0000
,
0001
1000
0001
1000
,
0010
0100
0010
0100
,
0001
0000
1000
0000
,
0001
1000
0001
1001
,
1000
0001
1000
0001
,
0100
0010
0100
0010
,
1000
0000
0001
0000
,
1001
0000
0110
0000
,
0010
0100
0010
0000
,
0100
0010
0100
0001
,
1000
0010
0100
0001
,
1000
0000
2002
0000
,
3003
0000
2002
0000
,
3003
0000
0010
0010
,
0010
0000
0100
0100
,
0100
0000
0001
1000
,
0001
1000
0100
0010
,
0100
0010
0001
0001
,
0001
0000
1000
1000
,
1000
0000
1001
0000
,
0000
0010
0100
0001
,
1000
0010
0100
0001
,
1000
0100
0010
0001
,
1000
0100
0010
0001
,
0000
1001
0000
0000
;

//---------------dance-double - ----------------
#NOTEDATA:;
#CHARTNAME:;
#STEPSTYPE:dance-double;
#DESCRIPTION:;
#CHARTSTYLE:;
#DIFFICULTY:Easy;
#METER:4;
#RADARVALUES:0.135095,0.163405,0.083441,0.037085,0.000000,102.000000,93.000000,9.000000,4.000000,0.000000,0.000000,0.000000,0.000000,0.000000,0.135095,0.163405,0.083441,0.037085,0.000000,102.000000,93.000000,9.000000,4.000000,0.000000,0.000000,0.000000,0.000000,0.000000;
#CREDIT:MILEN;
#NOTES:
00000000
00000000
00000000
00000000
,
00000000
00000000
00000000
00000000
,
00000000
00000000
00000000
00000000
,
00001000
00010000
00000010
00000000
,
00010000
00001000
01000000
00000000
,
00001000
00010000
00000100
00000000
,
00010000
00001000
00100000
01100000
,
10000000
00000000
00100000
00010000
,
00001000
00000000
00010000
00001000
,
00000010
00000000
00000100
00000010
,
00000110
00000000
00000000
00000000
,
00000001
00001000
00000001
00001000
,
00000010
00000100
00000010
00000100
,
00001000
00000000
00010000
00000000
,
00100000
01000000
00100000
01100000
,
10000000
00010000
10000000
00010000
,
01000000
00100000
01000000
00100000
,
00010000
00000000
00001000
00000000
,
00011000
00000000
00011000
00000000
,
00010000
00000100
00010000
00000000
,
00001000
01000000
00001000
00010000
,
00100000
00010000
00001000
00000010
,
00001000
00000000
00022000
00000000
,
00033000
00000000
00022000
00000000
,
00033000
00000000
01000000
00000000
,
01000000
00000000
00000100
00000000
,
00000100
00000000
00010000
00001000
,
00010000
00001000
00100000
01000000
,
00100000
01000000
00100000
00000000
,
00100000
00000000
00000010
00000000
,
00000010
00000000
00000110
00000000
,
00000000
00000001
00000100
00001000
,
00000000
00000100
00001000
00010000
,
00000000
00001000
00010000
01000000
,
00000000
00010000
01000000
10000000
,
00000000
10010000
00000000
00000000
;

//---------------dance-single - ----------------
#NOTEDATA:;
#CHARTNAME:;
#STEPSTYPE:dance-single;
#DESCRIPTION:;
#CHARTSTYLE:;
#DIFFICULTY:Medium;
#METER:7;
#RADARVALUES:0.237078,0.261448,0.148339,0.046356,0.000000,179.000000,163.000000,16.000000,5.000000,0.000000,0.000000,0.000000,0.000000,0.000000,0.237078,0.261448,0.148339,0.046356,0.000000,179.000000,163.000000,16.000000,5.000000,0.000000,0.000000,0.000000,0.000000,0.000000;
#CREDIT:MILEN;
#NOTES:
0000
0000
0000
0000
,
0000
0000
0000
0000
,
1000
0000
0001
0000
1000
0001
1000
0000
,
0010
0000
0010
0000
0010
1000
0100
0000
,
0100
0000
0100
0000
0100
0001
0010
0000
,
0010
0000
0010
0000
0010
1000
0100
0000
,
0100
0001
0010
0100
1000
0000
0001
0000
,
1001
0000
1000
0010
1000
0010
1000
0000
,
0001
0000
1000
0000
0001
0010
0001
0000
,
0101
0000
1100
0000
1000
0010
0100
0000
,
0001
1000
0001
1000
0100
0010
0100
0000
,
0001
0011
1000
1010
,
0001
0101
1000
1100
,
0001
0000
1001
0000
0010
0100
0010
0000
,
1000
0000
1001
0000
0100
0010
0100
0000
,
0001
0000
0010
0000
1000
0100
0010
0000
,
1000
0000
0100
0000
0001
0010
0100
0000
,
0010
1000
0001
0100
,
0110
0000
0001
0001
,
0001
0100
1000
0000
1000
0000
1000
0000
,
1000
0010
0001
0000
0001
0100
0010
1000
,
0001
0100
0010
0000
1000
0010
0100
0001
,
1000
0001
2002
0000
,
0000
3003
0220
0000
,
0000
0000
0330
0000
0010
1000
0010
1000
,
0010
0000
0000
0000
0100
0001
0100
0001
,
0100
0000
0001
0010
,
1000
0100
0001
0010
,
1000
0000
0100
0000
0001
0010
0001
0010
,
0001
0000
0000
0000
1000
0100
1000
0100
,
1000
0000
1001
0000
,
0000
0000
1000
0010
0100
0001
1000
0000
,
1100
0000
0001
0100
0010
1000
0001
0000
,
0011
0000
1000
0100
0010
0001
1000
0100
,
0010
0000
0001
0010
0100
1000
0020
0000
,
0130
0010
0110
0000
0000
0000
0000
0000
;

//---------------dance-double - ----------------
#NOTEDATA:;
#CHARTNAME:;
#STEPSTYPE:dance-double;
#DESCRIPTION:;
#CHARTSTYLE:;
#DIFFICULTY:Medium;
#METER:7;
#RADARVALUES:0.230455,0.261448,0.129797,0.046356,0.000000,174.000000,160.000000,14.000000,5.000000,0.000000,0.000000,0.000000,0.000000,0.000000,0.230455,0.261448,0.129797,0.046356,0.000000,174.000000,160.000000,14.000000,5.000000,0.000000,0.000000,0.000000,0.000000,0.000000;
#CREDIT:MILEN;
#NOTES:
00000000
00000000
00000000
00000000
,
00000000
00000000
00000000
00000000
,
00001000
00000000
00010000
00000000
00001000
00010000
00001000
00000000
,
00100000
00000000
00100000
00000000
00100000
00001000
00010000
00000000
,
00000010
00000000
00000010
00000000
00000010
00010000
00001000
00000000
,
01000000
00000000
01000000
00000000
01000000
00001000
00010000
00000000
,
00000100
00010000
00001000
00000100
00000010
00000000
00000100
00000000
,
00000110
00000000
00000001
00000100
00001000
00000000
00011000
00000000
,
00010000
00100000
10000000
00000000
01000000
00100000
01000000
00000000
,
00010000
00000000
00001000
00000000
00000010
00000100
00000010
00000000
,
00000001
00000100
00001000
00000000
00010000
00100000
10000000
00000000
,
01000000
01100000
00010000
00011000
,
00000100
00000110
00001000
00011000
,
00100000
00000000
01100000
00000000
10000000
00100000
00010000
00000000
,
00001000
00000000
00000100
00000000
00000001
00000010
00001000
00000000
,
00010000
00000000
00100000
00000000
10000000
01000000
00100000
00000000
,
00001000
00000000
00010000
00000000
00000100
00000010
00000001
00000000
,
00000100
00001000
00010000
00001000
,
00011000
00000000
00000010
00000010
,
00000010
00010000
00001000
00000000
00100000
00000000
00100000
00000000
,
00100000
00001000
00010000
00000000
00000100
00001000
00000010
00010000
,
00001000
00100000
00010000
00000000
01000000
00001000
00010000
00000100
,
00001000
00000001
00002002
00000000
,
00000000
00003003
00000220
00000000
,
00000000
00000000
00000330
00000000
00000010
00010000
00001000
00100000
,
00010000
00000000
00000000
00000000
01000000
00001000
00010000
00000100
,
00001000
00000000
00000010
00010000
,
00100000
00001000
00000100
00010000
,
01000000
00000000
00001000
00000000
00000100
00010000
00001000
00100000
,
00010000
00000000
00000000
00000000
00100000
00001000
00010000
00000100
,
00001000
00000000
00001001
00000000
,
00000000
00000000
00000001
00000010
00001000
00000000
00010000
00000000
,
01010000
00000000
10000000
00100000
00010000
00000000
00001000
00000000
,
00001100
00000000
00000001
00000010
00000100
00001000
00000010
00000100
,
00001000
00000000
00010000
00100000
01000000
00010000
00200000
00000000
,
01300000
10000000
10010000
00000000
00000000
00000000
00000000
00000000
;

//---------------dance-single - ----------------
#NOTEDATA:;
#CHARTNAME:;
#STEPSTYPE:dance-single;
#DESCRIPTION:;
#CHARTSTYLE:;
#DIFFICULTY:Hard;
#METER:10;
#RADARVALUES:0.393363,0.424852,0.203966,0.083441,0.254958,297.000000,275.000000,22.000000,9.000000,0.000000,0.000000,0.000000,0.000000,0.000000,0.393363,0.424852,0.203966,0.083441,0.254958,297.000000,275.000000,22.000000,9.000000,0.000000,0.000000,0.000000,0.000000,0.000000;
#CREDIT:MILEN;
#NOTES:
0000
0000
0000
0000
,
0000
0000
0000
0000
,
1000
1000
0001
0001
0100
0010
1001
0000
,
0110
0000
0010
1000
0010
0000
1000
0000
0100
0000
0010
0000
0001
0000
0000
0000
,
0110
0000
0100
0001
0100
0000
0001
0000
0010
0000
0100
0000
1000
0000
0000
0000
,
0110
0000
0010
1000
0010
0000
1000
0000
0100
0000
0010
0000
0001
0000
0000
0000
,
0100
0001
0100
0001
0100
0000
0010
0000
1010
0000
0000
0000
0101
0000
0000
0001
,
1000
0000
0000
0000
0100
0000
1000
0000
0100
0000
0010
0001
0010
0000
0000
0000
,
0001
0000
0100
0000
0010
0000
1000
0000
0001
0000
0010
0000
0100
0010
0000
0000
,
0100
1000
0000
0000
0001
0010
0000
0000
0100
0010
0001
1000
0100
0000
0100
0000
,
2002
0000
0000
0000
0000
0000
3003
0000
0000
0000
0010
0100
0010
0000
0110
0000
,
1000
0100
0010
1000
0010
0001
0010
1000
,
0010
0001
0100
1000
0100
0001
0100
1000
,
0100
0001
0010
0100
1000
0010
0110
0000
,
0010
1000
0100
0010
0001
0100
0110
0000
,
1001
0000
0001
0010
0001
0000
0100
0000
1000
0000
0100
0000
0001
0000
1000
0000
,
0000
0000
1000
0100
1000
0000
0010
0000
0001
0000
0010
0000
1000
0000
0100
0000
,
0001
0001
0010
0010
1000
1000
0100
0100
,
0220
0000
0000
0000
0000
0000
0330
0000
1001
0000
0001
0010
0100
0000
1000
0000
,
0010
0000
0100
0000
0001
0000
0000
0000
1001
0000
1000
0100
0010
0000
0001
0000
,
0100
0000
0010
0000
1000
0000
0000
0000
0001
0100
0010
0000
1000
0010
0100
0000
,
0001
0000
1000
0000
0100
0010
0000
0000
0100
1000
0010
0000
0100
0001
0010
0000
,
0110
0000
1000
0010
0022
0000
0000
0000
,
0033
0000
0000
0001
0100
0000
1000
0000
2020
0000
0000
0000
0000
0000
0000
0000
,
3030
0000
0000
0010
0100
0000
0010
0000
1000
0100
1000
0100
1000
0100
1000
0100
,
1000
0000
0000
1000
0010
0000
0100
0000
0001
0010
0001
0010
0001
0010
0001
0010
,
0001
0000
0100
0010
1000
0010
0001
0010
,
1000
0000
0000
0100
0010
0000
0100
0000
1000
0000
0100
0000
0001
0000
0100
0000
,
1000
0000
0000
0010
0100
0000
0010
0000
1000
0100
1000
0100
0010
0001
0010
0001
,
0100
0000
0000
0010
1000
0000
0001
0000
0010
0100
0010
0100
1000
0001
1000
0001
,
0200
0000
0000
0000
0310
0000
1000
0010
,
0001
0000
0100
0000
1001
0000
1000
0010
0100
0000
1000
0000
0100
0000
0001
0000
,
0011
0000
0000
0000
1001
0000
0001
0100
0010
0000
0001
0000
0010
0000
1000
0000
,
1100
0000
0000
0000
0100
0010
0001
0000
0100
0010
1000
0000
0100
0010
0001
1000
,
0100
0010
0000
0000
0001
0100
0010
1000
0001
0010
0100
1000
0010
0000
0001
0000
,
0100
1000
1001
0000
0000
0000
0000
0000
;

//---------------dance-double - ----------------
#NOTEDATA:;
#CHARTNAME:;
#STEPSTYPE:dance-double;
#DESCRIPTION:;
#CHARTSTYLE:;
#DIFFICULTY:Hard;
#METER:11;
#RADARVALUES:0.369523,0.408512,0.139068,0.064898,0.194695,279.000000,264.000000,15.000000,7.000000,0.000000,0.000000,0.000000,0.000000,0.000000,0.369523,0.408512,0.139068,0.064898,0.194695,279.000000,264.000000,15.000000,7.000000,0.000000,0.000000,0.000000,0.000000,0.000000;
#CREDIT:MILEN;
#NOTES:
00000000
00000000
00000000
00000000
,
00000000
00000000
00000000
00000000
,
10000000
01000000
00010000
00001000
00000010
00000001
00001001
00000000
,
00000110
00000000
00000010
00000100
00000010
00000000
00001000
00000000
00010000
00000000
01000000
00000000
00100000
00000000
00000000
00000000
,
01100000
00000000
01000000
00100000
01000000
00000000
00010000
00000000
00001000
00000000
00000010
00000000
00000100
00000000
00000000
00000000
,
00000110
00000000
00000010
00000100
00000010
00000000
00001000
00000000
00010000
00000000
01000000
00000000
00100000
00000000
00000000
00000000
,
01000000
10000000
01000000
00000000
00010000
00000000
00001000
00000000
00000010
00000000
00000000
00000000
00000011
00000000
00000000
00000001
,
00000100
00000000
00000000
00000000
00001000
00000000
00010000
00000000
00100000
00000000
10000000
01000000
10000000
00000000
00000000
00000000
,
01000000
00000000
00010000
00000000
00001000
00000000
00010000
00000000
00001000
00000000
00000100
00000000
00000001
00000010
00000000
00000000
,
00000010
00001000
00000000
00000000
00001000
00010000
00000000
00000000
00010000
01000000
00010000
00000000
01000000
00000000
10000000
00000000
,
20020000
00000000
00000000
00000000
00000000
00000000
30030000
00000000
00000000
00000000
00100000
01000000
00100000
00000000
01100000
00000000
,
10000000
01000000
00100000
00010000
00001000
00010000
00001000
00000100
,
00000010
00000001
00000100
00000010
00001000
00010000
00001000
00010000
,
01000000
00100000
10000000
01000000
00010000
00001000
00000010
00000000
,
00000100
00000010
00000001
00000100
00001000
00010000
01000000
00000000
,
10010000
00000000
10000000
00100000
10000000
00000000
01000000
00000000
00010000
00000000
00001000
00000000
00000010
00000000
00000001
00000000
,
00000000
00000000
00000100
00000001
00000100
00000000
00001000
00000000
00010000
00000000
00100000
00000000
10000000
00000000
01000000
00000000
,
00100000
01000000
00010000
00001000
00010000
00000010
00000100
00000010
,
00002002
00000000
00000000
00000000
00000000
00000000
00003003
00000000
00001001
00000000
00000001
00000100
00001000
00000000
00010000
00000000
,
00100000
00000000
10000000
00000000
00010000
00000000
00000000
00000000
10010000
00000000
10000000
01000000
00010000
00000000
00001000
00000000
,
00000010
00000000
00000001
00000000
00001000
00000000
00000000
00000000
00000001
00000010
00000001
00000000
00001000
00000010
00001000
00000000
,
00000100
00000000
00010000
00000000
01000000
10000000
00000000
00000000
00100000
10000000
00100000
00000000
01000000
00010000
01000000
00000000
,
00001000
00000000
00010000
00001000
00000020
00000000
00000000
00000000
,
00000030
00000000
00000000
00000010
00001000
00000000
00010000
00000000
00200000
00000000
00000000
00000000
00000000
00000000
00000000
00000000
,
00300000
00000000
00000000
00100000
00010000
00000000
00001000
00000000
00000100
00000001
00000100
00000000
00000010
00001000
00000010
00000000
,
00010000
00000000
00000000
00001000
00100000
00000000
00010000
00000000
10000000
01000000
10000000
00000000
00010000
01000000
00010000
00000000
,
00100000
00000000
01000000
10000000
00100000
00010000
00001000
00100000
,
01000000
00010000
00001000
00000010
00000100
00001000
00000010
00000001
,
00001000
00000000
00000100
00000000
00000010
00000000
00001000
00000000
00000001
00000100
00001000
00000000
00000100
00001000
00010000
00000000
,
01000000
00000000
00000000
10000000
00100000
00000000
01100000
00000000
10000000
01000000
00010000
00000000
01000000
00010000
00001000
00000000
,
00000020
00000000
00000000
00000000
00000130
00000000
00000001
00000100
,
00001000
00000000
00010000
00000000
00011000
00000000
00001000
00100000
00010000
00000000
01000000
00000000
10000000
00000000
00010000
00000000
,
00100000
00000000
00000000
00000000
00011000
00000000
00010000
00000010
00001000
00000000
00000100
00000000
00000001
00000000
00001000
00000000
,
00000010
00000000
00000000
00000000
00000100
00000010
00000001
00000000
00001000
00000100
00000010
00000000
00001000
00010000
00001000
00010000
,
00001000
00100000
00000000
00000000
01000000
10000000
00100000
00000000
01000000
00100000
00010000
00001000
00000100
00000000
00000001
00000000
,
00000010
00001000
00011000
00000000
00000000
00000000
00000000
00000000
;

//---------------dance-single - ----------------
#NOTEDATA:;
#CHARTNAME:;
#STEPSTYPE:dance-single;
#DESCRIPTION:;
#CHARTSTYLE:;
#DIFFICULTY:Challenge;
#METER:16;
#RADARVALUES:0.674148,0.806362,0.899306,0.092712,0.760238,509.000000,412.000000,97.000000,10.000000,0.000000,0.000000,0.000000,0.000000,0.000000,0.674148,0.806362,0.899306,0.092712,0.760238,509.000000,412.000000,97.000000,10.000000,0.000000,0.000000,0.000000,0.000000,0.000000;
#CREDIT:MILEN;
#NOTES:
0000
0000
0000
0000
,
0000
0000
0000
0000
,
1000
0000
0100
0000
0010
0000
0001
0000
1000
0000
0010
0000
0100
0000
0001
0000
0010
0000
0100
0000
1000
0000
0001
0000
0100
0000
0000
0110
0000
0000
0000
0000
,
1001
0000
0001
0100
1000
0000
0010
0000
1000
0100
0010
0100
0001
0000
0110
0000
,
0000
0000
1000
0010
0001
0000
0100
0000
0001
0010
0100
0010
1000
0000
0110
0000
,
0000
0000
0001
0010
1000
0000
0100
0000
1000
0010
0100
0010
0001
0000
0110
0000
,
1000
0100
0001
0010
0001
0100
0010
0100
1000
0000
0001
0000
1001
0000
0000
0010
,
0200
0000
0000
0000
0301
0010
0100
0001
0100
1000
0100
0010
0011
0000
0000
0000
,
1000
0100
0010
1000
0010
0001
0010
0100
1000
0010
0100
0001
1000
1100
0000
0000
,
0001
0010
0001
0000
0000
0000
0000
0000
1000
0010
1000
0010
1000
0000
0000
0000
0001
0000
0100
0000
1000
0000
0100
0000
0010
0100
0000
0000
0001
0000
1000
0000
,
0110
0100
0001
0010
1000
0001
0100
1000
0010
0001
1000
0100
0001
0000
0010
0100
,
0110
0000
0000
1000
0010
0000
0000
0010
0100
0000
0000
0100
0001
0000
0000
0001
0010
0000
0000
0010
1000
0000
0000
1000
0100
0000
0000
0100
0001
0000
0000
0000
,
1001
0000
0000
0000
0110
0000
0000
0001
0010
0000
0000
0010
0100
0000
0000
0100
1000
0000
0000
1000
0010
0000
0000
0010
0001
0000
0000
0001
0100
0000
0000
0100
,
1000
0000
1001
0001
0100
1000
0001
0010
1000
0000
0100
0000
0010
0000
0110
0000
,
1001
1000
0010
0001
1000
0100
0001
0010
0100
0000
0010
0000
0011
0000
1100
0000
,
1001
0000
0000
0001
0100
0000
0000
0100
1000
0000
0000
1000
0001
0000
0000
0001
0010
0000
0000
0010
1000
0000
0000
1000
0100
0000
0000
0000
0220
0000
0000
0000
,
0330
0000
0000
0000
1001
0000
0000
1000
0010
0000
0000
0010
0001
0000
0000
0001
1000
0000
0000
1000
0100
0000
0000
0100
0001
0000
0000
0001
0010
0000
0000
0010
,
0100
0000
1000
0000
0010
0000
0001
0000
1000
0000
0100
0000
0001
0000
0010
0000
0100
0000
0001
0000
1000
0000
0010
0000
0100
0000
1000
0000
0010
0100
0010
0100
,
0002
0000
0000
0000
1003
0010
0110
0100
0001
0000
0010
1000
0001
0000
1100
0000
,
1000
0010
0100
0001
1100
0000
0101
0000
1000
0000
0100
0001
1000
0000
0011
0000
,
0001
0100
0010
1000
0011
0000
1010
0000
0001
0010
0100
0001
0100
0010
0001
0100
,
1000
0000
0001
0000
0010
0000
1000
0000
0100
0000
0000
0110
0000
0000
0000
0000
1000
0000
0010
0000
0100
0000
1000
0000
0001
0000
0010
0000
0100
0000
0001
0000
,
0011
0000
0000
1000
0100
0000
0001
0000
0011
0000
0010
0100
1000
0000
0010
0000
,
0220
0330
0000
0001
0010
0000
1000
0000
1100
0000
0100
0010
0001
0000
0100
0000
,
0220
0330
0000
0001
1000
0000
0110
0000
1010
0010
0110
0100
0101
0001
0011
0100
,
1100
0000
0000
1000
0001
0000
0110
0000
0101
0100
0110
0010
1010
1000
1100
0010
,
0011
0000
0000
0001
0100
0000
0010
0000
1010
0000
1100
0000
0101
0000
0011
0000
,
1100
1010
0011
0101
1010
1100
0101
0011
,
1100
0000
1010
0000
0011
0000
0101
0000
0110
1000
1010
0001
0011
1000
1100
0001
,
0101
0000
0000
0100
0010
0000
0110
0000
1001
0010
0011
0100
1100
0001
0101
1000
,
1010
0000
0000
0000
0001
0000
0010
0000
1000
0000
0100
0000
0001
0000
0010
0000
2000
0000
0000
0000
0000
0000
0000
0000
3100
0000
0000
0010
0001
0000
0000
0100
,
1000
0000
1010
0000
0101
0000
0001
0010
1100
0000
1000
0010
0101
1000
0010
0100
,
0011
0000
1000
0100
0001
0000
1000
0010
0101
0000
0001
0010
1100
0001
0010
0100
,
1010
0000
0001
0010
0110
1000
0101
0010
1100
0010
0101
1000
0011
0100
1010
0100
,
0011
0000
0000
1100
0000
0000
0000
0000
1010
0000
0110
0000
0101
0000
0011
0000
1001
0000
1100
0000
0011
0000
0101
0000
1010
0000
0000
0000
1000
0000
0010
0000
,
0001
0000
0000
0100
1000
0000
0000
0100
0020
0000
0000
0000
0000
0000
0000
0000
0030
0000
0000
0000
0000
0000
0000
0000
0000
0000
0000
0000
0000
0000
0000
0000
;

//---------------dance-double - ----------------
#NOTEDATA:;
#CHARTNAME:;
#STEPSTYPE:dance-double;
#DESCRIPTION:;
#CHARTSTYLE:;
#DIFFICULTY:Challenge;
#METER:16;
#RADARVALUES:0.654281,0.789906,0.871492,0.101983,0.732424,494.000000,400.000000,94.000000,11.000000,0.000000,0.000000,0.000000,0.000000,0.000000,0.654281,0.789906,0.871492,0.101983,0.732424,494.000000,400.000000,94.000000,11.000000,0.000000,0.000000,0.000000,0.000000,0.000000;
#CREDIT:MILEN;
#NOTES:
// measure 0
00000000
00000000
00000000
00000000
,  // measure 1
00000000
00000000
00000000
00000000
,  // measure 2
00000001
00000000
00000100
00000000
00001000
00000000
00010000
00000000
00001000
00000000
00010000
00000000
00100000
00000000
10000000
00000000
01000000
00000000
00010000
00000000
00001000
00000000
00010000
00000000
00001000
00000000
00000000
00011000
00000000
00000000
00000000
00000000
,  // measure 3
00010000
00000000
01000000
10000000
00100000
00000000
00110000
00000000
00100000
10000000
01000000
00010000
00001000
00000000
00011000
00000000
,  // measure 4
00000000
00000000
00000100
00000001
00000010
00000000
00001010
00000000
00000010
00000001
00000100
00001000
00010000
00000000
00011000
00000000
,  // measure 5
00000000
00000000
00100000
10000000
01000000
00000000
01010000
00000000
01000000
10000000
00100000
00010000
00001000
00000000
00011000
00000000
,  // measure 6
00000100
00000001
00000010
00000100
00010000
00001000
00100000
01000000
10000000
00000000
00100000
00000000
01100000
00000000
00000000
01000000
,  // measure 7
00002000
00000000
00000000
00000000
00103000
00010000
00100000
01000000
00010000
00001000
00000010
00000100
00000010
00000000
00000000
00000000
,  // measure 8
00000001
00000100
00001000
00010000
00001000
00000100
00001000
00010000
01000000
00010000
00001000
00010000
01000000
10000000
00000000
00000000
,  // measure 9
00100000
01000000
00100000
00000000
00000000
00000000
00000000
00000000
00010000
00001000
00010000
00001000
00010000
00000000
00000000
00000000
00001000
00000000
00000100
00000000
00000001
00000000
00000010
00000000
00000100
00000010
00000000
00000000
00000001
00000000
00000100
00000000
,  // measure 10
00001000
00010000
00000100
00001000
00010000
00100000
00001000
00010000
00100000
10000000
01000000
00100000
01000000
00000000
00010000
00001000
,  // measure 11
00011000
00000000
00000000
00010000
00000100
00000000
00000000
00000100
00001000
00000000
00000000
00001000
00000010
00000000
00000000
00000010
00000100
00000000
00000000
00000100
00000001
00000000
00000000
00000001
00000010
00000000
00000000
00000010
00001000
00000000
00000000
00000000
,  // measure 12
00011000
00000000
00000000
00000000
00011000
00000000
00000000
00001000
00100000
00000000
00000000
00100000
01000000
00000000
00000000
01000000
10000000
00000000
00000000
10000000
00100000
00000000
00000000
00100000
01000000
00000000
00000000
01000000
00001000
00000000
00000000
00001000
,  // measure 13
00010000
00000000
00011000
00010000
00000100
00001000
00000010
00000001
00001000
00000000
00010000
00000000
00100000
00000000
00010000
00000000
,  // measure 14
00011000
00001000
01000000
00010000
00100000
10000000
00010000
00001000
00100000
00000000
01000000
00000000
11000000
00000000
00110000
00000000
,  // measure 15
10010000
00000000
00000000
10000000
00100000
00000000
00000000
00100000
00010000
00000000
00000000
00010000
00001000
00000000
00000000
00001000
00000100
00000000
00000000
00000100
00000001
00000000
00000000
00000001
00000010
00000000
00000000
00000000
00000220
00000000
00000000
00000000
,  // measure 16
00000330
00000000
00000000
00000000
00001001
00000000
00000000
00000001
00000100
00000000
00000000
00000100
00001000
00000000
00000000
00001000
00010000
00000000
00000000
00010000
00100000
00000000
00000000
00100000
10000000
00000000
00000000
10000000
01000000
00000000
00000000
01000000
,  // measure 17
00100000
00000000
01000000
00000000
00010000
00000000
00001000
00000000
00000010
00000000
00000100
00000000
00001000
00000000
00000010
00000000
00000001
00000000
00001000
00000000
00000100
00000000
00000010
00000000
00001000
00000000
00000100
00000000
00010000
00001000
00010000
00001000
,  // measure 18
00020000
00000000
00000000
00000000
01030000
10000000
01100000
00100000
00010000
00000000
10000000
01000000
00010000
00000000
00011000
00000000
,  // measure 19
00001000
00000100
00000001
00000010
00001100
00000000
00000011
00000000
00001000
00000000
00000001
00000100
00001000
00000000
00011000
00000000
,  // measure 20
00010000
01000000
10000000
00100000
01010000
00000000
10100000
00000000
10000000
01000000
00100000
00010000
01000000
00100000
00010000
00001000
,  // measure 21
00100000
00000000
00010000
00000000
00001000
00000000
00000100
00000000
00000010
00000000
00000000
00000110
00000000
00000000
00000000
00000000
00000001
00000000
00000010
00000000
00000100
00000000
00001000
00000000
00000010
00000000
00000100
00000000
00001000
00000000
00010000
00000000
,  // measure 22
01000000
00000000
00000000
10000000
00100000
00000000
00010000
00000000
00022000
00000000
00000000
00000000
00003000
00000000
00000000
00000000
,  // measure 23
00030010
00000000
00000000
00000001
00000100
00000000
00001000
00000000
00022000
00000000
00000000
00000000
00030000
00000000
00000000
00000000
,  // measure 24
01003000
00000000
00000000
10000000
00100000
00000000
00010000
00000000
00011000
00001000
00101000
00100000
01100000
01000000
01010000
00010000
,  // measure 25
00011000
00000000
00000000
00001000
00010000
00000000
00001000
00000000
00011000
00010000
00010100
00000100
00000110
00000010
00001010
00001000
,  // measure 26
00011000
00000000
00000000
00010000
00001000
00000000
00000100
00000000
00000101
00000000
00000011
00000000
00001100
00000000
00010010
00000000
,  // measure 27
01001000
00110000
11000000
10100000
00110000
00011000
00001100
00000101
,  // measure 28
00001001
00000000
00011000
00000000
10010000
00000000
00011000
00000000
00101000
01000000
01010000
00001000
00011000
00100000
01100000
10000000
,  // measure 29
10100000
00000000
00000000
00100000
00010000
00000000
00011000
00000000
00010010
00000100
00001100
00010000
00011000
00000010
00000110
00000001
,  // measure 30
00000011
00000000
00000000
00000000
00000010
00000000
00001000
00000000
00010000
00000000
00001000
00000000
00010000
00000000
00100000
00000000
20000000
00000000
00000000
00000000
00000000
00000000
00000000
00000000
31000000
00000000
00000000
00010000
00001000
00000000
00000000
00010000
,  // measure 31
00000100
00000000
00001100
00000000
00000011
00000000
00000001
00000100
00011000
00000000
01100000
00000000
10000000
01000000
00100000
00010000
,  // measure 32
01001000
00000000
01010000
00000000
10100000
00000000
10000000
01000000
00011000
00000000
00000110
00000000
00000001
00000100
00000010
00001000
,  // measure 33
00010100
00000000
00011000
00000000
01001000
00100000
00110000
00001000
00011000
00000010
00001010
00000100
00010100
01000000
01001000
00010000
,  // measure 34
00010010
00000000
00000000
00101000
00000000
00000000
00000000
00000000
01100000
00000000
01100000
00000000
11000000
00000000
01010000
00000000
00011000
00000000
00001100
00000000
00000110
00000000
00000110
00000000
00001001
00000000
00000000
00000000
00000001
00000000
00000010
00000000
,  // measure 35
00000100
00001000
00010000
00100000
22000000
00000000
00000000
00000000
33000000
00000000
00000000
00000000
00000000
00000000
00000000
00000000
;
