#TITLE:Raintain;
#SUBTITLE:;
#ARTIST:Sound Souler;
#TITLETRANSLIT:;
#SUBTITLETRANSLIT:;
#ARTISTTRANSLIT:;
#GENRE:VARIETY;
#CREDIT:MUINELIM;
#BANNER:Raintain.png;
#BACKGROUND:Raintain-bg.png;
#LYRICSPATH:;
#CDTITLE:;
#MUSIC:Raintain.mp3;
#OFFSET:0.036000;
#SAMPLESTART:97.898178;
#SAMPLELENGTH:10.274780;
#SELECTABLE:YES;
#BPMS:0.000000=207,42.000000=103.5,46.000000=207,106.000000=103.5,108.000000=207,132.000000=105.74,135.000000=207,223.000000=103.5,227.000000=207,255.000000=103.5,257.000000=207,285.000000=103.5,287.000000=207,407.000000=103.5
;
#STOPS:132.000000=0.87
;
#BGCHANGES:;
#KEYSOUNDS:;
#ATTACKS:;

//---------------dance-single - ----------------
#NOTES:
     dance-single:
     :
     Hard:
     16:
     0.831480,0.969588,0.792656,0.551085,0.267993,771.000000,666.000000,105.000000,73.000000,0.000000,0.000000,0.831480,0.969588,0.792656,0.551085,0.267993,771.000000,666.000000,105.000000,73.000000,0.000000,0.000000:
0000
0000
0000
0000
,
0000
0000
0000
0000
,
0000
0000
0000
0000
,
0000
0000
0000
0000
,
0000
0000
0000
0000
0110
0100
0000
0010
,
1000
0000
0010
0100
0000
0010
1000
0100
,
0110
0010
0000
0001
0010
0000
0100
0010
,
0000
0001
0010
0100
1100
1000
0000
0010
,
0001
0000
0100
1000
0000
0010
0001
0100
,
0101
0001
0000
0010
1000
0000
0100
0001
,
0000
0010
1000
0001
2002
0000
0000
0000
,
0000
0000
0000
3003
1001
0000
1000
0100
,
0010
0001
0100
0000
1010
0000
0100
0000
,
0011
0000
0100
0000
1001
0000
0001
0010
,
0000
1000
0100
0000
0210
0000
0000
0301
,
0011
0000
1100
0000
1001
0000
0001
0010
,
0100
1000
0010
0000
0101
0000
0010
0000
,
1100
0000
0010
0000
1001
0000
0001
0100
,
0000
1000
0010
0000
1001
0200
0000
0310
,
1010
0000
0101
0000
0001
0010
0100
2000
,
0000
0000
3001
0100
1000
0001
0010
1000
,
0000
0110
0000
1000
0100
0001
1000
0010
,
0000
0101
0000
1000
0100
0001
1000
0010
,
0000
1100
0100
1000
0100
0010
0001
0200
,
0000
0000
0310
1000
0010
0100
0001
0020
,
0000
0031
0010
0100
0001
0100
0010
1000
,
0010
0000
0100
0000
1000
0000
0010
0000
0100
0001
0100
0001
1000
0100
0010
0001
,
1000
1100
0000
0001
0101
0000
1000
1010
,
0000
0000
0001
0000
0011
0000
1000
0010
0100
0000
0101
0000
0000
0000
0010
0000
,
1010
0000
0000
0000
0100
0000
1100
0000
0000
0000
0010
0000
0011
0000
1000
0100
,
0010
0110
0000
1000
1010
0000
0001
0101
,
0000
0000
1000
0000
1001
0000
0010
0100
0001
0000
0011
0000
0000
0000
1000
0000
,
1010
0000
0000
0000
0001
0000
0101
0000
0000
0000
1000
0000
1100
0000
0001
0010
,
0200
0000
2000
0000
3000
0000
0000
0002
0000
0000
0003
0000
0310
0000
0100
0000
,
1000
0000
1010
0000
0000
0000
0011
0000
0000
0000
0010
0100
0010
0000
0100
0000
,
1000
0000
1010
0000
0000
0000
0011
0000
0000
0000
0010
0100
0010
0000
0100
0000
,
1000
1010
0000
0011
0000
2002
0000
3003
,
1000
0000
0100
0000
0001
0000
1000
0000
0010
0000
0001
0000
0100
0010
0200
0000
,
0000
0302
0000
0023
0000
2030
0000
0000
,
3010
0100
1000
0001
0010
0100
0110
1000
,
0010
0100
0110
0001
0100
0010
1001
1000
,
0001
0000
1000
0000
0100
0010
0001
0000
1000
0100
0010
0000
0100
0000
0010
0000
,
0001
0000
0101
0000
0000
0000
1100
0000
0000
0000
0100
0010
0100
0000
0010
0000
,
0001
0000
0101
0000
0000
0000
1100
0000
0000
0000
0100
0010
0100
0000
0010
0000
,
0001
0101
0000
1100
0000
2002
0000
3003
,
1000
0000
0010
0000
0001
0000
1000
0000
0100
0000
0001
0000
0010
0100
0020
0000
,
0000
0032
0000
0203
0000
2300
0000
0000
,
3100
0001
0010
0100
1000
0010
0101
0010
,
0001
0100
1010
0100
1000
0001
1001
1000
,
0001
0000
0100
0000
0010
1000
0100
0000
0010
0001
0100
0000
0010
0000
1000
0000
,
0000
1000
0100
0000
0100
0001
0000
0001
,
0010
1000
0001
0100
0000
0100
1000
0000
,
1000
0010
0000
0010
0001
1000
1001
0010
,
0100
0010
0001
0000
0010
1000
0000
0010
,
0001
1000
1001
0100
0010
0100
1000
0000
,
0100
0001
0000
0100
1000
0010
0220
0000
,
0000
0000
0000
0000
0000
0330
0110
0001
,
0100
2000
0000
3010
0101
0000
0110
1000
,
0100
0002
0000
0103
1010
0000
1100
0010
,
0001
0200
0000
0310
1001
0000
0011
0100
,
1000
0010
0200
0301
0020
1030
1001
0010
,
0001
2000
0000
3100
0101
0000
1001
0100
,
1000
0002
0000
0013
1010
0000
1001
0100
,
0010
0000
0001
0000
1000
0000
0100
0000
0010
0000
0001
0000
0100
0010
1000
0010
,
0100
0001
0100
0010
0210
0000
0000
0000
0302
0000
0000
0000
0023
0000
0000
0000
,
2030
0000
0000
0000
3200
0000
0000
0000
0302
0000
0000
0000
1003
0010
0100
0000
,
1000
0100
0101
0000
0022
0000
0033
2200
,
0000
3300
2020
0000
3030
0202
0000
0303
,
1001
0000
0001
0100
1000
0001
1000
0010
,
0001
0000
1000
0000
0001
0000
0100
0000
1000
0000
0010
0000
0001
0100
0010
0000
,
0001
0010
1010
0000
2200
0000
3300
0022
,
0000
0000
0033
0000
0110
0000
0001
0100
1000
0000
1001
0000
0001
0010
0001
0000
,
0100
0000
0010
1000
0010
0000
0100
0000
0001
0010
0001
0000
0100
0000
0010
1000
,
0010
0000
0100
0000
0001
0000
0010
0000
0100
1000
0100
1000
0010
0100
0010
0000
,
1000
0000
0001
0010
0001
0000
1000
0000
0010
0100
0010
0000
1000
0000
0001
0010
,
0001
0000
1000
0000
0010
0000
0100
0000
0001
1000
0001
1000
0100
0010
0100
0000
,
1000
0000
0010
0100
0001
0000
1000
0000
0100
0010
0100
0000
1000
0000
0010
0100
,
0001
0000
1000
0000
0100
0000
0010
0000
0001
0100
0010
1000
0002
0000
0000
0000
,
0103
2000
0000
3100
0002
0000
0013
2000
,
0000
3010
0001
1000
0010
0100
0101
0001
,
1000
0100
0020
0000
0000
0000
0200
0000
0030
0000
0000
0000
0310
0001
0100
0000
,
0010
0000
2000
0000
0000
0000
0002
0000
3000
0000
0000
0000
1003
0100
0001
0000
,
0100
0020
0000
0032
0000
0200
0003
0000
,
0310
1000
0100
0000
0010
0001
0100
0000
0010
1000
0001
0000
0100
0001
2000
0000
,
0000
3020
0000
0032
0000
0203
0000
0000
,
2300
0000
0000
0000
3020
0000
0000
0000
0230
0000
0000
0000
0301
0010
1000
0000
,
0010
0000
0001
0000
0100
0000
1000
0000
0110
0000
0000
0000
1000
0100
0001
0000
,
0100
1000
0010
0001
0110
0000
1001
0001
,
1000
0000
0100
0010
0001
0000
1000
0010
0100
0000
1000
0000
0100
0000
0001
0000
,
0010
0000
0001
0100
0010
0000
1000
0100
0010
0000
1000
0000
0010
0000
0001
0000
,
0100
1010
0000
0011
0000
2200
0000
3300
,
1000
0010
0100
0000
0001
0010
0100
0000
1000
0010
0001
0000
0010
0000
0010
0000
,
0100
0000
0100
0000
0001
0000
0001
0000
1000
0100
0001
0000
0100
0000
0100
0000
,
0010
0000
0000
0000
0000
0000
0010
0000
0000
0000
0000
0000
0001
0000
0000
0000
0000
0000
0001
0000
0000
0000
0000
0000
0100
0000
0000
0010
0000
0000
1000
0000
0000
0001
0000
0000
0100
0000
0000
0000
0000
0000
0000
0000
0110
0000
0000
0000
,
0000
0000
1010
0000
0000
0000
1100
0000
0000
0000
0110
0000
0000
0000
0011
0000
0000
0000
1001
0000
0000
0220
0000
0000
,
0330
0000
0010
1000
0100
0000
1000
0010
0100
0010
0100
0001
0010
0000
0001
0000
,
0000
0001
0100
0000
0100
1000
0000
1000
,
0010
0001
1000
0100
0000
0100
0001
0000
,
0001
0010
0000
0010
1000
0001
1001
1000
,
0010
0100
1100
1000
0100
0001
0010
0010
,
0100
1000
1001
0001
0010
0100
0101
0001
,
0100
1000
0010
0010
0100
0001
2002
0000
,
0000
0000
0000
0000
0000
3003
0110
0000
;

//---------------dance-double - ----------------
#NOTES:
     dance-double:
     :
     Hard:
     16:
     0.812068,0.930805,0.679420,0.505790,0.256670,753.000000,663.000000,90.000000,67.000000,0.000000,0.000000,0.812068,0.930805,0.679420,0.505790,0.256670,753.000000,663.000000,90.000000,67.000000,0.000000,0.000000:
00000000
00000000
00000000
00000000
,
00000000
00000000
00000000
00000000
,
00000000
00000000
00000000
00000000
,
00000000
00000000
00000000
00000000
,
00000000
00000000
00000000
00000000
00011000
00010000
00000000
00000010
,
00010000
00000000
00001000
00010000
00000000
00000100
00010000
00001000
,
00011000
00001000
00000000
00100000
00001000
00000000
00010000
00001000
,
00000000
01000000
00001000
00010000
00011000
00000100
00000000
00001000
,
00000010
00000000
00010000
00001000
00000000
00100000
00001000
00010000
,
00011000
01000000
00000000
00010000
00100000
00000000
00001000
00010000
,
00000000
00000010
00010000
00001000
00022000
00000000
00000000
00000000
,
00000000
00000000
00000000
00033000
00011000
00000000
00010000
01000000
,
10000000
00100000
00010000
00000000
01100000
00000000
10000000
00000000
,
01100000
00000000
00010000
00000000
00001000
00000000
00000100
00000001
,
00000010
00000100
00000010
00000000
00000012
00000000
00000000
00000103
,
00001100
00000000
00011000
00000000
01010000
00000000
10000000
00100000
,
00010000
00001000
00000100
00000000
00000101
00000000
00000010
00000000
,
00001100
00000000
00000001
00000000
00000110
00000000
00001000
00010000
,
00100000
00010000
00001000
00000000
00101000
02000000
00000000
03010000
,
00110000
00000000
11000000
00000000
10000000
00100000
00010000
00002000
,
00000000
00000000
00103000
00010000
00001000
00000010
00010000
00001000
,
00000000
00011000
00000000
00000100
00001000
00010000
01000000
10000000
,
00000000
01100000
00000000
00010000
00100000
10000000
01000000
00010000
,
00000000
00011000
00001000
00010000
00000100
00001000
00000100
00000020
,
00000000
00000000
00000031
00000100
00001000
00010000
00100000
20000000
,
00000000
31000000
00010000
00001000
00010000
01000000
00010000
00001000
,
00000100
00000000
00001000
00000000
00010000
00000000
00001000
00000000
00000100
00000001
00000100
00000001
00000010
00001000
00010000
01000000
,
10000000
10100000
00000000
00100000
00110000
00000000
00010000
00011000
,
00000000
00000000
00001000
00000000
00000010
00000000
00000001
00000100
00000001
00000000
00000011
00000000
00000000
00000000
00000010
00000000
,
00001010
00000000
00000000
00000000
00001000
00000000
00011000
00000000
00000000
00000000
00010000
00000000
00100000
00000000
10000000
01000000
,
10000000
10010000
00000000
00010000
01010000
00000000
01000000
01001000
,
00000000
00000000
00001000
00000000
00010000
00000000
00000100
00001000
00000100
00000000
00000110
00000000
00000000
00000000
00000010
00000000
,
00001010
00000000
00000000
00000000
00001000
00000000
00011000
00000000
00000000
00000000
00010000
00000000
00100000
00000000
10000000
01000000
,
00200000
00000000
00002000
00000000
00300000
00000000
00000000
00000020
00000000
00000000
00003000
00000000
00000031
00000000
00000100
00000000
,
00001000
00000000
00011000
00000000
00000000
00000000
01010000
00000000
00000000
00000000
00001000
00010000
00001000
00000000
00010000
00000000
,
01000000
00000000
11000000
00000000
00000000
00000000
01010000
00000000
00000000
00000000
00001000
00010000
00001000
00000000
00010000
00000000
,
01000000
11000000
00000000
01010000
00000000
00022000
00000000
00033000
,
00010000
00000000
00001000
00000000
00000010
00000000
00010000
00000000
00100000
00000000
00001000
00000000
00000010
00000100
00000020
00000000
,
00000000
00000032
00000000
00000203
00000000
00002300
00000000
00000000
,
00013000
00100000
10000000
01000000
00100000
00010000
01000000
00001000
,
00010000
00000100
00001000
00000010
00010000
00001000
00100000
00010000
,
01000000
00000000
00001000
00000000
00010000
00000010
00010000
00000000
00001000
01000000
00001000
00000000
00010000
00000000
00001000
00000000
,
00010000
00000000
00011000
00000000
00000000
00000000
00001100
00000000
00000000
00000000
00010000
00001000
00010000
00000000
00001000
00000000
,
00000100
00000000
00000101
00000000
00000000
00000000
00001100
00000000
00000000
00000000
00010000
00001000
00010000
00000000
00001000
00000000
,
00000100
00000101
00000000
00001100
00000000
00022000
00000000
00033000
,
00001000
00000000
00010000
00000000
00100000
00000000
00001000
00000000
00000010
00000000
00010000
00000000
00100000
01000000
00200000
00000000
,
00000000
20300000
00000000
32000000
00000000
03020000
00000000
00000000
,
00031000
00000010
00000001
00000100
00000010
00001000
00000100
00010000
,
00001000
01000000
00010000
00100000
00001000
00010000
00000010
00001000
,
00000100
00000000
00000010
00000000
00000001
00000100
00000001
00000000
00001000
00000010
00001000
00000000
00000001
00000000
00000100
00000000
,
00000000
00000100
00001000
00000000
00001000
00010000
00000000
00010000
,
00100000
10000000
01000000
00010000
00000000
00010000
00001000
00000000
,
00001000
00000010
00000000
00000010
00000001
00001000
00001001
00000001
,
00000100
00001000
00010000
00000000
00000100
00001000
00000000
00010000
,
00100000
00010000
10010000
10000000
01000000
00010000
00001000
00000000
,
01000000
00010000
00000000
00001000
00000010
00001000
00002002
00000000
,
00000000
00000000
00000000
00000000
00000000
00003003
00000110
00000001
,
00000100
00002000
00000000
00013000
01010000
00000000
01100000
10000000
,
01000000
00020000
00000000
00031000
00001100
00000000
00001001
00000010
,
00000100
00002000
00000000
00013000
01010000
00000000
10010000
01000000
,
00100000
00010000
00002000
01003000
00020000
00030100
00011000
00000010
,
00000100
00000002
00000000
00000103
00001100
00000000
00011000
01000000
,
00100000
20000000
00000000
31000000
01010000
00000000
00011000
00100000
,
00010000
00000000
01000000
00000000
00001000
00000000
00010000
00000000
00000010
00000000
00001000
00000000
00000100
00000010
00001000
00010000
,
01000000
00100000
00001000
00010000
00012000
00000000
00000000
00000000
00100000
00000000
00000000
00000000
00000010
00000000
00000000
00000000
,
00010000
00000000
00000000
00000000
01000000
00000000
00000000
00000000
00000100
00000000
00000000
00000000
00013000
00100000
01000000
00000000
,
00100000
10000000
11000000
00000000
02020000
03030000
00000000
00022000
,
00033000
00000000
00002020
00003030
00000000
00000220
00000330
00000000
,
00001001
00000000
00000001
00000100
00001000
00010000
00001000
00010000
,
00100000
00000000
10000000
00000000
01000000
00000000
00010000
00000000
00001000
00000000
00010000
00000000
00001000
00000010
00000100
00000000
,
00000010
00000001
00000101
00000000
00020020
00030030
00000000
00202000
,
00303000
00000000
00000000
00000000
00011000
00000000
00001000
00010000
00100000
00000000
10100000
00000000
10000000
01000000
10000000
00000000
,
01000000
00000000
00010000
00001000
00010000
00000000
01000000
00000000
10000000
01000000
10000000
00000000
01000000
00000000
00010000
00001000
,
00010000
00000000
00001000
00000000
00100000
00000000
01000000
00000000
00010000
00001000
00100000
00000000
00001000
00010000
00001000
00000000
,
00000100
00000000
00000001
00000010
00000001
00000000
00000100
00000000
00001000
00010000
00001000
00000000
00000100
00000000
00000001
00000010
,
00000001
00000000
00000100
00000000
00001000
00000000
00010000
00000000
00000100
00001000
00000010
00000000
00000100
00000001
00000100
00000000
,
00001000
00000000
00010000
00001000
00010000
00000000
00001000
00000000
00000100
00000001
00000100
00000000
00001000
00000000
00010000
00001000
,
00010000
00000000
00001000
00000000
00100000
00000000
01000000
00000000
10000000
00100000
10000000
00100000
00020000
00000000
00000000
00000000
,
00031000
00000020
00000000
00001030
00020000
00000000
00130000
20000000
,
00000000
31000000
00010000
00001000
00000010
00000001
00000101
00001000
,
00000100
00010000
00002000
00000000
00000000
00000000
00020000
00000000
00003000
00000000
00000000
00000000
00130000
10000000
01000000
00000000
,
00100000
00000000
00002000
00000000
00000000
00000000
00020000
00000000
00003000
00000000
00000000
00000000
00030100
00001000
00000001
00000000
,
00000010
00000200
00000000
00002300
00000000
00023000
00000000
00000000
,
01030000
00100000
10000000
00000000
00100000
01000000
00010000
00000000
00100000
00001000
00010000
00000000
00000010
00010000
00002000
00000000
,
00000000
00003200
00000000
00000302
00000000
00000023
00000000
00000000
,
00002030
00000000
00000000
00000000
00023000
00000000
00000000
00000000
02030000
00000000
00000000
00000000
13000000
00100000
00010000
00000000
,
00001000
00000000
00010000
00000000
00001000
00000000
00000100
00000000
00000001
00000000
00000000
00000000
00000001
00000010
00001000
00000000
,
00010000
00001000
00010000
01000000
10000000
00000000
10010000
00010000
,
01000000
00000000
00001000
00010000
00000100
00000000
00010000
00001000
01000000
00000000
00010000
00000000
00100000
00000000
00001000
00000000
,
00010000
00000000
00000100
00000010
00000001
00000000
00001000
00000100
00000010
00000000
00001000
00000000
00010000
00000000
00100000
00000000
,
10000000
11000000
00000000
00110000
00000000
00022000
00000000
00033000
,
00001000
00100000
00010000
00000000
01000000
00001000
00010000
00000000
00000100
00001000
00000010
00000000
00000100
00000000
00000001
00000000
,
00000010
00000000
00000100
00000000
00000001
00000000
00000100
00000000
00001000
00000010
00010000
00000000
00100000
00000000
10000000
00000000
,
01000000
00000000
00000000
00000000
00000000
00000000
00010000
00000000
00000000
00000000
00000000
00000000
01000000
00000000
00000000
00000000
00000000
00000000
00100000
00000000
00000000
00000000
00000000
00000000
00001000
00000000
00000000
00010000
00000000
00000000
00001000
00000000
00000000
00010000
00000000
00000000
00000010
00000000
00000000
00000000
00000000
00000000
00000000
00000000
00000110
00000000
00000000
00000000
,
00000000
00000000
00000101
00000000
00000000
00000000
00001100
00000000
00000000
00000000
00011000
00000000
00000000
00000000
00110000
00000000
00000000
00000000
10100000
00000000
00000000
20000000
00000000
00000000
,
00000000
00000000
31000000
00010000
00001000
00000000
00010000
00001000
00000100
00000000
00001000
00000100
00000001
00000000
00000010
00000000
,
00000000
00000010
00001000
00000000
00001000
00010000
00000000
00010000
,
01000000
10000000
00100000
00010000
00000000
00010000
00001000
00000000
,
00001000
00000100
00000000
00000100
00000001
00001000
00001001
00000001
,
00000100
00001000
01001000
00000000
01000000
00010000
00100000
01000000
,
00010000
01000000
10010000
10000000
01000000
00010000
00010100
00000000
,
00000100
00001000
00000010
00000100
00001000
00000100
00002002
00000000
,
00000000
00000000
00000003
00013000
;

//---------------dance-single - ----------------
#NOTES:
     dance-single:
     :
     Beginner:
     5:
     0.163923,0.232701,0.067942,0.083040,0.000000,152.000000,143.000000,9.000000,11.000000,0.000000,0.000000,0.163923,0.232701,0.067942,0.083040,0.000000,152.000000,143.000000,9.000000,11.000000,0.000000,0.000000:
0000
0000
0000
0000
,
0000
0000
0000
0000
,
0000
0000
0000
0000
,
0000
0000
0000
0000
,
0000
0000
0100
0000
,
0000
0001
0000
0001
,
0000
0000
0000
1000
,
0000
1000
0000
0000
,
0000
0010
0000
0010
,
0000
0000
0000
0100
,
0000
0100
0200
0000
,
0000
0300
0010
0000
,
0000
0000
1000
0000
,
0000
0000
0001
0000
,
0000
0000
0100
0000
,
0000
0000
0001
0000
,
0000
0000
1000
0000
,
0000
0000
0010
0000
,
0000
0000
0100
0000
,
0010
0000
1000
0000
,
1000
0000
0001
0000
,
0001
0000
1000
0000
,
0001
0000
1000
0000
,
1000
0000
0010
0000
,
0010
0000
0100
0000
,
0100
0000
0010
0000
,
0100
0000
0020
0030
,
0010
0000
0000
1000
,
0000
1000
1000
0000
,
0000
0100
0000
0100
,
0100
0000
0000
0010
,
0000
0010
0010
0000
,
0000
0001
0000
0001
,
0001
0000
0000
1000
,
0000
0000
0000
0010
,
0000
0000
0000
0001
,
0000
0000
0000
0100
,
0000
0000
0000
1000
,
0000
0000
0000
0010
,
0000
0000
0000
0001
,
0000
0000
0000
0100
,
0000
0000
0000
1000
,
0000
0000
0000
0100
,
0000
0000
0000
0001
,
0000
0000
0000
0010
,
0000
0000
0000
1000
,
0000
0000
0000
0100
,
0000
0000
0000
0001
,
0000
0000
0000
0010
,
0000
0000
0000
2000
,
0000
0000
3000
0000
,
0000
0002
0000
0000
,
0003
0000
0000
0100
,
0000
0001
0000
1000
,
0000
0010
0000
0100
,
0000
0010
0010
0020
,
0000
0000
0030
1000
,
0000
0001
0000
1000
,
0000
0000
0000
0100
,
0000
0010
0000
0100
,
0000
0000
0000
0010
,
0000
0100
0000
0010
,
0000
0000
0000
1000
,
0000
0001
0000
2000
,
3000
1000
0000
0000
,
0000
0010
0000
0000
,
0000
0001
0000
0000
,
0000
0100
0000
0000
,
0000
1000
0000
0000
,
0000
0010
0000
0000
,
0000
0001
0000
0000
,
0000
0200
0300
0100
,
0000
1000
0000
0100
,
0000
1000
0000
0001
,
0000
1000
0000
0001
,
0000
1000
0000
0001
,
0000
0010
0000
0001
,
0000
0010
0000
0001
,
0000
1000
0000
0001
,
0000
1000
0000
1001
,
0000
0000
0000
1001
,
0000
0000
0000
1001
,
0000
0000
0000
1001
,
0000
0000
0000
1000
,
0000
0100
0000
1000
,
0000
0010
0000
0100
,
0000
0001
0000
0010
,
0000
0001
0000
1001
,
0000
0000
0000
1001
,
0000
0000
0000
1001
,
0000
0000
0000
1001
,
0000
0000
0000
1000
,
0000
0010
0000
0001
,
0000
0100
0000
1000
,
0000
0010
0000
0100
,
0000
0010
0010
0020
,
0000
0000
0000
0030
,
0000
0200
0000
0000
,
0000
0300
0000
0001
,
0000
0010
0000
1000
,
0000
0100
0000
0001
,
0000
1000
0000
2002
,
0000
0000
0000
3003
;

//---------------dance-single - ----------------
#NOTES:
     dance-single:
     :
     Easy:
     9:
     0.323533,0.426619,0.083040,0.120786,0.000000,300.000000,289.000000,11.000000,16.000000,0.000000,0.000000,0.323533,0.426619,0.083040,0.120786,0.000000,300.000000,289.000000,11.000000,16.000000,0.000000,0.000000:
0000
0000
0000
0000
,
0000
0000
0000
0000
,
0000
0000
0000
0000
,
0000
0000
0000
0000
,
0000
0000
0000
0000
1000
0000
0000
1000
,
0000
1000
0000
0000
,
0001
0000
0000
0001
0000
0000
0001
0000
,
0000
0000
0000
0000
1000
0000
0000
0001
,
0000
1000
0000
0000
,
0001
0000
0000
1000
0000
0000
0001
0000
,
0000
1000
0002
0000
,
0000
0003
1000
0100
,
1000
0000
0001
0100
,
0001
0000
1000
0010
,
1000
0000
0001
0010
,
0001
0000
1000
0001
,
0100
0000
0001
1000
,
0010
0000
1000
0010
,
0100
0000
0001
0100
,
0010
0010
1000
0000
,
0100
0000
0001
0000
,
0010
0000
1000
0000
,
0100
0000
0001
0000
,
0010
0000
0001
0000
,
0100
0000
1000
0000
,
0010
0000
0001
0000
,
0100
0000
2000
3000
,
0001
0000
0000
0001
0000
0000
0100
0000
,
0000
0100
0000
0000
0010
0000
0000
0010
,
0000
0000
1000
0000
0000
1000
0000
0000
,
0100
0000
0000
0100
0000
0000
0010
0000
,
0000
0010
0000
0000
0001
0000
0000
0001
,
0000
0000
1000
0000
0000
1000
0000
0000
,
2002
0000
3003
1000
,
0010
0100
0000
0010
,
1000
0100
0000
1000
,
0010
0100
0010
1000
,
0000
0100
0000
0001
,
0010
0100
0000
0010
,
0001
0100
0000
0001
,
0010
0100
0010
0001
,
1000
0001
1001
0001
,
0100
0010
0000
0100
,
0001
0010
0000
0001
,
0100
0010
0100
0001
,
0000
0010
0000
1000
,
0100
0010
0000
0100
,
1000
0010
0000
1000
,
0100
0010
0100
1000
,
0001
1000
1001
0020
,
0000
0000
0000
0000
,
0030
0200
0000
0000
,
0000
0000
0300
0001
,
0000
0001
0000
0000
0010
0000
0000
0010
,
0000
0000
1000
0000
0000
1000
0000
0000
,
0100
0000
0000
0100
0000
0000
0220
0000
,
0000
0000
0330
0010
,
1000
0100
1000
0001
,
1000
0100
1000
0001
,
0010
0001
1000
0001
,
0010
0001
1000
0010
,
0100
0001
1000
0100
,
0010
0001
1000
0010
,
0100
0010
1000
0002
,
0000
0000
1003
0000
0000
0000
1000
0100
,
1000
0200
0300
1000
,
0001
0100
0001
0000
0010
0000
0000
0010
,
0000
0000
0001
0000
0000
1000
0000
0000
,
1001
0000
1001
0000
0000
0000
0001
0100
,
0001
0200
0300
0001
,
1000
0100
1000
0000
0010
0000
0000
0010
,
0000
0220
0330
0100
,
0000
0001
0000
0000
0100
0000
0000
0001
,
0000
1000
0100
1000
,
0000
0010
0000
0000
1000
0000
0000
0010
,
0000
0100
0010
0100
,
0000
0001
0000
0000
1000
0000
0000
0010
,
0000
0100
0001
1000
,
0000
0100
0000
0000
0010
0000
0000
0001
,
0000
2000
3001
1000
,
0001
0100
0000
0001
,
1000
0100
0000
1000
,
0001
0100
0001
1000
,
0100
1000
0001
0100
,
1000
0100
0000
0100
,
0001
0100
0000
0100
,
1000
0100
0001
0100
,
1000
0000
0100
0010
0100
0000
0001
0000
,
1000
0010
0000
1000
,
0001
0010
0000
0001
,
1000
0010
1000
0001
,
0010
0001
1000
0010
,
0001
0010
0000
0010
,
1000
0010
0000
0010
,
0001
0010
1000
0010
,
0001
0000
0010
0100
0010
0000
1001
0000
,
0000
1000
0000
0000
0010
0000
0000
0100
,
0000
0000
1001
0000
0000
0001
0000
0000
,
0100
0000
0000
0010
0000
0000
1000
0000
,
0000
0001
0000
0000
0100
0000
0000
1000
,
0000
0000
0010
0000
0000
0001
0000
0000
,
0100
0000
0000
0010
0000
0000
0220
0000
,
0000
0000
0330
1001
;

//---------------dance-double - ----------------
#NOTES:
     dance-double:
     :
     Easy:
     9:
     0.321376,0.387835,0.098138,0.120786,0.000000,298.000000,285.000000,13.000000,16.000000,0.000000,0.000000,0.321376,0.387835,0.098138,0.120786,0.000000,298.000000,285.000000,13.000000,16.000000,0.000000,0.000000:
00000000
00000000
00000000
00000000
,
00000000
00000000
00000000
00000000
,
00000000
00000000
00000000
00000000
,
00000000
00000000
00000000
00000000
,
00000000
00000000
00000000
00000000
00010000
00000000
00000000
00010000
,
00000000
00010000
00000000
00000000
,
00001000
00000000
00000000
00001000
00000000
00000000
00001000
00000000
,
00000000
00000000
00000000
00000000
00010000
00000000
00000000
00001000
,
00000000
00010000
00000000
00000000
,
00001000
00000000
00000000
00010000
00000000
00000000
00001000
00000000
,
00000000
00010000
00002000
00000000
,
00000000
00003000
01000000
00010000
,
01000000
00000000
00001000
00010000
,
00001000
00000000
00010000
00001000
,
00010000
00000000
00000010
00001000
,
00000010
00000000
00010000
00001000
,
01000000
00000000
00001000
00010000
,
00000010
00000000
00010000
00001000
,
00100000
00000000
00001000
00010000
,
00000100
00000100
00000010
00000000
,
00000001
00000000
00000100
00000000
,
00001000
00000000
00010000
00000000
,
00100000
00000000
10000000
00000000
,
01000000
00000000
00010000
00000000
,
00001000
00000000
00000100
00000000
,
00000001
00000000
00000010
00000000
,
00001000
00000000
00022000
00033000
,
00010000
00000000
00000000
00010000
00000000
00000000
00000100
00000000
,
00000000
00000100
00000000
00000000
00001000
00000000
00000000
00001000
,
00000000
00000000
00000010
00000000
00000000
00000010
00000000
00000000
,
00010000
00000000
00000000
00010000
00000000
00000000
00001000
00000000
,
00000000
00001000
00000000
00000000
00100000
00000000
00000000
00100000
,
00000000
00000000
00010000
00000000
00000000
00010000
00000000
00000000
,
20020000
00000000
30030000
10000000
,
00100000
01000000
00000000
00100000
,
10000000
01000000
00000000
10000000
,
00100000
01000000
00100000
00010000
,
00000000
00001000
00000000
00000100
,
00000001
00000010
00000000
00000001
,
00000100
00000010
00000000
00000100
,
00000001
00000010
00001000
00010000
,
00000000
00000100
00001001
00000001
,
00000100
00000010
00000000
00000100
,
00000001
00000010
00000000
00000001
,
00000100
00000010
00000100
00001000
,
00000000
00010000
00000000
00100000
,
10000000
01000000
00000000
10000000
,
00100000
01000000
00000000
00100000
,
10000000
01000000
00010000
00001000
,
00000000
00010000
00011000
00000200
,
00000000
00000000
00000000
00000000
,
00000300
00000020
00000000
00000000
,
00000000
00000000
00000030
00000001
,
00000000
00000001
00000000
00000000
00000100
00000000
00000000
00000100
,
00000000
00000000
00001000
00000000
00000000
00001000
00000000
00000000
,
00010000
00000000
00000000
00010000
00000000
00000000
00022000
00000000
,
00000000
00000000
00033000
00001000
,
00100000
00010000
01000000
00001000
,
00010000
00001000
01000000
00010000
,
00100000
00001000
00010000
00000100
,
00001000
00000010
00010000
00001000
,
00010000
00000010
00001000
00000100
,
00010000
00001000
00100000
00010000
,
01000000
00001000
00010000
00000020
,
00000000
00000000
00000130
00000000
00000000
00000000
00000100
00000001
,
00000100
00002000
00003000
00000100
,
00001000
00010000
00001000
00000000
00100000
00000000
00000000
00100000
,
00000000
00000000
00010000
00000000
00000000
10000000
00000000
00000000
,
10010000
00000000
01100000
00000000
00000000
00000000
01000000
10000000
,
01000000
00020000
00030000
01000000
,
00010000
00001000
00010000
00000000
00000010
00000000
00000000
00000010
,
00000000
00000220
00000330
00000001
,
00000000
00000100
00000000
00000000
00000001
00000000
00000000
00000100
,
00000000
00001000
00010000
00001000
,
00000000
00100000
00000000
00000000
00001000
00000000
00000000
00100000
,
00000000
01000000
10000000
01000000
,
00000000
00010000
00000000
00000000
01000000
00000000
00000000
00010000
,
00000000
00000100
00001000
00000100
,
00000000
00000010
00000000
00000000
00000100
00000000
00000000
00000010
,
00000000
00000001
00001001
00001000
,
00000100
00000010
00000000
00000100
,
00000010
00000001
00000000
00000010
,
00000001
00000100
00000001
00001000
,
00000100
00010000
00001000
01000000
,
00010000
10000000
00000000
01000000
,
10000000
00010000
00000000
01000000
,
00010000
10000000
01000000
00010000
,
01000000
10000000
10010000
00010000
,
01000000
00100000
00000000
01000000
,
00100000
10000000
00000000
00100000
,
10000000
01000000
10000000
00010000
,
01000000
00001000
00010000
00000100
,
00001000
00000001
00000000
00000100
,
00000001
00001000
00000000
00000100
,
00001000
00000001
00000100
00001000
,
00000100
00000001
00001001
00001000
,
00000000
00000010
00000000
00000000
00010000
00000000
00000000
00100000
,
00000000
00000000
00001000
00000000
00000000
00000100
00000000
00000000
,
00010000
00000000
00000000
01000000
00000000
00000000
10000000
00000000
,
00000000
00100000
00000000
00000000
00010000
00000000
00000000
00001000
,
00000000
00000000
00000100
00000000
00000000
00000001
00000000
00000000
,
00000010
00000000
00000000
00001000
00000000
00000000
00022000
00000000
,
00000000
00000000
00033000
00011000
;

//---------------dance-single - ----------------
#NOTES:
     dance-single:
     :
     Medium:
     12:
     0.519810,0.659320,0.173629,0.241571,0.037746,482.000000,459.000000,23.000000,32.000000,0.000000,0.000000,0.519810,0.659320,0.173629,0.241571,0.037746,482.000000,459.000000,23.000000,32.000000,0.000000,0.000000:
0000
0000
0000
0000
,
0000
0000
0000
0000
,
0000
0000
0000
0000
,
0000
0000
0000
0000
,
0000
0000
0000
0000
1000
0000
0000
0010
,
0000
0000
0100
0000
0000
0001
1000
0001
,
0001
0000
0000
0100
0000
0000
0010
0000
,
0000
1000
0001
1000
1000
0000
0000
0100
,
0000
0000
0010
0000
0000
0001
0100
0001
,
0001
0000
0000
0010
0000
0000
0100
0000
,
0000
1000
0010
1000
2002
0000
0000
0000
,
0000
0000
3003
0000
0001
0000
0000
0100
,
0000
1000
0010
0100
,
0010
0000
1000
0000
0100
0000
0001
0010
,
0000
0010
0001
0000
0200
0000
0000
1300
,
0010
0000
0100
0000
0110
0000
0000
0001
,
0000
1000
0110
1000
,
0001
0000
0010
0000
0100
0000
1000
0010
,
0000
0010
1000
0000
0200
0000
0000
0301
,
0010
0000
0110
0000
1000
0100
1000
0100
,
0000
0000
1000
0000
0010
0100
0000
0001
,
0000
0100
0000
0000
0010
1000
0010
1000
,
0000
0010
0100
0001
0100
0001
0000
0010
,
0000
0001
1000
0000
0100
0010
0100
0010
,
0000
0000
0001
0100
0010
0000
1000
0010
,
0000
0000
0100
0001
0010
0000
0100
0010
,
0000
0000
0100
0000
1000
0000
0100
0000
1000
0010
0100
0000
0001
0100
0010
0000
,
1000
0000
0000
0100
0000
0000
0001
0000
,
0000
0010
0100
0000
0001
0000
0000
0010
,
0000
0000
1000
0000
0000
0100
0010
0000
,
1000
0000
0000
0010
0000
0000
0001
0000
,
0000
0100
0010
0000
0001
0000
0000
0100
,
0000
0000
1000
0000
0000
0010
0100
0000
,
1001
0000
2000
0000
0000
0000
0000
3002
0000
0000
0000
0000
0103
0000
0001
0000
,
0100
0010
0000
0100
0000
0000
0010
1000
,
0010
0100
0000
0010
0000
0000
1000
0100
,
0010
0100
0000
1000
0000
0200
0000
0000
,
0310
0001
0100
0000
1010
0000
0010
0100
,
0000
0001
0000
1000
0000
0020
0000
0000
,
0031
0000
0010
0000
1000
0000
0100
0001
,
0000
0100
0000
1000
0000
1010
0000
0000
,
0101
0000
0001
0010
0100
1000
0010
0100
,
0001
0100
0000
0010
0000
0000
0100
0010
,
1000
0010
0000
0100
0000
0000
0001
0010
,
0100
0010
0000
0100
0000
0020
0000
0000
,
0031
0100
0010
0000
1000
0000
0001
0100
,
0000
0010
0000
1000
0000
0200
0000
0000
,
0310
0000
0100
0000
1000
0000
0010
0001
,
0000
0010
0000
1000
0000
1100
0000
0000
,
0011
0000
0001
0100
0010
1000
0001
0000
,
0000
0100
0000
0000
1000
0000
0000
0010
,
0001
0000
1000
0000
0000
0100
0000
0000
,
0001
0000
0000
0010
1000
0000
0001
0100
,
0000
0100
0010
0000
0010
1000
0000
1000
,
0001
0000
1000
0100
0000
0100
0010
0000
,
0010
0001
0000
0001
1000
0000
0220
0000
,
0000
0000
0330
0010
,
0000
1000
0000
0000
0100
0000
0001
0000
,
0010
0100
0001
0010
,
1000
0100
0000
0100
1000
0000
0020
0000
,
0000
0031
0100
0000
1010
0000
0001
0010
,
0100
0000
0010
0000
0010
0000
1000
0100
,
0010
0000
0100
0000
0100
0000
0001
0100
,
0010
0000
0000
0000
1000
0000
0010
0000
0100
0000
0000
0000
0010
1000
0001
0000
,
0100
0001
1000
0000
2002
0000
0000
0000
3003
0000
0000
0000
1010
0000
0000
0000
,
0110
0000
0101
0000
0001
0010
0100
0000
,
0100
1000
0020
0000
0230
0000
0000
0001
,
0000
0000
1000
0000
0000
0010
0000
0000
,
0301
2002
3003
0011
,
0110
0000
1100
0000
1000
0010
0100
0000
,
0001
0100
0020
0000
2030
0000
0000
0100
,
0000
0000
0000
0000
3001
0000
0001
0010
1000
0000
0100
0000
0010
0000
0000
0000
,
1000
0100
0000
0100
0001
0000
0001
0100
,
0000
1000
0000
0010
0001
1000
0001
0000
,
0001
0100
0000
0100
1000
0000
1000
0100
,
0000
0001
0000
0010
1000
0001
1000
0000
,
0001
0010
0000
0010
1000
0000
1000
0100
,
0000
0001
0000
0010
0100
0010
0001
0000
,
1000
0010
0000
0010
0001
0000
0001
0100
,
0000
1000
0000
0010
0100
0001
0100
0010
,
1000
0100
0000
0001
0000
0000
0100
0010
,
1000
0100
0000
0001
0000
0000
0100
0010
,
1000
0100
0000
0001
0000
0020
0000
0000
,
1030
0001
1000
0100
0010
0001
0100
0010
,
0000
1000
0000
0001
0000
0020
0000
0000
,
0130
1000
0010
0002
,
0000
0203
0000
0000
2300
0000
3002
0000
,
0000
0203
0000
0310
0110
0000
1000
0001
,
0010
1000
0000
0100
0000
0000
1000
0001
,
0010
1000
0000
0100
0000
0000
1000
0001
,
0010
1000
0000
0100
0000
0002
0000
0000
,
0013
0100
1000
0100
0010
0001
0100
0000
,
0100
1000
1000
0010
,
0010
0000
0000
0001
0000
0000
0001
0000
0000
1000
0000
0010
,
0000
0000
0100
0000
0000
0000
0001
0000
0000
0000
0010
0000
0000
0000
0100
0000
0000
0000
1000
0000
0000
0200
0000
0000
,
0000
1300
0010
0100
0001
1000
0010
0010
,
0000
0100
0100
0000
0001
0001
0000
1000
,
1000
0100
0010
0001
0000
0100
0010
0000
,
1000
0100
0000
1000
0010
0100
0001
0010
,
0000
1000
0100
0000
0001
0010
0000
1000
,
0100
0010
0001
0100
0000
1000
0010
0000
,
0001
0100
0000
1000
0010
0100
2002
0000
,
0000
0000
3003
0110
;

//---------------dance-double - ----------------
#NOTES:
     dance-double:
     :
     Medium:
     12:
     0.516575,0.659320,0.181179,0.241571,0.037746,479.000000,455.000000,24.000000,32.000000,0.000000,0.000000,0.516575,0.659320,0.181179,0.241571,0.037746,479.000000,455.000000,24.000000,32.000000,0.000000,0.000000:
// measure 0
00000000
00000000
00000000
00000000
,  // measure 1
00000000
00000000
00000000
00000000
,  // measure 2
00000000
00000000
00000000
00000000
,  // measure 3
00000000
00000000
00000000
00000000
,  // measure 4
00000000
00000000
00000000
00000000
00001000
00000000
00000000
00001000
,  // measure 5
00000000
00000000
00001000
00000000
00000000
00010000
00000010
00010000
,  // measure 6
00010000
00000000
00000000
00010000
00000000
00000000
00010000
00000000
,  // measure 7
00000000
00001000
00100000
00001000
00001000
00000000
00000000
00010000
,  // measure 8
00000000
00000000
00001000
00000000
00000000
00010000
00000100
00010000
,  // measure 9
00010000
00000000
00000000
00001000
00000000
00000000
00010000
00000000
,  // measure 10
00000000
00001000
01000000
00001000
00022000
00000000
00000000
00000000
,  // measure 11
00000000
00000000
00033000
00000000
00010000
00000000
00000000
00001000
,  // measure 12
00000000
00000100
00000001
00000010
,  // measure 13
00000001
00000000
00000100
00000000
00001000
00000000
00010000
01000000
,  // measure 14
00000000
01000000
00010000
00000000
00002000
00000000
00000000
00013000
,  // measure 15
00000010
00000000
00000100
00000000
00000110
00000000
00000000
00000001
,  // measure 16
00000000
00001000
00000110
00001000
,  // measure 17
00000001
00000000
00000010
00000000
00001000
00000000
00010000
00100000
,  // measure 18
00000000
00100000
00010000
00000000
00002000
00000000
00000000
00013000
,  // measure 19
00000100
00000000
00000110
00000000
00000001
00001000
00000001
00001000
,  // measure 20
00000000
00000000
00000010
00000000
00010000
00001000
00000000
00100000
,  // measure 21
00000000
00010000
00000000
00000000
10000000
00010000
10000000
00010000
,  // measure 22
00000000
01000000
00001000
00010000
00001000
00010000
00000000
00000100
,  // measure 23
00000000
00001000
00000001
00000000
00000100
00000010
00000100
00000010
,  // measure 24
00000000
00000000
00010000
00000100
00001000
00000000
00000100
00010000
,  // measure 25
00000000
00000000
00001000
01000000
00010000
00000000
01000000
00001000
,  // measure 26
00000000
00000000
01000000
00000000
00100000
00000000
01000000
00000000
00100000
10000000
01000000
00000000
01000000
00010000
00001000
00000000
,  // measure 27
00010000
00000000
00000000
00000100
00000000
00000000
00001000
00000000
,  // measure 28
00000000
00000001
00000010
00000000
00001000
00000000
00000000
00010000
,  // measure 29
00000000
00000000
00100000
00000000
00000000
10000000
01000000
00000000
,  // measure 30
10000000
00000000
00000000
00100000
00000000
00000000
01000000
00000000
,  // measure 31
00000000
00001000
00010000
00000000
00000100
00000000
00000000
00001000
,  // measure 32
00000000
00000000
00000010
00000000
00000000
00010000
00001000
00000000
,  // measure 33
00011000
00000000
00020000
00000000
00000000
00000000
00000000
00032000
00000000
00000000
00000000
00000000
01003000
00000000
00010000
00000000
,  // measure 34
01000000
00100000
00000000
10000000
00000000
00000000
01000000
10000000
,  // measure 35
01000000
00100000
00000000
00010000
00000000
00000000
00100000
00001000
,  // measure 36
00010000
00001000
00000000
00000010
00000000
00000002
00000000
00000000
,  // measure 37
00001003
00000010
00010000
00000000
00011000
00000000
00001000
00100000
,  // measure 38
00000000
00010000
00000000
01000000
00000000
00200000
00000000
00000000
,  // measure 39
10300000
00000000
01000000
00000000
00010000
00000000
00001000
00010000
,  // measure 40
00000000
00000100
00000000
00001000
00000000
00001010
00000000
00000000
,  // measure 41
00000101
00000000
00000001
00001000
00000100
00001000
00000100
00010000
,  // measure 42
00001000
00010000
00000000
00000010
00000000
00000000
00001000
00000001
,  // measure 43
00001000
00000100
00000000
00010000
00000000
00000000
00001000
00010000
,  // measure 44
00100000
00010000
00000000
00001000
00000000
00200000
00000000
00000000
,  // measure 45
01300000
10000000
00100000
00000000
00010000
00000000
00001000
00000010
,  // measure 46
00000000
00000001
00000000
00001000
00000000
00000020
00000000
00000000
,  // measure 47
00010030
00000000
00001000
00000000
00100000
00000000
01000000
10000000
,  // measure 48
00000000
00100000
00000000
01000000
00000000
01010000
00000000
00000000
,  // measure 49
10100000
00000000
10000000
01000000
00100000
01000000
00010000
00000000
,  // measure 50
00000000
00001000
00000000
00000000
00000100
00000000
00000000
00000001
,  // measure 51
00000010
00000000
00001000
00000000
00000000
00010000
00000000
00000000
,  // measure 52
01000000
00000000
00000000
10000000
00100000
00000000
01000000
00001000
,  // measure 53
00000000
00001000
00010000
00000000
00010000
00000100
00000000
00000100
,  // measure 54
00000010
00000000
00000010
00000001
00000000
00000001
00000100
00000000
,  // measure 55
00000100
00001000
00000000
00001000
00010000
00000000
00022000
00000000
,  // measure 56
00000000
00000000
00033000
00001000
,  // measure 57
00000000
00100000
00000000
00000000
01000000
00000000
10000000
00000000
,  // measure 58
00100000
00010000
00001000
00100000
,  // measure 59
01000000
00010000
00000000
00010000
01000000
00000000
20000000
00000000
,  // measure 60
00000000
30100000
00010000
00000000
00011000
00000000
00001000
00010000
,  // measure 61
00000010
00000000
00001000
00000000
00001000
00000000
00000010
00010000
,  // measure 62
00001000
00000000
00010000
00000000
00010000
00000000
01000000
10000000
,  // measure 63
00100000
00000000
00000000
00000000
00010000
00000000
00001000
00000000
00000010
00000000
00000000
00000000
00000001
00001000
00000100
00000000
,  // measure 64
00000100
00000010
00000001
00000000
00002002
00000000
00000000
00000000
00003003
00000000
00000000
00000000
00001010
00000000
00000000
00000000
,  // measure 65
00000110
00000101
00000001
00000010
,  // measure 66
00001000
00000000
00020000
00000000
00030200
00000000
00000000
00001000
,  // measure 67
00000000
00000000
00000001
00000000
00000000
00001000
00000000
00000000
,  // measure 68
00010300
00022000
00033000
00101000
,  // measure 69
00010100
00011000
00001000
00010000
,  // measure 70
00100000
00000000
20000000
00000000
32000000
00000000
00000000
00100000
,  // measure 71
00000000
00000000
00000000
00000000
03010000
00000000
00010000
00001000
00000010
00000000
00000001
00000000
00001001
00000000
00000000
00000000
,  // measure 72
00001000
00000010
00000000
00000010
00010000
00000000
00010000
00001000
,  // measure 73
00000000
00100000
00000000
01000000
10000000
01000000
00100000
00000000
,  // measure 74
01000000
10000000
00000000
10000000
00100000
00000000
00100000
00010000
,  // measure 75
00000000
00001000
00000000
00010000
00000100
00001000
00000100
00000000
,  // measure 76
00000010
00000001
00000000
00000001
00001000
00000000
00001000
00000010
,  // measure 77
00000000
00010000
00000000
00001000
00010000
00001000
01000000
00000000
,  // measure 78
00100000
10000000
00000000
10000000
01000000
00000000
01000000
00010000
,  // measure 79
00000000
00001000
00000000
00010000
00000100
00010000
00001000
01000000
,  // measure 80
00001000
00010000
00000000
00000100
00000000
00000000
00001000
00000100
,  // measure 81
00000010
00000100
00000000
00000001
00000000
00000000
00000100
00000010
,  // measure 82
00000001
00000010
00000000
00001000
00000000
00020000
00000000
00000000
,  // measure 83
00031000
01000000
00010000
10000000
00010000
01000000
00001000
00010000
,  // measure 84
00000000
00100000
00000000
10000000
00000000
02000000
00000000
00000000
,  // measure 85
03010000
00001000
00000010
00000002
,  // measure 86
00000000
00002003
00000000
00000000
00003020
00000000
00020030
00000000
,  // measure 87
00000000
00032000
00000000
00013000
00011000
00000000
00001000
00010000
,  // measure 88
00100000
01000000
00000000
00100000
00000000
00000000
10000000
01000000
,  // measure 89
00100000
00010000
00000000
00100000
00000000
00000000
00001000
00010000
,  // measure 90
00000100
00000010
00000000
00000100
00000000
00002000
00000000
00000000
,  // measure 91
00003001
00000100
00000001
00000010
00000100
00001000
00000010
00000000
,  // measure 92
00000010
00010000
00010000
00001000
,  // measure 93
00001000
00000000
00000000
00100000
00000000
00000000
00100000
00000000
00000000
01000000
00000000
10000000
,  // measure 94
00000000
00000000
00100000
00000000
00000000
00000000
00010000
00000000
00000000
00000000
00001000
00000000
00000000
00000000
00000100
00000000
00000000
00000000
00000001
00000000
00000000
00000020
00000000
00000000
,  // measure 95
00000000
00000130
00000010
00000001
00001000
00000100
00000010
00000001
,  // measure 96
00000000
00000001
00000100
00000000
00000100
00001000
00000000
00001000
,  // measure 97
00010000
00001000
00010000
01000000
00000000
01000000
10000000
00000000
,  // measure 98
10000000
00100000
00000000
00100000
01000000
00100000
01000000
00001000
,  // measure 99
00000000
00001000
00010000
00000000
00010000
00000010
00000000
00000010
,  // measure 100
00000100
00000010
00000100
00001000
00000000
00001000
00000100
00000000
,  // measure 101
00000100
00000001
00000000
00000001
00000010
00001000
00022000
00000000
,  // measure 102
00000000
00000000
00033000
00011000
;
