#VERSION:0.83;
#TITLE:RA TA TA (feat. Lil Cherry);
#SUBTITLE:;
#ARTIST:Ailee;
#TITLETRANSLIT:;
#SUBTITLETRANSLIT:;
#ARTISTTRANSLIT:;
#GENRE:K-POP;
#ORIGIN:;
#CREDIT:MUINELIM;
#BANNER:RA TA TA (feat. Lil Cherry).png;
#BACKGROUND:RA TA TA (feat. Lil Cherry)-bg.png;
#PREVIEWVID:;
#JACKET:RA TA TA (feat. Lil Cherry)-jacket.png;
#CDIMAGE:;
#DISCIMAGE:;
#LYRICSPATH:;
#CDTITLE:;
#MUSIC:RA TA TA (feat. Lil Cherry).mp3;
#OFFSET:0.061000;
#SAMPLESTART:39.140549;
#SAMPLELENGTH:15.483871;
#SELECTABLE:YES;
#DISPLAYBPM:124.000000;
#BPMS:0.000=124.000;
#STOPS:;
#DELAYS:;
#WARPS:;
#TIMESIGNATURES:0.000=4=4;
#TICKCOUNTS:0.000=4;
#COMBOS:0.000=1;
#SPEEDS:0.000=1.000=0.000=0;
#SCROLLS:0.000=1.000;
#FAKES:;
#LABELS:0.000=Song Start;
#BGCHANGES:0.000=RA TA TA (feat. Lil Cherry).mp4=1.000=0=0=0=StretchNoLoop====,
99999=-nosongbg-=1.000=0=0=0 // don't automatically add -songbackground-
;
#KEYSOUNDS:;
#ATTACKS:
;

//---------------dance-single - ----------------
#NOTEDATA:;
#CHARTNAME:;
#STEPSTYPE:dance-single;
#DESCRIPTION:;
#CHARTSTYLE:;
#DIFFICULTY:Easy;
#METER:6;
#RADARVALUES:0.209164,0.301981,0.083884,0.076258,0.000000,192.000000,181.000000,11.000000,10.000000,0.000000,0.000000,0.000000,0.000000,0.000000,0.209164,0.301981,0.083884,0.076258,0.000000,192.000000,181.000000,11.000000,10.000000,0.000000,0.000000,0.000000,0.000000,0.000000;
#CREDIT:;
#DISPLAYBPM:124.000000;
#NOTES:
0000
0000
0000
0000
,
0000
0000
0000
0000
,
0000
0000
0000
0000
,
0000
0000
0000
0000
,
0000
1000
0001
0100
,
0000
0001
1000
0010
,
0000
1000
0001
0010
,
0000
0001
1000
0100
,
0000
1000
0001
1000
,
1000
0010
1000
0010
,
0010
0100
0010
0100
,
0100
0001
0100
0001
,
0001
2000
0000
3000
,
0000
0200
0000
0300
,
0000
0020
0000
0030
,
0000
0002
0000
0003
,
0000
1000
0010
1000
,
0010
0001
0100
0001
,
0100
1000
0010
0001
,
0100
2002
0000
3003
,
0000
1000
0001
1000
,
0010
0100
0100
0100
,
0000
0001
1000
0001
,
0100
0010
0010
0010
,
0000
1001
0000
0100
,
0000
1001
0000
0100
,
0000
0010
0100
0010
,
1000
0100
0010
0001
,
1000
0001
0000
0100
,
0000
1000
0000
1000
,
0000
1000
0000
0010
,
0000
0001
0000
0001
,
0000
0001
1000
0100
,
0000
1000
0001
0010
,
0000
1001
0100
0010
,
0100
0010
0100
0020
,
0000
0130
0000
0001
,
0000
1000
0000
0010
,
0000
0100
0001
0100
,
0010
0010
0000
1000
0000
0010
1000
0000
,
0000
0001
1000
0002
,
0003
0100
0010
0200
,
0300
0010
1000
0100
,
0001
0010
1000
0100
,
0001
0020
0000
0000
,
0000
0000
0000
0030
,
1001
1000
0001
0100
,
1000
0001
0100
0100
,
0000
0001
1000
0010
,
0001
1000
0010
0010
,
0000
0001
0100
0010
,
0001
0100
0010
0010
,
0000
1001
0000
0010
,
0000
1001
0000
0010
,
0000
1000
0010
0100
,
1000
0010
0100
0100
,
0000
1000
0000
0001
,
0000
0100
0000
0010
,
0000
1000
0100
0110
,
0010
0001
1000
1001
,
0001
1000
0001
0000
0000
0000
0100
0000
,
0000
0010
0000
1000
,
0000
1001
0010
0001
,
0100
1000
0010
0010
,
0000
1001
0000
0000
,
0000
0000
0000
0000
0000
1000
0001
1000
,
0001
0000
0000
0000
;

//---------------dance-single - ----------------
#NOTEDATA:;
#CHARTNAME:;
#STEPSTYPE:dance-single;
#DESCRIPTION:;
#CHARTSTYLE:;
#DIFFICULTY:Medium;
#METER:10;
#RADARVALUES:0.408524,0.427807,0.259277,0.183019,0.224961,375.000000,341.000000,34.000000,24.000000,0.000000,0.000000,0.000000,0.000000,0.000000,0.408524,0.427807,0.259277,0.183019,0.224961,375.000000,341.000000,34.000000,24.000000,0.000000,0.000000,0.000000,0.000000,0.000000;
#CREDIT:;
#DISPLAYBPM:124.000000;
#NOTES:
0000
0000
0000
0000
,
0000
0000
0000
0000
,
0000
0000
0000
0000
,
0000
0000
0000
0000
,
0000
0000
1001
0000
0001
0010
0100
1000
,
0000
1100
0000
0001
1000
0100
0010
0001
,
0000
0011
0000
1000
0001
0010
0100
1000
,
0000
1000
0010
0100
0001
0100
0010
1000
,
0100
0000
0110
0000
0010
0001
0010
0100
,
1000
0001
0000
0100
0010
1000
0010
0100
,
0001
1000
0000
0100
0010
0001
1000
0100
,
0010
0010
0001
0100
0010
1000
0001
0000
,
1001
2000
0010
0001
,
3100
0000
0000
0100
0000
0100
0010
0000
0010
0001
0000
0001
,
2000
3002
0100
1000
,
0013
0000
0000
0010
0000
0010
0100
0000
0100
1000
0000
1000
,
0001
0000
1001
0000
1000
0010
0100
0001
,
1000
0000
0000
0010
0100
0000
0000
0000
0001
0000
0100
0000
0010
0000
1000
0000
,
0002
0000
0103
0000
0100
0001
0010
0100
,
1000
0010
0200
0000
0000
0000
0020
0000
,
0330
0000
1001
0000
0010
0100
0010
0000
,
1000
0000
0000
0010
0000
0100
0000
0001
0000
0000
1000
0000
0010
0000
0000
0000
,
0110
0000
1001
0000
0100
0010
0100
0000
,
0001
0000
0000
0100
0000
0010
0000
1000
0000
0000
0001
0000
0100
0000
0000
0000
,
0110
0000
1000
1000
0000
0100
0020
0000
,
0031
0000
0001
0001
0000
0100
0020
0000
,
1030
0000
1100
0000
0010
0001
0010
0000
,
0001
0000
0000
0100
0000
0010
0000
1000
0000
0000
0001
0000
0010
0000
0000
0000
,
1100
0000
0000
1000
0000
0000
0010
0000
0100
0001
0000
0001
,
0010
0000
0010
0100
0000
1000
0000
0001
0000
1001
0000
0000
,
0100
0000
0000
0110
0000
0000
0010
0000
1000
0100
0000
0000
,
0010
0000
0001
0100
0000
0000
0010
0000
1000
0001
0000
0000
,
0100
0000
0000
0001
0000
0000
0100
0000
0000
0000
0100
0000
0010
0000
0000
0000
0010
0000
1000
0000
0000
0000
0000
0000
,
0100
0000
0000
0010
0000
0001
0100
0000
0100
0010
0000
0000
,
1000
0000
0000
0001
0000
0000
0010
0000
0100
0010
0000
0000
,
0100
0000
0000
0000
0000
0000
0000
0000
1000
0000
0000
0000
0010
0000
0000
0000
0000
0000
0000
0000
0010
0000
0000
0000
0100
0000
0000
0000
0000
0000
0000
0000
0100
0000
0000
0000
0001
0000
0000
0000
0000
0000
0000
0000
0000
1000
0000
0000
,
0000
0001
1001
0000
1000
0000
0010
0000
,
0001
0100
1000
0010
,
0001
0200
1300
0020
,
0031
0001
0000
0100
0000
0010
1000
0000
,
1001
0000
0001
0000
0100
0010
0000
0001
,
0010
0000
0100
0000
0010
0100
0000
1000
,
0100
0010
2000
3200
,
0320
0032
2003
3020
,
0230
0302
0000
0000
,
0000
1000
1000
1003
,
1001
0000
0110
0000
0010
0100
0001
0000
,
0010
0000
0000
0100
0000
1000
0000
0010
0000
0000
0100
0000
0001
0000
0000
0000
,
1001
0000
1000
0000
0100
0010
0001
0000
,
0100
0000
0000
0010
0000
1000
0000
0001
0000
0000
0010
0000
0100
0000
0000
0000
,
0110
0000
0100
0000
1000
0001
0100
0000
,
0010
0000
0000
1000
0000
0100
0000
0010
0000
0000
0001
0000
0100
0000
0000
0000
,
0110
0000
0010
2000
0000
3001
0001
0000
,
0110
0000
0100
0002
0000
1003
1000
0000
,
0110
0000
0010
0000
1000
0100
0001
0000
,
1000
0000
0000
0010
0000
0001
0000
0100
0000
0000
0010
0000
1000
0000
0000
0000
,
1001
0000
0000
0001
0000
0000
0100
0000
0010
1000
0000
0000
,
0100
0000
0000
0010
0000
0001
0100
0000
0100
0010
0000
0010
,
1000
0100
2100
0000
3001
0000
0012
0000
,
1003
0010
0210
0000
0301
0000
0120
0000
,
1030
0000
0000
1001
0000
0000
0001
0000
0100
0010
0000
0000
,
1000
0000
0000
0100
0000
0010
0001
0000
0001
1000
0000
0010
,
0100
0001
0011
0000
0100
1000
0100
0000
,
1100
0000
0000
1000
0000
0010
0000
0100
0000
0000
0001
0000
0010
0000
0001
0000
,
0101
0000
1010
0000
1000
0100
0001
0000
,
0010
0000
0000
1000
0000
0100
0000
0010
0000
0000
0001
0000
1000
0000
0001
0000
,
1001
0000
0000
0000
;

//---------------dance-single - ----------------
#NOTEDATA:;
#CHARTNAME:;
#STEPSTYPE:dance-single;
#DESCRIPTION:;
#CHARTSTYLE:;
#DIFFICULTY:Hard;
#METER:13;
#RADARVALUES:0.567576,0.578797,0.442296,0.404167,0.529992,521.000000,463.000000,58.000000,53.000000,0.000000,0.000000,0.000000,0.000000,0.000000,0.567576,0.578797,0.442296,0.404167,0.529992,521.000000,463.000000,58.000000,53.000000,0.000000,0.000000,0.000000,0.000000,0.000000;
#CREDIT:;
#DISPLAYBPM:124.000000;
#NOTES:
0000
0000
0000
0000
,
0000
0000
0000
0000
,
0000
0000
0000
0000
,
0000
0000
0000
0000
,
0000
0000
1001
0001
1000
0100
0010
0002
,
0000
0000
0103
0010
0100
0000
0001
0100
0001
0000
1000
0010
1000
0000
0100
0000
,
0000
0000
0110
0000
0000
0000
0010
0001
0010
0000
0100
0000
1000
0000
0200
0000
,
0000
0000
1300
0001
1000
0001
1000
0000
0010
0000
0100
0001
0100
0001
0100
0000
,
0020
0000
1030
0000
1000
0000
0100
0000
0010
0000
0001
0100
0001
0000
1000
0000
,
1100
0000
0002
0000
0000
0000
0103
0000
0110
0000
0010
1000
0010
0000
0100
0000
,
0001
0010
0002
0000
0000
0000
0103
0000
0010
0000
1000
0000
0002
0000
0013
0000
,
0200
1300
1010
0010
0110
0100
0101
0001
,
1000
0100
2000
0000
3010
0000
0000
0000
0001
0000
0000
0000
0100
0000
0000
0000
,
1000
0000
0000
0010
0100
0001
0100
0000
0100
0010
0000
0010
,
2000
3100
0001
0010
,
1000
0000
0000
0100
0010
0100
1000
0001
1000
0100
0000
0100
,
0020
0032
0103
2000
,
3010
0002
0013
2000
,
3100
0000
0000
0110
0000
0000
0001
0100
0010
1000
0100
0010
,
0001
0000
0100
0000
0010
0000
2000
0000
0000
0000
0000
0000
0000
0000
0000
0000
0000
0000
3001
0000
0000
0100
0000
0000
,
0010
0100
0010
0000
0110
0000
0000
0000
1000
0000
0100
0000
0002
0000
0000
0000
,
0103
0000
1000
0010
0000
0100
0000
0010
0000
1000
0001
0000
0010
0000
0100
0000
,
1000
0010
0100
0000
0110
0000
0000
0000
0001
0000
0010
0000
2000
0000
0000
0000
,
3010
0000
0001
0100
0000
0010
0000
0100
0000
0001
1000
0000
0100
0000
0020
0000
,
0031
0000
0001
0100
0010
0000
2010
0000
0000
0000
0001
0000
3001
0000
0000
0000
,
0000
0000
0001
0100
0010
0000
2010
0000
0000
0000
3100
0000
0100
0010
0100
0010
,
0002
0000
1003
0000
1000
0010
0002
0000
,
0013
0000
1000
0100
0000
0001
0000
0100
0000
1000
0010
0000
0100
0000
0001
0000
,
1000
0000
0000
0100
0000
0000
1000
0000
0000
0000
0000
0000
0020
0000
0000
0000
0000
0000
0000
0000
0000
0000
0000
0000
0130
0000
0000
0000
0001
0000
0000
0000
1000
0000
0000
0000
0100
0000
0000
0000
0010
0000
0000
0000
0001
0000
0000
0000
,
0200
0000
0000
0310
0000
1010
0000
1100
0000
0101
0000
0000
,
0001
0000
0000
0000
1000
0000
0000
0000
0100
0000
0000
0000
0010
0000
0000
0000
0000
0000
0000
0000
0000
0011
0000
0000
0000
0000
0000
0000
0000
0000
0101
0000
0000
0000
0000
0000
0000
0000
0000
0000
0100
0000
0000
0000
1000
0000
0000
0000
,
0010
0100
0001
0010
1000
0010
0001
0100
0010
2000
0000
0000
,
3001
0000
0000
0010
0000
0000
0100
0000
0000
0000
0000
0000
1000
0000
0000
0000
0010
0000
0000
0000
0001
0000
0000
0000
0010
0000
0000
0000
0100
0000
0000
0000
0010
0000
0000
0000
1000
0000
0000
0000
0000
0000
0000
0000
0000
0000
0000
0000
,
0001
0100
1000
0100
0010
0100
0001
0010
0100
1000
0010
0100
,
0001
0000
1000
1200
0000
0000
0310
0001
1000
0020
0000
0000
,
0130
0000
0000
0000
0001
0000
0000
0000
0010
0000
0000
0000
0100
0000
0000
0000
0010
0000
0000
0000
0001
0000
0000
0000
0010
0000
0000
0000
1000
0000
0000
0000
0010
0000
0000
0000
0001
0000
0000
0000
0000
0000
0000
0000
0000
0101
0000
0000
,
0000
0000
0000
1100
0000
0000
2002
0000
0000
3003
0000
0000
0001
0000
0100
0000
0010
0000
1000
0000
0000
0000
0000
0000
,
0100
0000
0000
0001
0000
0000
1000
0010
0100
0001
0000
0000
,
0010
2000
3020
0230
,
0301
0011
0000
1010
0000
1100
1001
0000
,
0110
0000
0000
0000
0010
0000
1000
0000
0001
0000
0200
0000
0000
0000
0310
1000
,
0010
0000
0000
0000
0000
0000
0000
0000
0100
0000
0002
0000
0000
0000
0013
0100
,
0010
0000
1001
0000
1000
0010
0001
1000
,
0100
0001
0010
1000
0001
0100
1000
0010
,
0100
0001
0020
0000
1000
1000
1000
0000
,
0100
0000
0001
0000
0100
0100
0130
0000
,
1001
0000
0220
0330
1010
0100
0101
0000
,
1001
0000
0001
0100
0000
1000
0000
0100
0000
0010
0100
0000
0001
0000
0020
0000
,
0130
0000
1001
0000
0011
0100
1100
0000
,
1001
0000
1000
0100
0000
0001
0000
0100
0000
0010
0100
0000
1000
0000
0010
0100
,
0001
1000
1010
0000
0011
1000
1100
0000
,
0101
0000
0001
0010
0000
1000
0000
0001
0000
0100
1000
0000
0010
0000
0100
0001
,
1000
0000
0010
1000
0001
0000
0200
0000
0000
0000
0310
0000
1010
0000
0000
0000
,
0110
0000
0100
0001
1000
0000
0020
0000
0000
0000
0130
0000
0100
0001
0100
0001
,
0010
0000
0110
0000
1100
0010
0101
0000
,
1010
0000
0100
0001
0000
1000
0000
0010
0000
0001
1000
0000
0100
0000
0001
0000
,
0010
0000
0000
0100
0000
0000
0010
0000
0000
0000
0000
0000
0200
0000
0000
0000
0000
0000
0000
0000
0000
0000
0000
0000
1300
0000
0000
0000
0010
0000
0000
0000
0100
0000
0000
0000
0101
0000
0000
0000
0000
0000
0000
0000
0000
0000
0000
0000
,
0021
0000
0000
0000
0000
0000
0000
0000
0000
0000
0000
0000
0130
0000
0000
0000
1000
0000
0000
0000
0010
0000
0000
0000
0100
0000
0000
0000
0001
0000
0000
0000
1000
0000
0000
0000
0100
0000
0000
0010
0000
0000
0100
0000
0000
0000
0000
0000
,
1000
0001
0201
0000
0320
0000
2030
0000
,
3001
0010
0200
0000
2300
0000
3002
0000
,
0103
0000
0000
0010
0000
0000
0100
0000
0000
0000
0000
0000
0110
0000
0000
0000
0000
0000
0000
0000
0000
0000
0000
0000
1000
0000
0000
0000
0100
0000
0000
0000
0010
0000
0000
0000
0011
0000
0000
0000
0000
0000
0000
0000
0000
0000
0000
0000
,
1001
0000
0000
0000
0000
0000
0000
0000
0000
0000
0000
0000
1000
0000
0000
0000
0010
0000
0000
0000
0001
0000
0000
0000
0010
0000
0000
0000
0100
0000
0000
0000
0010
0000
0000
0000
1000
0000
0000
0100
0000
0000
1000
0000
0000
0100
0000
0000
,
0020
0030
0011
0000
1010
0001
1100
0000
,
0101
0000
1000
0100
0000
0001
0000
1000
0000
0010
0001
0000
0100
0000
0010
0000
,
1000
0100
0010
0000
0012
0000
0000
0000
0100
0000
0100
0000
1003
0000
0000
0000
,
1010
0000
0001
0010
0000
0100
0000
1000
0100
0000
0002
0000
0023
0000
0230
0000
,
1300
0000
0000
0000
;

//---------------dance-single - ----------------
#NOTEDATA:;
#CHARTNAME:;
#STEPSTYPE:dance-single;
#DESCRIPTION:;
#CHARTSTYLE:;
#DIFFICULTY:Beginner;
#METER:3;
#RADARVALUES:0.117655,0.176156,0.022877,0.007626,0.000000,108.000000,105.000000,3.000000,1.000000,0.000000,0.000000,0.000000,0.000000,0.000000,0.117655,0.176156,0.022877,0.007626,0.000000,108.000000,105.000000,3.000000,1.000000,0.000000,0.000000,0.000000,0.000000,0.000000;
#CREDIT:;
#DISPLAYBPM:124.000000;
#NOTES:
0000
0000
0000
0000
,
0000
0000
0000
0000
,
0000
0000
0000
0000
,
0000
0000
0000
0000
,
0000
1000
0000
0000
,
0000
1000
0000
0000
,
0000
0001
0000
0000
,
0000
0001
0000
0000
,
0000
0100
0000
0000
,
0000
0100
0000
0000
,
0000
0010
0000
0000
,
0000
0010
0000
0000
,
0000
1000
0000
0000
,
0000
0100
0000
0000
,
0000
0010
0000
0000
,
0000
0001
0000
0000
,
0000
0100
0000
0100
,
0000
0010
0000
0010
,
0000
1000
0000
0001
,
0000
1000
0000
0001
,
0000
1000
0000
1000
,
0000
1000
1000
1000
,
0000
0001
0000
0001
,
0000
0001
0001
0001
,
0000
0100
0000
0010
,
0000
0100
0000
0010
,
0000
1000
0000
0001
,
0000
0100
0100
0010
,
0000
1001
0000
0000
,
0000
0000
0000
0000
,
0000
1000
0000
1000
,
0000
1000
0000
1000
,
0000
0001
0000
0001
,
0000
0001
0000
0001
,
0000
1000
0000
0001
,
0000
1000
0000
0001
,
0000
0100
0000
0000
,
0000
0010
0000
0000
,
0000
0100
0000
0100
,
0000
0100
0000
0100
,
0000
0010
0000
0000
,
0000
0010
0000
0000
,
0000
0020
0000
0000
,
0000
0000
0000
0030
,
0000
1001
0000
0000
,
0000
0000
0000
0000
,
0000
1000
0000
0001
,
0000
1000
0000
0001
,
0000
0100
0000
0010
,
0000
0100
0100
0100
,
0000
0010
0000
0100
,
0000
0010
0010
0010
,
0000
1000
0000
0001
,
0000
1000
0000
0001
,
0000
0100
0000
0010
,
0000
1000
1000
0001
,
0000
1000
0000
0100
,
0000
0010
0000
0001
,
0000
0100
0000
0010
,
0000
0100
0000
0100
,
0000
0001
0000
0010
,
0000
0100
0000
1000
,
0000
0010
0000
0100
,
0000
0010
0010
0010
,
0000
1001
0000
0000
,
0000
0000
0000
1000
,
0001
0000
0000
0000
;

//---------------dance-double - ----------------
#NOTEDATA:;
#CHARTNAME:;
#STEPSTYPE:dance-double;
#DESCRIPTION:;
#CHARTSTYLE:;
#DIFFICULTY:Hard;
#METER:14;
#RADARVALUES:0.562129,0.578797,0.404167,0.404167,0.529992,516.000000,463.000000,53.000000,53.000000,0.000000,0.000000,0.000000,0.000000,0.000000,0.562129,0.578797,0.404167,0.404167,0.529992,516.000000,463.000000,53.000000,53.000000,0.000000,0.000000,0.000000,0.000000,0.000000;
#CREDIT:;
#DISPLAYBPM:124.000000;
#NOTES:
// measure 0
00000000
00000000
00000000
00000000
,  // measure 1
00000000
00000000
00000000
00000000
,  // measure 2
00000000
00000000
00000000
00000000
,  // measure 3
00000000
00000000
00000000
00000000
,  // measure 4
00000000
00000000
00011000
00010000
00001000
00100000
00010000
02000000
,  // measure 5
00000000
00000000
03100000
10000000
00100000
00000000
01000000
00010000
01000000
00000000
00001000
00010000
00001000
00000000
00000100
00000000
,  // measure 6
00000000
00000000
00000110
00000000
00000000
00000000
00000010
00001000
00000010
00000000
00000100
00000000
00000001
00000000
00000020
00000000
,  // measure 7
00000000
00000000
00001030
00010000
00001000
00010000
00100000
00000000
10000000
00000000
01000000
00100000
01000000
00100000
00010000
00000000
,  // measure 8
02000000
00000000
03001000
00000000
00001000
00000000
00010000
00000000
00100000
00000000
10000000
01000000
10000000
00000000
00100000
00000000
,  // measure 9
00010000
00000000
00002000
00000000
00000000
00000000
00103000
00000000
01000000
00000000
00010000
00001000
00010000
00000000
00000100
00000000
,  // measure 10
00000010
00000001
00000020
00000000
00000000
00000000
00001030
00000000
00010000
00000000
01000000
00000000
10000000
00000000
00100000
00000000
,  // measure 11
00010000
00001000
01001000
00010000
00010010
00001000
00011000
00010000
,  // measure 12
00000100
00000010
00000200
00000000
00001300
00000000
00000000
00000000
00000001
00000000
00000000
00000000
00000100
00000000
00000000
00000000
,  // measure 13
00001000
00000000
00000000
00010000
00001000
00010000
00100000
00000000
00100000
10000000
00000000
10000000
,  // measure 14
02000000
03100000
00001000
00010000
,  // measure 15
00000100
00000000
00000000
00000010
00000001
00000010
00000100
00001000
00000100
00010000
00000000
00010000
,  // measure 16
00002000
00023000
00030010
00002000
,  // measure 17
00103000
00020000
00030100
00002000
,  // measure 18
01003000
00000000
00000000
00011000
00000000
00000000
00010000
00000100
00010000
00001000
00100000
00001000
,  // measure 19
00010000
00000000
00000100
00000000
00000010
00000000
00000002
00000000
00000000
00000000
00000000
00000000
00000000
00000000
00000000
00000000
00000000
00000000
00001003
00000000
00000000
00000010
00000000
00000000
,  // measure 20
00010000
00001000
00010000
00000000
00011000
00000000
00000000
00000000
00001000
00000000
00010000
00000000
02000000
00000000
00000000
00000000
,  // measure 21
13000000
00000000
00100000
01000000
00000000
00100000
00000000
00010000
00000000
00001000
00010000
00000000
00000100
00000000
00000010
00000000
,  // measure 22
00000001
00001000
00000100
00000000
00000110
00000000
00000000
00000000
00000001
00000000
00000010
00000000
00002000
00000000
00000000
00000000
,  // measure 23
00013000
00000000
00100000
01000000
00000000
00100000
00000000
10000000
00000000
01000000
00010000
00000000
00001000
00000000
00100000
00000000
,  // measure 24
01000000
00000000
00010000
00001000
00000010
00000000
00000012
00000000
00000000
00000000
00000100
00000000
00000103
00000000
00000000
00000000
,  // measure 25
00000000
00000000
00000100
00000010
00010000
00000000
00012000
00000000
00000000
00000000
00103000
00000000
00100000
01000000
00100000
01000000
,  // measure 26
20000000
00000000
30010000
00000000
00010000
01000000
00002000
00000000
,  // measure 27
00013000
00000000
00000100
00001000
00000000
00000100
00000000
00000010
00000000
00000001
00000100
00000000
00001000
00000000
00010000
00000000
,  // measure 28
00100000
00000000
00000000
01000000
00000000
00000000
00100000
00000000
00000000
00000000
00000000
00000000
20000000
00000000
00000000
00000000
00000000
00000000
00000000
00000000
00000000
00000000
00000000
00000000
31000000
00000000
00000000
00000000
00100000
00000000
00000000
00000000
00010000
00000000
00000000
00000000
01000000
00000000
00000000
00000000
00100000
00000000
00000000
00000000
00010000
00000000
00000000
00000000
,  // measure 29
00002000
00000000
00000000
00003100
00000000
00000101
00000000
00000011
00000000
00001010
00000000
00000000
,  // measure 30
00001000
00000000
00000000
00000000
00010000
00000000
00000000
00000000
01000000
00000000
00000000
00000000
10000000
00000000
00000000
00000000
00000000
00000000
00000000
00000000
00000000
10100000
00000000
00000000
00000000
00000000
00000000
00000000
00000000
00000000
01010000
00000000
00000000
00000000
00000000
00000000
00000000
00000000
00000000
00000000
00010000
00000000
00000000
00000000
00100000
00000000
00000000
00000000
,  // measure 31
01000000
00010000
00001000
00000010
00000100
00001000
00000100
00000010
00000001
00002000
00000000
00000000
,  // measure 32
00003010
00000000
00000000
00000100
00000000
00000000
00000010
00000000
00000000
00000000
00000000
00000000
00001000
00000000
00000000
00000000
00000100
00000000
00000000
00000000
00000010
00000000
00000000
00000000
00001000
00000000
00000000
00000000
00010000
00000000
00000000
00000000
00100000
00000000
00000000
00000000
10000000
00000000
00000000
00000000
00000000
00000000
00000000
00000000
00000000
00000000
00000000
00000000
,  // measure 33
01000000
00100000
00010000
01000000
00001000
00010000
00000010
00001000
00000100
00000010
00000001
00000100
,  // measure 34
00001000
00000000
00010000
00012000
00000000
00000000
00103000
01000000
10000000
00200000
00000000
00000000
,  // measure 35
00310000
00000000
00000000
00000000
00001000
00000000
00000000
00000000
00010000
00000000
00000000
00000000
00100000
00000000
00000000
00000000
00010000
00000000
00000000
00000000
00001000
00000000
00000000
00000000
00000010
00000000
00000000
00000000
00000001
00000000
00000000
00000000
00001000
00000000
00000000
00000000
00000100
00000000
00000000
00000000
00000000
00000000
00000000
00000000
00000000
00000110
00000000
00000000
,  // measure 36
00000000
00000000
00000000
00000011
00000000
00000000
00002002
00000000
00000000
00003003
00000000
00000000
00001000
00000000
00000010
00000000
00010000
00000000
00001000
00000000
00000000
00000000
00000000
00000000
,  // measure 37
01000000
00000000
00000000
01010000
00000000
00000000
00010000
00100000
00001000
00010000
00000000
00000000
,  // measure 38
00000100
00002100
00003002
00000203
,  // measure 39
00000310
00001010
00000000
00011000
00000000
00110000
10010000
00000000
,  // measure 40
01100000
00000000
00000000
00000000
00100000
00000000
10000000
00000000
01000000
00000000
00200000
00000000
00000000
00000000
00301000
00010000
,  // measure 41
00001000
00000000
00000000
00000000
00000000
00000000
00000000
00000000
00010000
00000000
00002000
00000000
00000000
00000000
00003100
00000010
,  // measure 42
00000100
00000000
00001001
00000000
00000001
00000010
00000100
00001000
,  // measure 43
00010000
00100000
01000000
10000000
01000000
00100000
00010000
00001000
,  // measure 44
00000100
00000010
00000012
00000000
00000100
00000100
00000203
00000000
,  // measure 45
00002300
00000000
00023000
00000000
00100000
00100000
00130000
00000000
,  // measure 46
10100000
00000000
02020000
03030000
10010000
01000000
00100000
00000000
,  // measure 47
01100000
00000000
10000000
01000000
00000000
00100000
00000000
00001000
00000000
00010000
00000100
00000000
00000010
00000000
00000002
00000000
,  // measure 48
00001003
00000000
00001010
00000000
00000101
00001000
00000010
00000000
,  // measure 49
00000110
00000000
00000001
00000010
00000000
00000100
00000000
00010000
00000000
00001000
01000000
00000000
00100000
00000000
10000000
01000000
,  // measure 50
00100000
00010000
01010000
00000000
11000000
00010000
00100000
00000000
,  // measure 51
01100000
00000000
10000000
01000000
00000000
00010000
00000000
00001000
00000000
00000010
00000001
00000000
00000100
00000000
00000010
00001000
,  // measure 52
00000010
00000000
00000100
00000001
00000100
00000000
00002000
00000000
00000000
00000000
00013000
00000000
00011000
00000000
00000000
00000000
,  // measure 53
01001000
00000000
01000000
00010000
01000000
00000000
00200000
00000000
00000000
00000000
10300000
00000000
10000000
01000000
10000000
01000000
,  // measure 54
00010000
00000000
00011000
00000000
00010010
00001000
00000100
00000000
,  // measure 55
00000101
00000000
00000010
00001000
00000000
00010000
00000000
01000000
00000000
10000000
00100000
00000000
01000000
00000000
00100000
00000000
,  // measure 56
00010000
00000000
00000000
00001000
00000000
00000000
00010000
00000000
00000000
00000000
00000000
00000000
00000200
00000000
00000000
00000000
00000000
00000000
00000000
00000000
00000000
00000000
00000000
00000000
00000310
00000000
00000000
00000000
00000001
00000000
00000000
00000000
00000100
00000000
00000000
00000000
00001000
00000000
00000000
00000000
00000000
00000000
00000000
00000000
00000000
00000000
00000000
00000000
,  // measure 57
00021000
00000000
00000000
00000000
00000000
00000000
00000000
00000000
00000000
00000000
00000000
00000000
00130000
00000000
00000000
00000000
10000000
00000000
00000000
00000000
01000000
00000000
00000000
00000000
00100000
00000000
00000000
00000000
00010000
00000000
00000000
00000000
01000000
00000000
00000000
00000000
00001000
00000000
00000000
00010000
00000000
00000000
00001000
00000000
00000000
00000000
00000000
00000000
,  // measure 58
00000100
00000001
00000021
00000000
00002030
00000000
00023000
00000000
,  // measure 59
01030000
10000000
00200000
00000000
00320000
00000000
00032000
00000000
,  // measure 60
00003100
00000000
00000000
00000010
00000000
00000000
00000100
00000000
00000000
00000000
00000000
00000000
00000101
00000000
00000000
00000000
00000000
00000000
00000000
00000000
00000000
00000000
00000000
00000000
00000001
00000000
00000000
00000000
00000010
00000000
00000000
00000000
00000100
00000000
00000000
00000000
00001000
00000000
00000000
00000000
00000000
00000000
00000000
00000000
00000000
00000000
00000000
00000000
,  // measure 61
00011000
00000000
00000000
00000000
00000000
00000000
00000000
00000000
00000000
00000000
00000000
00000000
00010000
00000000
00000000
00000000
01000000
00000000
00000000
00000000
00100000
00000000
00000000
00000000
10000000
00000000
00000000
00000000
01000000
00000000
00000000
00000000
00100000
00000000
00000000
00000000
00010000
00000000
00000000
01000000
00000000
00000000
00010000
00000000
00000000
01000000
00000000
00000000
,  // measure 62
00200000
00300000
10100000
00000000
11000000
00010000
00001000
00000000
,  // measure 63
00001010
00000000
00000001
00000100
00000000
00000010
00000000
00001000
00000000
00010000
00100000
00000000
01000000
00000000
10000000
00000000
,  // measure 64
00100000
01000000
00010000
00000000
20010000
00000000
00000000
00000000
31000000
00000000
00100000
00000000
00101000
00000000
00000000
00000000
,  // measure 65
00010100
00000000
00000100
00000010
00000000
00000001
00000000
00000100
00001000
00000000
00020000
00000000
00230000
00000000
02300000
00000000
,  // measure 66
13000000
00000000
00000000
00000000
;

//---------------dance-double - ----------------
#NOTEDATA:;
#CHARTNAME:;
#STEPSTYPE:dance-double;
#DESCRIPTION:;
#CHARTSTYLE:;
#DIFFICULTY:Easy;
#METER:6;
#RADARVALUES:0.197181,0.251651,0.061006,0.099135,0.000000,181.000000,173.000000,8.000000,13.000000,0.000000,0.000000,0.000000,0.000000,0.000000,0.197181,0.251651,0.061006,0.099135,0.000000,181.000000,173.000000,8.000000,13.000000,0.000000,0.000000,0.000000,0.000000,0.000000;
#CREDIT:;
#DISPLAYBPM:124.000000;
#NOTES:
// measure 0
00000000
00000000
00000000
00000000
,  // measure 1
00000000
00000000
00000000
00000000
,  // measure 2
00000000
00000000
00000000
00000000
,  // measure 3
00000000
00000000
00000000
00000000
,  // measure 4
00000000
00001000
00010000
00000010
,  // measure 5
00000000
00010000
00001000
01000000
,  // measure 6
00000000
00001000
00010000
00000100
,  // measure 7
00000000
00010000
00001000
00100000
,  // measure 8
00000000
00001000
00010000
01000000
,  // measure 9
00000000
00010000
00001000
00000010
,  // measure 10
00000000
00001000
00010000
00100000
,  // measure 11
00000000
00010000
00001000
00000100
,  // measure 12
00000001
00000020
00000000
00000030
,  // measure 13
00000000
00002000
00000000
00003000
,  // measure 14
00000000
00020000
00000000
00030000
,  // measure 15
00000000
00200000
00000000
00300000
,  // measure 16
00000000
10000000
01000000
00100000
,  // measure 17
00010000
00100000
00001000
00010000
,  // measure 18
00000100
00001000
00000100
00000010
,  // measure 19
00000001
00002002
00000000
00003003
,  // measure 20
00000000
00000100
00000010
00000100
,  // measure 21
00001000
00010000
00100000
10000000
,  // measure 22
00000000
00100000
01000000
00100000
,  // measure 23
00010000
00001000
00000100
00000001
,  // measure 24
00000000
00001001
00000000
00000100
,  // measure 25
00000000
00001001
00000000
00000010
,  // measure 26
00000000
00001000
00000100
00000010
,  // measure 27
00000001
00000100
00001000
00010000
,  // measure 28
00100000
10000000
00000000
01000000
,  // measure 29
00000000
00200000
00000000
00000000
,  // measure 30
00300000
00001000
00000000
00010000
,  // measure 31
00000000
00000100
00000000
00000010
,  // measure 32
00000000
00000001
00000100
00001000
,  // measure 33
00000000
00000100
00001000
00010000
,  // measure 34
00000000
00001000
00010000
00100000
,  // measure 35
10000000
01000000
00100000
00002000
,  // measure 36
00000000
00013000
00000000
00001000
,  // measure 37
00000000
00000100
00000000
00000001
,  // measure 38
00000000
00000010
00000100
00000010
,  // measure 39
00001000
00010000
01000000
10000000
,  // measure 40
00000000
00100000
00010000
00002000
,  // measure 41
00003000
00000010
00001000
00020000
,  // measure 42
00030000
01000000
00010000
00001000
,  // measure 43
00000100
00001000
00010000
00001000
,  // measure 44
00000100
00000002
00000000
00000000
,  // measure 45
00000000
00000000
00000000
00000003
,  // measure 46
00001001
00001000
00000010
00010000
,  // measure 47
00100000
10000000
01000000
00100000
,  // measure 48
00000000
00010000
01000000
00001000
,  // measure 49
00000100
00000001
00000010
00000100
,  // measure 50
00000000
00000010
00001000
00010000
,  // measure 51
00100000
10000000
01000000
00100000
,  // measure 52
00000000
10010000
00000000
01000000
,  // measure 53
00000000
10010000
00000000
00100000
,  // measure 54
00000000
10000000
01000000
00100000
,  // measure 55
00010000
00001000
00000100
00000010
,  // measure 56
00000000
00000001
00000000
00000100
,  // measure 57
00000000
00001000
00000000
00010000
,  // measure 58
00000000
00100000
20000000
31000000
,  // measure 59
00010000
00001000
00000020
00000031
,  // measure 60
00001000
00000001
00000000
00000100
,  // measure 61
00000000
00001000
00000000
00010000
,  // measure 62
00000000
01000000
10000000
00100000
,  // measure 63
01000000
00010000
00001000
00000010
,  // measure 64
00000000
00001001
00000000
00000000
,  // measure 65
00000000
00000000
00000000
01000000
,  // measure 66
10010000
00000000
00000000
00000000
;

//---------------dance-double - ----------------
#NOTEDATA:;
#CHARTNAME:;
#STEPSTYPE:dance-double;
#DESCRIPTION:;
#CHARTSTYLE:;
#DIFFICULTY:Medium;
#METER:11;
#RADARVALUES:0.403077,0.427807,0.289780,0.167767,0.202083,370.000000,332.000000,38.000000,22.000000,0.000000,0.000000,0.000000,0.000000,0.000000,0.403077,0.427807,0.289780,0.167767,0.202083,370.000000,332.000000,38.000000,22.000000,0.000000,0.000000,0.000000,0.000000,0.000000;
#CREDIT:;
#DISPLAYBPM:124.000000;
#NOTES:
// measure 0
00000000
00000000
00000000
00000000
,  // measure 1
00000000
00000000
00000000
00000000
,  // measure 2
00000000
00000000
00000000
00000000
,  // measure 3
00000000
00000000
00000000
00000000
,  // measure 4
00000000
00000000
00011000
00000000
00010000
01000000
10000000
00100000
,  // measure 5
00000000
00010000
00000000
00010000
00001000
00000100
00000001
00000010
,  // measure 6
00000000
00001000
00000000
00001000
00010000
00100000
10000000
01000000
,  // measure 7
00000000
00010000
00001000
00000100
00000001
00000010
00000100
00001000
,  // measure 8
00000010
00000000
00000101
00000000
00000100
00001000
00010000
00100000
,  // measure 9
10000000
10010000
00000000
10000000
00100000
00010000
00001000
00000010
,  // measure 10
00000001
00001001
00000000
00000001
00000100
00001000
00010000
00100000
,  // measure 11
10000000
01000000
00100000
00010000
01000000
00100000
00010000
00000000
,  // measure 12
00011000
00002000
00100000
01000000
,  // measure 13
00013000
00000000
00000000
00010000
00000000
00010000
00000100
00000000
00000100
00000010
00000000
00000010
,  // measure 14
00002000
00023000
00000100
00000010
,  // measure 15
00031000
00000000
00000000
00001000
00000000
00001000
01000000
00000000
01000000
00100000
00000000
00100000
,  // measure 16
00010000
00000000
00011000
00000000
00001000
00000100
00000001
00000010
,  // measure 17
00000100
00000000
00001001
00000000
00000001
00000100
00001000
00010000
,  // measure 18
00200000
00000000
10300000
00000000
10000000
01000000
00100000
00010000
,  // measure 19
01000000
00001000
00020000
00000000
00000000
00000000
00000020
00000000
,  // measure 20
00030030
00000000
00001001
00000000
00000001
00000100
00001000
00000000
,  // measure 21
00010000
00000000
00000000
00001000
00000000
00010000
00000000
00100000
00000000
00000000
10000000
00000000
01000000
00000000
00000000
00000000
,  // measure 22
00100000
00000000
10010000
00000000
10000000
01000000
00010000
00000000
,  // measure 23
00001000
00000000
00000000
00010000
00000000
00001000
00000000
00000010
00000000
00000000
00000001
00000000
00000100
00000000
00000000
00000000
,  // measure 24
00001001
00000000
00000001
00000010
00000000
00000100
00020000
00000000
,  // measure 25
00031000
00000000
00001000
00100000
00000000
01000000
20000000
00000000
,  // measure 26
30010000
00000000
01010000
00000000
00100000
10000000
00100000
00000000
,  // measure 27
01000000
00000000
00000000
00001000
00000000
00010000
00000000
00000010
00000000
00000000
00001000
00000000
00000100
00000000
00000000
00000000
,  // measure 28
00000011
00000000
00000000
00000001
00000000
00000000
00000100
00000000
00001000
00010000
00000000
00010000
,  // measure 29
00100000
00000000
00100000
10000000
00000000
01000000
00000000
00100000
00000000
10010000
00000000
00000000
,  // measure 30
01000000
01001000
00001000
00010000
,  // measure 31
00100000
00001000
00000010
00010000
,  // measure 32
01000000
00000000
00000000
10000000
00000000
00000000
00100000
00000000
00000000
00000000
00100000
00000000
00010000
00000000
00000000
00000000
00010000
00000000
00001000
00000000
00000000
00000000
00000000
00000000
,  // measure 33
00000100
00000000
00000000
00000001
00000000
00000010
00000100
00000000
00000100
00010000
00000000
00000000
,  // measure 34
00001000
00000000
00000000
00100000
00000000
00000000
01000000
00000000
10000000
00010000
00000000
00000000
,  // measure 35
01000000
00000000
00000000
00000000
00000000
00000000
00000000
00000000
00100000
00000000
00000000
00000000
00010000
00000000
00000000
00000000
00000000
00000000
00000000
00000000
00010000
00000000
00000000
00000000
00001000
00000000
00000000
00000000
00000000
00000000
00000000
00000000
00001000
00000000
00000000
00000000
00000100
00000000
00000000
00000000
00000000
00000000
00000000
00000000
00000000
00000001
00000000
00000000
,  // measure 36
00000000
00001000
00001001
00000000
00000010
00000000
00000100
00000000
,  // measure 37
00001000
00010000
00100000
01000000
,  // measure 38
00010000
20000000
32000000
03020000
,  // measure 39
00031000
00001000
00000000
00000100
00000000
00000001
00000010
00000000
,  // measure 40
00000110
00000000
00001000
00000000
00000100
00000100
00000000
00000010
,  // measure 41
00001000
00000000
00010000
00000000
01000000
01000000
00000000
00100000
,  // measure 42
00010000
01000000
00002000
00103000
,  // measure 43
00020000
00030010
00002000
01003000
,  // measure 44
00020000
00030200
00000000
00000000
,  // measure 45
00000000
00000000
00000000
00000300
,  // measure 46
00000110
00000000
00001001
00000000
00000001
00000100
00001000
00000000
,  // measure 47
01000000
00000000
00000000
00010000
00000000
00100000
00000000
01000000
00000000
00000000
10000000
00000000
00100000
00000000
00000000
00000000
,  // measure 48
01100000
00000000
10010000
00000000
10000000
00100000
00010000
00000000
,  // measure 49
00000010
00000000
00000000
00001000
00000000
00000100
00000000
00000010
00000000
00000000
00000001
00000000
00000100
00000000
00000000
00000000
,  // measure 50
00000110
00000000
00001001
00000000
00000001
00000010
00001000
00000000
,  // measure 51
00010000
00000000
00000000
00000100
00000000
00000010
00000000
00001000
00000000
00000000
00010000
00000000
01000000
00000000
00000000
00000000
,  // measure 52
11000000
00000000
00100000
00002000
00000000
00013000
00000100
00000000
,  // measure 53
00000011
00000000
00000100
00020000
00000000
00031000
00100000
00000000
,  // measure 54
10010000
00000000
10000000
00000000
00100000
00010000
00001000
00000000
,  // measure 55
00000100
00000000
00000000
00000001
00000000
00000010
00000000
00000100
00000000
00000000
00001000
00000000
00010000
00000000
00000000
00000000
,  // measure 56
01010000
01000000
00100000
10000000
,  // measure 57
10010000
00000000
00000000
00010000
00000000
01000000
00001000
00000000
00001000
00010000
00000000
00010000
,  // measure 58
00000100
00000010
00000012
00000000
00001003
00000000
00001200
00000000
,  // measure 59
00010300
00001000
02001000
00000000
03010000
00000000
00120000
00000000
,  // measure 60
10030000
10100000
00100000
00010000
,  // measure 61
00011000
00000000
00000000
00001000
00000000
00000100
00000001
00000000
00000001
00000010
00000000
00000010
,  // measure 62
00001000
00010000
00011000
00000000
00001000
00100000
01000000
00000000
,  // measure 63
10010000
00000000
00000000
10000000
00000000
00100000
00000000
00010000
00000000
00000000
00001000
00000000
00000100
00000000
00000001
00000000
,  // measure 64
00000011
00000000
00001100
00000000
00000001
00000100
00000010
00000000
,  // measure 65
00001000
00000000
00000000
00010000
00000000
01000000
00000000
00100000
00000000
00000000
10000000
00000000
00010000
00000000
10000000
00000000
,  // measure 66
10010000
00000000
00000000
00000000
;
