#VERSION:0.83;
#TITLE:Queencard;
#SUBTITLE:;
#ARTIST:(G)I-DLE;
#TITLETRANSLIT:;
#SUBTITLETRANSLIT:;
#ARTISTTRANSLIT:;
#GENRE:K-POP;
#ORIGIN:;
#CREDIT:MUINELIM;
#BANNER:Queencard.png;
#BACKGROUND:Queencard-bg.png;
#PREVIEWVID:;
#JACKET:Queencard-jacket.png;
#CDIMAGE:;
#DISCIMAGE:;
#LYRICSPATH:;
#CDTITLE:;
#MUSIC:Queencard.mp3;
#OFFSET:-0.231000;
#SAMPLESTART:52.384842;
#SAMPLELENGTH:10.956921;
#SELECTABLE:YES;
#BPMS:0.000=130.000;
#STOPS:;
#DELAYS:;
#WARPS:;
#TIMESIGNATURES:0.000=4=4;
#TICKCOUNTS:0.000=4;
#COMBOS:0.000=1;
#SPEEDS:0.000=1.000=0.000=0;
#SCROLLS:0.000=1.000;
#FAKES:;
#LABELS:0.000=Song Start;
#BGCHANGES:0.000=Queencard.avi=1.000=0=0=0=StretchNoLoop====,
99999=-nosongbg-=1.000=0=0=0 // don't automatically add -songbackground-
;
#KEYSOUNDS:;
#ATTACKS:
;

//---------------dance-single - ----------------
#NOTEDATA:;
#CHARTNAME:;
#STEPSTYPE:dance-single;
#DESCRIPTION:;
#CHARTSTYLE:;
#DIFFICULTY:Beginner;
#METER:3;
#RADARVALUES:0.125196,0.182992,0.009959,0.000000,0.000000,88.000000,87.000000,1.000000,0.000000,0.000000,0.000000,0.000000,0.000000,0.000000,0.125196,0.182992,0.009959,0.000000,0.000000,88.000000,87.000000,1.000000,0.000000,0.000000,0.000000,0.000000,0.000000,0.000000;
#CREDIT:MILEN;
#NOTES:
0000
0000
0000
0000
,
0000
0000
0000
0000
,
0000
0000
0000
0000
,
0000
0000
0000
0000
,
0000
0000
0001
0000
,
0001
0000
0001
0000
,
0000
0000
1000
0000
,
1000
0000
1000
0000
,
0000
0000
0010
0000
,
0010
0000
0010
0000
,
0000
0000
0100
0000
,
0100
0000
0100
0000
,
0000
0000
0001
0000
,
0000
0000
1000
0000
,
0001
0000
1000
0000
,
0100
0000
0010
0000
,
0001
0000
0001
0000
,
1000
0000
0001
0000
,
0010
0000
0100
0000
,
1000
0000
1000
0000
,
1000
0000
0001
0000
,
0000
0000
0000
0000
,
0000
0000
0100
0000
,
0000
0000
0000
0000
,
0000
0000
1000
0000
,
0000
0000
0010
0000
,
0000
0000
0001
0000
,
1000
0000
1001
0000
,
0000
0010
0010
0000
,
1000
0000
0001
0000
,
0100
0000
0010
0000
,
1000
0000
0001
0000
,
0000
0100
0100
0000
,
0001
0000
1000
0000
,
0010
0000
0100
0000
,
0001
0000
1000
0000
,
0010
0000
0010
0000
,
0001
0000
0100
0000
,
1000
0000
0010
0000
,
0001
0000
0100
0000
,
1000
0000
0100
0000
,
0001
0000
0010
0000
,
1000
0000
0100
0000
,
0001
0000
0010
0000
,
1000
1000
1000
0000
,
0001
0000
1000
0000
,
0001
0000
0010
0000
,
0100
0000
0010
0000
,
0100
0000
0001
0000
,
1000
0000
0001
0000
,
1000
0000
0100
0000
,
0010
0000
0100
0100
,
0100
0100
0100
0000
;

//---------------dance-single - ----------------
#NOTEDATA:;
#CHARTNAME:;
#STEPSTYPE:dance-single;
#DESCRIPTION:;
#CHARTSTYLE:;
#DIFFICULTY:Easy;
#METER:5;
#RADARVALUES:0.231897,0.266397,0.129464,0.039835,0.000000,163.000000,150.000000,13.000000,4.000000,0.000000,0.000000,0.000000,0.000000,0.000000,0.231897,0.266397,0.129464,0.039835,0.000000,163.000000,150.000000,13.000000,4.000000,0.000000,0.000000,0.000000,0.000000,0.000000;
#CREDIT:MILEN;
#NOTES:
0000
0000
0000
0000
,
0000
0000
0000
0000
,
0000
0000
0000
0000
,
0000
0000
0000
0000
,
0000
0000
0001
0000
,
1000
0000
0010
0100
,
0010
0000
0100
0100
,
0100
0001
1000
0000
,
0001
0000
0100
0000
,
0010
0000
1000
0001
,
1000
0000
0001
0001
,
0001
0100
0010
0000
,
0100
0000
0110
0000
,
0000
0110
1000
0100
,
0010
0000
0010
0001
,
0100
0000
0100
0010
,
1000
0000
0001
0010
,
0100
0000
0100
1000
,
0010
0000
0100
0001
,
0010
0000
0100
0010
,
0100
0100
1000
0000
,
0010
0000
0001
0000
,
0100
0000
1000
0000
,
0010
0000
0001
0000
,
0100
0000
1000
0001
,
1000
0001
0010
0100
,
0010
0100
1000
0001
,
0010
0100
2002
0000
,
3003
1001
1001
0000
,
0110
0000
1000
0100
,
0001
0100
1001
0000
,
0110
0000
0001
0010
,
1000
0010
1001
0000
,
0110
0000
1000
0100
,
0001
0010
1000
0001
,
0100
0010
1000
1000
,
0001
0001
1000
0100
,
0010
0000
0010
0001
,
0100
0000
1000
0100
,
0010
0000
0010
0001
,
0100
1001
0001
0010
,
0100
0000
0100
1000
,
0010
0000
0001
0010
,
0100
0000
0100
1000
,
0010
1001
0100
0100
,
0010
0010
1000
0001
,
0100
0000
0010
0010
,
0100
0100
0001
1000
,
0010
0000
1000
1000
,
0001
0001
0010
0100
,
1000
0000
0010
0100
,
0001
1000
0100
0001
,
0010
1000
2002
0000
,
0000
0000
3003
0000
;

//---------------dance-double - ----------------
#NOTEDATA:;
#CHARTNAME:;
#STEPSTYPE:dance-double;
#DESCRIPTION:;
#CHARTSTYLE:;
#DIFFICULTY:Easy;
#METER:5;
#RADARVALUES:0.220516,0.266397,0.109546,0.039835,0.000000,155.000000,144.000000,11.000000,4.000000,0.000000,0.000000,0.000000,0.000000,0.000000,0.220516,0.266397,0.109546,0.039835,0.000000,155.000000,144.000000,11.000000,4.000000,0.000000,0.000000,0.000000,0.000000,0.000000;
#CREDIT:MILEN;
#NOTES:
00000000
00000000
00000000
00000000
,
00000000
00000000
00000000
00000000
,
00000000
00000000
00000000
00000000
,
00000000
00000000
00000000
00000000
,
00000000
00000000
00010000
00000000
,
00001000
00000000
01000000
00010000
,
01000000
00000000
00001000
00010000
,
00001000
00010000
00100000
00000000
,
00010000
00000000
00001000
00000000
,
00010000
00000000
00000010
00001000
,
00000010
00000000
00010000
00001000
,
00010000
00001000
00000010
00000000
,
00001000
00000000
00011000
00000000
,
00000000
00011000
00010000
01000000
,
10000000
00000000
00100000
00010000
,
00001000
00000000
00010000
00001000
,
00000100
00000000
00000001
00000010
,
00001000
00000000
00010000
00001000
,
00000100
00000000
00001000
00010000
,
00100000
00000000
10000000
01000000
,
00010000
00010000
00001000
00000000
,
00100000
00000000
01000000
00000000
,
00010000
00000000
00001000
00000000
,
00000010
00000000
00000100
00000000
,
00010000
00000000
00001000
01000000
,
00001000
00010000
00000100
00010000
,
00001000
00100000
00001000
00010000
,
00000010
00010000
00022000
00000000
,
00033000
00011000
00011000
00000000
,
00011000
00000000
00010000
01000000
,
10000000
01000000
00010000
00000000
,
00011000
00000000
00001000
00000010
,
00000001
00000010
00001000
00000000
,
00011000
00000000
00010000
00100000
,
10000000
01000000
00010000
00001000
,
00000010
00000001
00000100
00000100
,
00000010
00000010
00001000
00000000
,
00100000
00000000
00010000
00000000
,
00000010
00000000
00001000
00000000
,
00100000
00000000
00010000
00001000
,
00010000
00011000
01000000
00000000
,
00001000
00000000
00000100
00000000
,
00010000
00000000
01000000
00000000
,
00001000
00000000
00000100
00000010
,
00000100
00000110
00000001
00000001
,
00000100
00000100
00001000
00010000
,
01000000
00000000
10000000
10000000
,
00100000
00100000
00010000
00001000
,
00000010
00000000
00000001
00000001
,
00000010
00000010
00001000
00010000
,
01000000
00000000
10000000
00100000
,
00010000
00001000
00000100
00000001
,
00000010
00001000
00022000
00000000
,
00000000
00000000
00033000
00000000
;

//---------------dance-single - ----------------
#NOTEDATA:;
#CHARTNAME:;
#STEPSTYPE:dance-single;
#DESCRIPTION:;
#CHARTSTYLE:;
#DIFFICULTY:Medium;
#METER:9;
#RADARVALUES:0.369897,0.426235,0.328639,0.059753,0.009959,260.000000,227.000000,33.000000,6.000000,0.000000,0.000000,0.000000,0.000000,0.000000,0.369897,0.426235,0.328639,0.059753,0.009959,260.000000,227.000000,33.000000,6.000000,0.000000,0.000000,0.000000,0.000000,0.000000;
#CREDIT:MILEN;
#NOTES:
0000
0000
0000
0000
,
0000
0000
0000
0000
,
0000
0000
0000
0000
,
0000
0000
0000
0000
,
0000
0000
1001
0100
,
1001
0000
0010
0000
1000
0001
0000
0100
,
0000
0001
1000
0001
0010
0000
0001
0000
,
0100
1000
0000
0100
0000
0000
0001
1000
,
0010
1000
1001
0010
,
1001
0000
0100
0000
0001
1000
0000
0010
,
0000
1000
0001
1000
0100
0000
1000
0000
,
0010
0001
0000
0010
0000
0000
1000
0001
,
0100
0001
0020
0030
,
0200
0000
0310
0000
1000
0100
0010
0001
,
0000
0001
0100
0000
1000
0000
0100
0000
,
0001
0000
0010
0000
0001
0100
0010
1000
,
0000
1000
0100
0000
0001
0000
0100
0000
,
1000
0000
0010
0000
1000
0100
0010
0001
,
0000
0001
0100
0000
1000
0000
0010
0000
,
0001
0000
0000
0000
1000
0000
0000
0000
0010
0000
0100
0000
0010
0000
0000
1000
,
0000
0001
1001
0000
0100
0000
0000
0000
,
1000
0000
0010
0000
,
0001
0000
0100
0000
,
1000
0000
0010
0000
,
0001
0000
1000
0100
,
1000
0100
0001
0010
,
0001
0000
0010
0000
1000
0100
0010
0001
,
1000
0100
0010
0000
2002
0000
0000
0000
,
3003
0000
1010
0000
0101
0000
0001
0010
,
1000
0000
1000
0010
0001
0000
0100
0000
,
0001
0000
0011
0000
1100
0000
1000
0010
,
0001
0000
0000
0000
0001
0000
0010
0000
1000
0000
0000
0100
0000
0000
0100
0000
,
0000
0000
0101
0000
1010
0000
1000
0100
,
0001
0000
0001
0010
1000
0000
0100
0000
,
0010
0000
0001
0000
0000
1000
0010
1000
,
0100
0000
0110
0000
0001
0010
0100
1000
,
0001
0010
0100
0000
0110
0000
0001
0000
,
0110
1000
0110
0001
,
0010
0100
0010
0000
0110
0000
1000
0000
,
0110
0001
0110
1000
,
0010
0010
0010
0000
0011
0000
1000
0000
,
0101
1000
0011
1000
,
0001
0100
0010
0000
1010
0000
0001
0000
,
1100
0001
1010
0001
,
0100
0010
1000
0001
0100
0000
0001
0010
,
0100
1000
0001
0010
0000
0010
1000
0000
,
0001
0000
0101
0000
1010
0000
1000
0100
,
0010
0001
1000
0010
0000
0010
0001
0000
,
1000
0000
1010
0000
0101
0000
0001
0010
,
0100
1000
0001
0010
0000
1000
0100
0000
,
1100
0000
0011
0000
0000
0001
0100
1000
,
0010
0000
0110
0000
1000
0100
0001
0010
,
0100
1000
0001
0000
2002
0000
0000
0000
,
0000
0000
3003
0000
;

//---------------dance-double - ----------------
#NOTEDATA:;
#CHARTNAME:;
#STEPSTYPE:dance-double;
#DESCRIPTION:;
#CHARTSTYLE:;
#DIFFICULTY:Medium;
#METER:10;
#RADARVALUES:0.365629,0.399596,0.318681,0.059753,0.009959,257.000000,225.000000,32.000000,6.000000,0.000000,0.000000,0.000000,0.000000,0.000000,0.365629,0.399596,0.318681,0.059753,0.009959,257.000000,225.000000,32.000000,6.000000,0.000000,0.000000,0.000000,0.000000,0.000000;
#CREDIT:MILEN;
#NOTES:
00000000
00000000
00000000
00000000
,
00000000
00000000
00000000
00000000
,
00000000
00000000
00000000
00000000
,
00000000
00000000
00000000
00000000
,
00000000
00000000
00011000
01000000
,
00011000
00000000
00000100
00000000
00010000
00001000
00000000
01000000
,
00000000
00001000
00010000
00100000
01000000
00000000
00100000
00000000
,
10000000
01000000
00000000
00010000
00000000
00000000
00001000
00010000
,
00001000
00010000
00011000
00000010
,
00011000
00000000
00100000
00000000
00001000
00010000
00000000
00000010
,
00000000
00010000
00001000
00000100
00000010
00000000
00000100
00000000
,
00000001
00000010
00000000
00001000
00000000
00000000
00010000
00001000
,
00010000
00001000
00200000
00300000
,
02000000
00000000
13000000
00000000
10000000
00100000
00010000
00001000
,
00000000
00100000
01000000
00000000
00010000
00000000
00001000
00000000
,
00000010
00000000
00000001
00000000
00001000
00000010
00000100
00000001
,
00000000
00000010
00001000
00000000
00010000
00000000
01000000
00000000
,
10000000
00000000
00100000
00000000
00010000
00001000
00100000
01000000
,
00000000
00010000
00001000
00000000
00000010
00000000
00000001
00000000
,
00001000
00000000
00000000
00000000
00000010
00000000
00000000
00000000
00010000
00000000
00001000
00000000
00010000
00000000
00000000
01000000
,
00000000
00100000
01100000
00000000
10000000
00000000
00000000
00000000
,
00100000
00000000
00010000
00000000
,
00001000
00000000
00000100
00000000
,
00000001
00000000
00000010
00000000
,
00001000
00000000
00010000
00000010
,
00010000
00010000
00001000
01000000
,
00001000
00000000
00001000
00000000
00010000
00000100
00010000
00001000
,
00100000
00001000
00010000
00000000
00022000
00000000
00000000
00000000
,
00033000
00000000
01001000
00000000
00010010
00000000
00010000
00001000
,
00000100
00000000
00001000
00000100
00000001
00000000
00000010
00000000
,
00001000
00000000
00101000
00000000
00010100
00000000
00010000
00001000
,
00000010
00000000
00000000
00000000
00001000
00000000
00000010
00000000
00000001
00000000
00000000
00000100
00000000
00000000
00000100
00000000
,
00000000
00000000
00010010
00000000
01001000
00000000
00001000
00010000
,
00100000
00000000
00010000
00100000
10000000
00000000
01000000
00000000
,
00100000
00000000
00010000
00000000
00000000
01000000
00001000
00010000
,
00000100
00000000
00001100
00000000
00001000
00000100
00000010
00000001
,
00001000
00000100
00000010
00000000
00000101
00000000
00001000
00000000
,
00110000
00001000
00000101
00001000
,
00010000
01000000
10100000
00010000
,
00001100
00010000
10100000
01000000
,
00010000
00001000
00010000
00000000
00001100
00000000
00000010
00000000
,
00011000
01000000
00110000
10000000
,
00010000
01000000
01010000
00100000
,
00011000
00000100
00001010
00000001
,
00000100
00001000
00010000
00100000
10000000
00000000
01000000
00100000
,
01000000
00010000
00001000
00000010
00000000
00000010
00000001
00000000
,
00000100
00000000
00000110
00000000
00001001
00000000
00000010
00000100
,
00000010
00001000
00010000
00100000
00000000
00100000
10000000
00000000
,
01000000
00000000
01100000
00000000
10010000
00000000
01000000
00100000
,
01000000
00010000
00001000
00000100
00000000
00000100
00000001
00000000
,
00000010
00000000
00000110
00000000
00000000
00000001
00000100
00001000
,
00010000
00000000
10100000
00000000
01000000
00100000
00010000
00001000
,
00000100
00000010
00000001
00000000
00002002
00000000
00000000
00000000
,
00000000
00000000
00003003
00000000
;

//---------------dance-single - ----------------
#NOTEDATA:;
#CHARTNAME:;
#STEPSTYPE:dance-single;
#DESCRIPTION:;
#CHARTSTYLE:;
#DIFFICULTY:Hard;
#METER:13;
#RADARVALUES:0.543464,0.639353,0.736949,0.089629,0.114526,382.000000,308.000000,74.000000,9.000000,0.000000,0.000000,0.000000,0.000000,0.000000,0.543464,0.639353,0.736949,0.089629,0.114526,382.000000,308.000000,74.000000,9.000000,0.000000,0.000000,0.000000,0.000000,0.000000;
#CREDIT:MILEN;
#NOTES:
0000
0000
0000
0000
,
0000
0000
0000
0000
,
0000
0000
0000
0000
,
0000
0000
0000
0000
,
0000
0000
0000
0000
1001
0000
0100
0100
,
1010
0000
0100
0100
0011
1000
0000
0100
,
0000
0001
0010
0100
1100
0000
0011
0000
,
0101
1000
0000
1010
0000
0001
0010
0100
,
0001
1000
0110
0000
1001
0000
0010
0010
,
0101
0000
0010
0010
1100
0001
0000
0010
,
0000
1000
0100
0010
0011
0000
1100
0000
,
1010
0001
0000
0101
0000
1000
0100
0010
,
1000
0000
0001
0000
0100
0000
0010
0000
1020
0000
0000
0001
0000
0000
0100
0000
,
0130
0000
1001
0000
0001
0010
0100
0001
,
0000
1000
0010
0001
0100
1000
0100
0001
,
0010
1000
0010
0001
0100
1000
0001
0010
,
0000
1000
0100
0010
1000
0010
0001
0100
,
1000
0100
0001
0010
0100
0001
0100
1000
,
0000
0010
0001
1000
0100
0001
0010
1000
,
0001
0000
0100
0000
1000
0000
0010
0000
0001
0000
1000
0000
0100
0000
0000
0110
,
0000
0001
1001
0000
1020
0000
0100
0000
,
0000
0001
0000
0100
,
0000
1030
0201
0010
,
0000
1000
0000
0010
,
0000
0301
0011
1010
,
1100
0101
1010
0011
,
0101
0000
1100
0000
0001
0010
0100
1000
,
0010
0100
0010
0100
0010
0100
0010
0100
0020
0000
0000
0000
0000
0000
0000
0000
,
0030
0000
1001
0000
0110
0000
0010
1000
,
1100
0000
0010
0001
0101
1000
0100
0010
,
1000
0000
1001
0000
0110
0000
0010
0001
,
0101
0000
0000
0000
0010
0000
1000
0000
1100
0000
0000
0101
0000
0000
0011
0000
,
0000
0000
0110
0000
1001
0000
0001
0100
,
1010
0000
1000
0100
0011
1000
0010
0001
,
0200
0000
0320
0000
1030
0001
0010
0100
,
1000
0000
0000
0010
0000
0000
0001
0000
0100
0000
0100
0000
1000
0000
1000
0000
,
0010
0000
0100
0001
0010
0000
0000
0000
0011
0000
0100
0000
1001
0000
0000
0000
,
1010
0000
0011
0100
1001
0000
1010
0000
,
0010
0001
0000
0000
0100
1000
0000
0000
1010
0000
0100
0000
1001
0000
0000
0000
,
0011
0000
1010
0100
1001
0000
0011
0000
,
0010
0100
1000
0000
0001
0010
0100
0000
1100
0000
0010
0000
0101
0000
1000
0000
,
0100
0010
0011
0100
1010
0001
0010
0100
,
1000
0010
0000
0000
0001
0100
0000
0000
1100
0000
0001
0000
0110
0000
1000
0000
,
0100
0010
0011
1000
0110
0001
0010
0100
,
1000
0010
0100
0000
0001
0010
0100
0000
1001
0000
0000
0000
1000
0000
0010
0000
,
0001
0100
1000
0011
0000
1010
0000
1000
,
0100
0010
0001
0000
1001
0000
0001
0100
,
1000
0010
0001
1100
0000
0101
0000
0001
,
0010
0100
1000
0000
1001
0000
0010
1000
,
0100
0001
0010
1100
0000
0101
0000
1010
,
0001
0000
0100
0000
1000
0000
0000
0000
0001
0000
0010
0000
0100
0010
0100
0000
,
1000
0000
0010
0000
0100
0010
0100
0000
0001
0010
0100
0000
1000
0010
0100
0000
,
0001
1000
0001
1000
0002
0000
0000
0000
1003
0000
0000
0000
1000
0000
0100
0000
,
0001
0010
0100
0220
0330
0000
0000
0000
;

//---------------dance-double - ----------------
#NOTEDATA:;
#CHARTNAME:;
#STEPSTYPE:dance-double;
#DESCRIPTION:;
#CHARTSTYLE:;
#DIFFICULTY:Hard;
#METER:13;
#RADARVALUES:0.522124,0.559434,0.597526,0.089629,0.104567,367.000000,307.000000,60.000000,9.000000,0.000000,0.000000,0.000000,0.000000,0.000000,0.522124,0.559434,0.597526,0.089629,0.104567,367.000000,307.000000,60.000000,9.000000,0.000000,0.000000,0.000000,0.000000,0.000000;
#CREDIT:MILEN;
#NOTES:
// measure 0
00000000
00000000
00000000
00000000
,  // measure 1
00000000
00000000
00000000
00000000
,  // measure 2
00000000
00000000
00000000
00000000
,  // measure 3
00000000
00000000
00000000
00000000
,  // measure 4
00000000
00000000
00000000
00000000
00011000
00000000
00010000
01000000
,  // measure 5
11000000
00000000
10000000
01000000
00010000
00011000
00000000
00001100
,  // measure 6
00000000
00000100
00000001
00000010
00000110
00000000
00010100
00000000
,  // measure 7
00011000
00100000
00000000
01100000
00000000
10000000
01000000
00100000
,  // measure 8
00010000
01000000
01001000
00000000
00011000
00000000
00001000
00000100
,  // measure 9
00000101
00000000
00000001
00000100
00001000
00011000
00000000
01010000
,  // measure 10
00000000
01000000
10000000
00100000
01100000
00000000
01001000
00000000
,  // measure 11
00011000
00000010
00000000
00000110
00000000
00000001
00000100
00000010
,  // measure 12
00001000
00000000
00000010
00000000
00010000
00000000
00001000
00000000
00201000
00000000
00000000
00010000
00000000
00000000
01000000
00000000
,  // measure 13
01300000
00000000
11000000
00000000
10000000
00100000
00010000
00001000
,  // measure 14
00100000
01000000
00010000
00001000
00000010
00000001
00000010
00001000
,  // measure 15
00010000
00100000
00010000
00001000
00000010
00000001
00000010
00001000
,  // measure 16
00010000
00000100
00000010
00000001
00000100
00001000
00010000
00000100
,  // measure 17
00000010
00001000
00010000
00100000
10000000
01000000
00100000
00010000
,  // measure 18
01000000
10000000
01000000
00010000
00100000
01000000
00010000
00001000
,  // measure 19
00010000
00000000
01000000
00000000
00100000
00000000
00010000
00000000
01000000
00000000
00001000
00000000
00010000
00000000
00000000
00010010
,  // measure 20
00000000
00001000
00101000
00000000
00120000
00000000
01000000
00000000
,  // measure 21
00000000
10000000
00000000
00100000
,  // measure 22
00000000
00031000
00002100
00000010
,  // measure 23
00000000
00000001
00000000
00000100
,  // measure 24
00000000
00013000
01010000
10100000
,  // measure 25
00110000
00101000
00010010
00001010
,  // measure 26
00000011
00000000
00001100
00000000
00000001
00000010
00000100
00010000
,  // measure 27
00001000
00010000
00001000
00010000
00001000
00010000
00001000
00010000
00002000
00000000
00000000
00000000
00000000
00000000
00000000
00000000
,  // measure 28
00003000
00000000
01001000
00000000
00010100
00000000
00000100
00000010
,  // measure 29
00000011
00000000
00000001
00000100
00001000
00010000
00001000
00000100
,  // measure 30
00000010
00000000
00010010
00000000
00101000
00000000
00100000
01000000
,  // measure 31
11000000
00000000
00000000
00000000
10000000
00000000
00100000
00000000
00010000
00000000
00000000
00001000
00000000
00000000
00001100
00000000
,  // measure 32
00000000
00000000
00000110
00000000
00001001
00000000
00000001
00000100
,  // measure 33
00000110
00000000
00000010
00010000
00001000
00000100
00010000
01000000
,  // measure 34
00200000
00000000
20300000
00000000
31000000
00010000
00001000
00100000
,  // measure 35
01000000
00000000
00000000
00010000
00000000
00000000
00001000
00000000
00000010
00000000
00000010
00000000
00000001
00000000
00000001
00000000
,  // measure 36
00000100
00000000
00001000
00010000
00001000
00000000
00000000
00000000
00011000
00000000
01000000
00000000
10000000
00000000
00000000
00000000
,  // measure 37
10100000
00000000
00011000
01000000
10000000
00000000
10100000
00000000
,  // measure 38
00010000
01000000
00000000
00000000
00001000
00010000
00000000
00000000
00011000
00000000
00000100
00000000
00000001
00000000
00000000
00000000
,  // measure 39
00000011
00000000
00011000
00000100
00000001
00000000
00000011
00000000
,  // measure 40
00001000
00000100
00000000
00000000
00010000
00001000
00000000
00000000
00010000
00000000
00100000
00000000
01000000
00000000
00010000
00000000
,  // measure 41
01000000
10000000
01000000
00010000
00100000
01000000
00010000
00001000
,  // measure 42
00000010
00000001
00000000
00000000
00000100
00001000
00000000
00000000
00000100
00000000
00000001
00000000
00000010
00000000
00000100
00000000
,  // measure 43
00000001
00000100
00000010
00000001
00000100
00001000
00010000
00100000
,  // measure 44
10000000
01000000
10000000
00000000
00010000
00100000
00010000
00000000
10010000
00000000
00000000
00000000
10000000
00000000
01000000
00000000
,  // measure 45
00010000
00001000
00000100
00000110
00000000
00001001
00000000
00000001
,  // measure 46
00000100
00001000
00000010
00000000
00000101
00000000
00000001
00000010
,  // measure 47
00001000
00010000
00100000
01100000
00000000
10010000
00000000
10000000
,  // measure 48
00100000
00010000
01000000
00000000
10100000
00000000
00010000
00001000
,  // measure 49
00000100
00000001
00000010
00001100
00000000
00000011
00000000
00000101
,  // measure 50
00001000
00010000
00100000
00000000
10000000
01000000
00100000
00010000
,  // measure 51
00001000
00000000
00000100
00000000
00000010
00000000
00000001
00000000
00000100
00001000
00000100
00000000
00001000
00010000
00001000
00000000
,  // measure 52
00010000
01000000
00010000
01000000
20000000
00000000
00000000
00000000
30010000
00000000
00000000
00000000
00010000
00000000
01000000
00000000
,  // measure 53
00001000
00000100
00000001
00000220
00000330
00000000
00000000
00000000
;
