#TITLE:Promise;
#SUBTITLE:;
#ARTIST:M2U feat. Sherie;
#TITLETRANSLIT:;
#SUBTITLETRANSLIT:;
#ARTISTTRANSLIT:;
#GENRE:VARIETY;
#CREDIT:MUINELIM;
#BANNER:Promise.png;
#BACKGROUND:Promise-bg.png;
#LYRICSPATH:;
#CDTITLE:;
#MUSIC:Promise.ogg;
#OFFSET:0.038000;
#SAMPLESTART:57.570004;
#SAMPLELENGTH:14.999996;
#SELECTABLE:YES;
#DISPLAYBPM:100.000000;
#BPMS:0.000000=100.000000
;
#STOPS:
;
#BGCHANGES:;
#KEYSOUNDS:;
#ATTACKS:;

//---------------dance-single - ----------------
#NOTES:
     dance-single:
     :
     Beginner:
     3:
     0.093000,0.121811,0.006711,0.013423,0.000000,97.000000,96.000000,1.000000,2.000000,0.000000,0.000000,0.093000,0.121811,0.006711,0.013423,0.000000,97.000000,96.000000,1.000000,2.000000,0.000000,0.000000:
0000
0000
0000
0000
,
0000
0000
0000
0000
,
0000
0000
0000
0000
,
1000
0000
0000
1000
,
0000
0000
0001
0000
,
0000
0001
0000
0000
,
1000
0000
0000
0100
,
0000
0000
0010
0000
,
0000
0001
0000
0000
,
0001
0000
0000
0010
,
0000
0000
0100
0000
,
0000
1000
0000
0000
,
0010
0000
0000
0100
,
0000
0000
0000
0000
0010
0000
0000
0010
,
0000
0010
0000
0000
,
1000
0000
0000
0001
,
0000
0000
0000
0000
1000
0000
0000
1000
,
0000
1000
0000
0000
,
0001
0000
0000
0010
,
0000
0000
0100
0000
,
0000
1000
0000
0000
,
0010
0000
0000
0100
,
0000
0000
0000
0000
0010
0000
0000
0010
,
0000
0020
0030
0000
,
1000
0000
0000
1000
0000
0000
1000
0000
,
0000
1000
0000
0000
1000
0000
0000
0000
,
0000
0100
0000
0000
,
0001
0000
0000
0001
0000
0000
0001
0000
,
0000
0001
0000
0000
0001
0000
0000
0000
,
0000
0010
0000
0000
,
1000
0000
0000
1000
0000
0000
0001
0000
,
0000
0001
0000
0000
1000
0000
0000
1000
,
0000
1000
0000
0000
,
0010
0000
0000
0010
0000
0000
0100
0000
,
0000
0100
0000
0000
0010
0000
0000
0010
,
0000
0010
0000
0000
,
1000
0000
0000
0100
,
0000
0000
0010
0000
,
0000
0001
0000
0000
,
1000
0000
0000
0010
,
0000
0000
0100
0000
,
0000
0001
0000
0000
,
1001
0000
0000
1000
,
0000
0000
0010
0000
,
0000
0000
0001
0000
0000
0001
0000
0000
,
0001
0000
0000
0001
,
0000
0000
0100
0000
,
0000
0000
1000
0000
0000
1000
0000
0000
,
1000
0000
0000
0010
,
0000
0000
0100
0000
,
0000
0000
0001
0000
0000
0001
0000
0000
,
0001
0000
0000
0100
,
0000
0000
0010
0000
,
0000
0000
1000
0000
0000
1000
0000
0000
,
1000
0000
0000
0001
,
0000
0000
1000
0000
,
0000
0000
0010
0000
0000
0100
0000
0000
,
0010
0000
0000
0100
,
0000
0000
0010
0000
,
0000
0000
1000
0000
0000
0001
0000
0000
,
2000
0000
3000
0000
;

//---------------dance-single - ----------------
#NOTES:
     dance-single:
     :
     Easy:
     6:
     0.169702,0.203019,0.067114,0.127516,0.000000,177.000000,167.000000,10.000000,19.000000,0.000000,0.000000,0.169702,0.203019,0.067114,0.127516,0.000000,177.000000,167.000000,10.000000,19.000000,0.000000,0.000000:
0000
0000
0000
0000
,
0000
0000
0000
0000
,
0000
0000
0000
0000
,
1000
0000
0000
1000
0000
0000
0001
0000
,
0000
0001
0000
0000
0100
0000
0000
0100
,
0000
0000
0010
0000
0000
0010
0000
0000
,
1000
0000
0000
0001
0000
0000
1000
0000
,
0000
0001
0000
0000
0100
0000
0000
0010
,
0000
0220
0000
0330
,
0001
0000
0000
1000
0000
0000
0001
0000
,
0000
1000
0000
0000
0010
0000
0000
0100
,
0000
0220
0000
0330
,
1000
0000
0000
0001
0000
0000
1000
0000
,
0000
0010
0000
0000
0100
0000
0000
0001
,
0000
2000
0000
3000
,
0001
0000
0000
1000
0000
0000
0001
0000
,
0000
0100
0000
0000
0010
0000
0000
1000
,
0000
0002
0000
0003
,
1000
0000
0000
0100
0000
0000
0010
0000
,
0000
0001
0000
0000
0100
0000
0000
0010
,
0000
0000
0200
0000
0000
0320
0000
0000
,
0130
0000
0000
0110
0000
0000
1000
0000
,
0000
1001
0000
0000
0010
0000
0000
0110
,
0000
2002
0000
3003
,
0001
0000
0000
0100
0000
0000
0010
0000
,
0000
1000
0000
0001
0001
0000
1000
1000
,
0000
0010
0010
0000
0000
0110
0000
0000
,
1000
0000
0000
0010
0000
0000
0100
0000
,
0000
0001
0000
1000
1000
0000
0001
0001
,
0000
0100
0100
0000
0000
0110
0000
0000
,
0001
0000
0000
0100
0000
0000
1000
0000
,
0000
0010
0000
0001
0001
0000
1000
1000
,
0000
0100
0100
0000
0000
0110
0000
0000
,
1000
0000
0000
0010
0000
0000
0001
0000
,
0000
0100
0000
1000
1000
0000
0001
0001
,
0000
0010
0010
0000
0000
0110
0000
0000
,
2000
0000
3000
0002
,
0000
0003
0200
0000
,
0300
0020
0000
0030
,
1000
0000
0000
0001
0000
0000
1000
0000
,
0000
0010
0000
0000
0001
0000
0000
0100
,
0000
0000
1000
0000
0000
0010
0000
0000
,
0100
0100
0010
0100
0000
0000
0010
0000
,
0000
0010
0000
0000
0010
0000
0000
0010
,
0000
0000
0010
0000
0000
1000
0000
0001
,
0001
0000
1000
1000
0000
0000
0100
0000
,
0000
0100
0000
0000
0100
0000
0000
0100
,
0000
0000
0100
0000
0000
1000
0000
0001
,
0001
0000
1000
1000
0000
0000
0010
0000
,
0000
0100
0000
0000
0001
0000
0000
1000
,
0000
0000
0100
0000
0010
0010
0000
0100
,
0100
0000
0010
0010
0000
0000
0001
0000
,
0000
1000
0000
0000
0010
0000
0000
0100
,
0000
0000
0001
0000
1000
1000
0000
0001
,
0001
0000
1000
1000
0000
0000
0002
0000
,
0000
0003
0000
0000
0200
0000
0000
0300
,
0000
0000
2000
0000
0000
3000
0000
0000
,
0020
0000
0000
0030
0000
0000
0001
0000
,
0000
1000
0000
0000
0010
0000
0000
0100
,
0000
0010
0010
0000
0100
0100
0000
0010
,
0020
0000
0030
0000
;

//---------------dance-single - ----------------
#NOTES:
     dance-single:
     :
     Medium:
     9:
     0.273248,0.288924,0.046980,0.281877,0.006711,285.000000,278.000000,7.000000,42.000000,0.000000,0.000000,0.273248,0.288924,0.046980,0.281877,0.006711,285.000000,278.000000,7.000000,42.000000,0.000000,0.000000:
0000
0000
0000
0000
,
0000
0000
0000
0000
,
0000
0000
0000
0000
,
0001
0000
0100
0010
0100
0000
1000
0000
,
0100
0010
0100
0000
0001
0000
0100
0010
,
0000
0010
0100
0000
0100
0010
1000
0001
,
0100
0000
0001
0010
0000
0100
1000
0000
,
0010
1000
0000
0100
0010
0000
0001
1000
,
0000
0020
0200
0330
0000
0010
0100
0010
,
1000
0000
0100
0010
0000
0001
0100
0000
,
0010
1000
0000
0100
0010
0000
0001
1000
,
0000
0200
0020
0000
0000
0000
0330
0000
,
0001
0001
0000
1000
0010
0100
0010
0000
,
1000
1000
0000
0000
0001
0100
0010
0100
,
0000
0002
2000
0000
0000
0000
3003
0000
,
0100
0100
0000
0010
1000
0010
0100
0000
,
0010
0000
0100
0001
0100
0000
0010
0100
,
0010
2000
0002
0000
0000
0000
3003
0000
,
1001
0000
1000
0100
0000
0010
0001
0000
,
1000
0010
0000
0100
0002
0000
0000
2003
,
0000
0000
0000
0000
3100
0000
0000
0010
0000
0000
0001
0000
0000
1000
0000
0000
,
0010
0000
0100
0100
0000
0001
0010
0100
,
0010
0001
0010
0000
0100
0000
1000
1000
,
0000
0020
0200
0000
0000
0000
0330
0000
,
0110
0000
0001
0001
0000
1000
1000
0000
,
0100
0010
0100
0010
0001
0000
0010
0100
,
0010
0100
2000
0000
0000
3010
0010
0100
,
0001
0000
0010
0100
0000
1000
0010
0000
,
0100
0001
0100
0001
1000
0000
0100
0010
,
0000
0001
0100
0000
0010
1000
0000
0100
,
0110
0000
0010
0001
0000
1000
0100
0000
,
0010
0100
0010
0100
1000
0000
0100
0010
,
0100
0010
0002
0000
0000
0103
0010
1000
,
0010
0000
0100
0001
0000
0010
0100
0000
,
1000
0100
0000
0010
0001
0000
0100
0010
,
0000
2000
0002
0000
0000
0000
3003
0000
,
1000
0000
0010
0100
0010
0000
0001
0000
,
0010
0100
0010
0000
1000
0000
0010
0100
,
0000
0100
0010
0000
0010
0100
0001
1000
,
0010
0000
1000
0100
0000
0001
0100
0000
,
1000
0010
0000
0001
0010
0000
1000
0100
,
0000
0010
0001
0000
0100
0010
0000
1000
,
0001
0001
0001
1001
0000
0000
2000
0000
,
0000
3020
0000
0000
0230
0000
0000
0302
,
0000
0000
0013
0000
0100
1000
0000
0001
,
0010
0000
0000
0100
0100
0100
0020
0000
,
0000
0032
0000
0000
2003
0000
0000
3100
,
0100
0010
0100
0000
1000
0010
0000
0100
,
0001
0000
0010
0100
0000
1000
0002
0000
,
0000
0203
0000
0000
0320
0000
0000
2030
,
0000
0000
3100
0100
0010
0001
1000
0100
,
0010
0000
0000
0001
1000
1000
1002
0000
,
0000
0203
0000
0000
0320
0000
0000
1030
,
0001
0100
0100
0000
1000
0100
0000
0001
,
0010
0000
1000
0010
0001
0000
0201
0000
,
0000
0320
0000
0000
2030
0000
0000
3200
,
0000
0000
0310
0001
1000
0100
0000
0010
,
0200
0000
0300
2100
,
0000
3020
0000
0000
0230
0000
0000
0302
,
0000
0013
0200
0000
0000
2300
0000
0000
,
0002
0000
0000
0000
,
0000
0000
3003
0000
;

//---------------dance-single - ----------------
#NOTES:
     dance-single:
     :
     Hard:
     12:
     0.390218,0.515936,0.362414,0.630868,0.016778,407.000000,353.000000,54.000000,94.000000,0.000000,0.000000,0.390218,0.515936,0.362414,0.630868,0.016778,407.000000,353.000000,54.000000,94.000000,0.000000,0.000000:
0000
0000
0000
0000
,
0000
0000
0000
0000
,
0000
0000
0000
0000
,
1000
0100
0010
0001
0100
0000
0001
0010
,
0100
1000
0010
0000
1000
0100
0010
0001
,
1000
0010
0100
0001
0010
0100
0110
1001
,
0002
0000
0100
2003
0000
0100
3002
0000
,
0100
0103
0010
1000
0200
0000
0310
0001
,
1000
0100
0020
0000
0000
0031
0010
0100
,
2000
0000
0010
3002
0000
0010
2003
0000
,
0010
3010
0100
0001
0010
0100
1000
0001
,
0010
0200
2000
0000
0300
0001
3001
0000
,
0001
0200
0000
1300
0100
0001
0020
0000
,
0100
0130
0000
0000
1000
0100
0010
0002
,
0000
0100
2000
0000
0000
0000
3003
0000
,
1000
0020
0000
0031
0010
1000
0200
0000
,
0310
0000
0010
0001
1000
0100
0010
0001
,
1000
0020
0200
0000
0000
0000
0330
0000
,
0110
0000
0200
0001
0000
0320
1000
0000
,
0230
0001
0000
0320
1000
0000
0000
0200
,
0330
0000
0000
0000
0101
0000
0000
0011
0000
0000
1010
0000
0000
1100
0000
0000
,
0220
0330
0001
2000
0000
3010
0001
1000
,
0100
0001
0020
0000
0230
0000
1300
0002
,
0000
0013
1000
0001
0100
1000
0010
0100
,
0102
0000
0013
2010
0000
3100
0102
0000
,
0013
1010
1000
0100
0020
0000
1030
0010
,
0001
0100
0220
0000
0330
0010
1000
0100
,
2100
0000
3010
0012
0000
0103
2100
0000
,
3010
0011
0001
0100
0010
1000
0001
0100
,
1000
0100
0002
0000
0013
0200
0000
1300
,
1020
0100
1030
1200
0010
1300
1020
0001
,
1030
1200
0001
1300
1010
0010
0100
0001
,
0011
0110
2200
0000
3300
1000
0010
0100
,
0201
0010
0301
0021
0100
0031
0201
1000
,
0301
0021
1000
0031
0101
0100
0010
1000
,
0100
0010
0022
0000
0030
1000
1003
0000
,
1000
0010
0001
0010
1000
0000
0001
0100
,
1000
0100
0001
0000
1000
0010
0100
0010
,
0001
1000
0100
0010
0100
0001
1000
0100
,
0110
0010
0001
0101
0100
0010
1010
1000
,
0001
0000
0010
0100
0010
0100
0010
0100
1000
0000
0001
0000
0011
0000
1100
0000
,
1000
0010
0102
0100
0100
0103
0000
0000
,
2010
0010
0010
3010
0100
0001
0022
0003
,
0000
2000
0030
0000
0200
3000
0000
0002
,
0300
0000
0103
1000
0010
0100
0001
1000
,
2020
0000
3000
0100
0100
0130
0202
0300
,
0000
0020
0003
0000
2000
0030
0000
3010
,
0001
0100
1000
0001
0010
1000
0100
0010
,
0002
0000
0103
2000
0000
3100
0102
1000
,
0013
2010
0001
3100
0102
0010
1003
2010
,
0100
3001
0021
0100
1000
0001
1000
0100
,
0002
0000
0030
0100
0100
0103
2100
0001
,
3010
0012
1000
0103
2100
0010
3001
0012
,
0100
1003
1020
0100
0001
1000
0001
0100
,
2000
0000
0030
0001
3001
0000
0202
0003
,
0000
2000
0300
0000
0020
3000
0000
0002
,
0033
0000
0001
0100
0010
1000
0100
0010
,
0002
1000
1000
1000
1003
0000
2200
3000
,
0000
0002
0300
0000
0020
0003
0000
2000
,
0030
3100
0020
0000
0000
0002
0030
0000
,
0103
1000
0010
2002
0000
0000
0000
0000
,
0000
0000
3003
0000
;

//---------------dance-double - ----------------
#NOTES:
     dance-double:
     :
     Hard:
     12:
     0.370084,0.474661,0.261743,0.718116,0.016778,386.000000,347.000000,39.000000,107.000000,0.000000,0.000000,0.370084,0.474661,0.261743,0.718116,0.016778,386.000000,347.000000,39.000000,107.000000,0.000000,0.000000:
00000000
00000000
00000000
00000000
,
00000000
00000000
00000000
00000000
,
00000000
00000000
00000000
00000000
,
01000000
00100000
00010000
00001000
00000100
00000000
00000010
00000100
,
00001000
00010000
00100000
00000000
01000000
00001000
00010000
00000010
,
00000100
00001000
00010000
00100000
01000000
00001000
00010000
00011000
,
00002000
00000000
00100000
00023000
00000000
00000010
00032000
00000000
,
01000000
01003000
00001000
00010000
00000200
00000000
00000310
00000001
,
00000100
00001000
00020000
00000000
00000000
00130000
10000000
01000000
,
00020000
00000000
00000100
00032000
00000000
01000000
00023000
00000000
,
00000010
00030010
00010000
00001000
00100000
01000000
10000000
00100000
,
00010000
00002000
00020000
00000000
00003000
00000010
00030010
00000000
,
00000010
00002000
00000000
00003100
00000010
00000001
00000200
00000000
,
00001000
00001300
00000000
00000000
00001000
00010000
00100000
20000000
,
00000000
01000000
02000000
00000000
00000000
00000000
33000000
00000000
,
01000000
00200000
00000000
00310000
01000000
00001000
00020000
00000000
,
00130000
00000000
00100000
00010000
00001000
00000100
00000010
00001000
,
00000100
00000020
00000002
00000000
00000000
00000000
00000033
00000000
,
00001001
00000000
00000020
00000100
00000000
00020030
00001000
00000000
,
00230000
01000000
00000000
20300000
00010000
00000000
00000000
02000000
,
33000000
00000000
00000000
00000000
02000000
00000000
00000000
03020000
00000000
00000000
00032000
00000000
00000000
00003020
00000000
00000000
,
00000002
00000033
00000001
00000200
00000000
00001300
00010000
00100000
,
10000000
01000000
00200000
00000000
02300000
00000000
03010000
00002000
,
00000000
00003010
00001000
00010000
00100000
00010000
00001000
00000100
,
00000102
00000000
00000013
00002000
00000000
00013000
02000000
00000000
,
13000000
10100000
00100000
01000000
20000000
00000000
31000000
00010000
,
00100000
01000000
02200000
00000000
03300000
00100000
00010000
10000000
,
02000000
00000000
03010000
00002000
00000000
00003010
00000002
00000000
,
00000103
00000110
00000010
00001000
00000100
00000010
00001000
00010000
,
01000000
10000000
00200000
00000000
00310000
00002000
00000000
00003010
,
00000012
00000000
00001003
00001200
00000000
00010300
00012000
00000000
,
01003000
02010000
00100000
03100000
10100000
10000000
01000000
00010000
,
00001000
00010000
00022000
00000000
00033000
00001000
00010000
01000000
,
21000000
00000000
30100000
00120000
00000000
00031000
00001200
00000000
,
00000301
00000021
00000100
00000130
00001100
00001000
00000010
00010000
,
00001000
00100000
02200000
00000000
00300000
10000000
13000000
00000000
,
10000000
01000000
00100000
00010000
00001000
00000000
00000001
00000010
,
00000100
00001000
00010000
00000000
10000000
00100000
01000000
00010000
,
00001000
00000010
00000100
00000001
00000010
00001000
00010000
01000000
,
10100000
00010000
00001000
00011000
00010000
00001000
00000101
00000010
,
00001000
00000000
00000100
00010000
00000100
00010000
00000100
00010000
00001000
00000000
01000000
00000000
00100000
00000000
10000000
00000000
,
01000000
00010000
00012000
00100000
00100000
00103000
00000000
00000000
,
00021000
00000010
00000010
00030010
00010000
00001000
00022000
00030000
,
00000000
00000200
00003000
00000000
00020000
00000300
00000000
02000000
,
00030000
00000000
03100000
10000000
01000000
00010000
00001000
00000010
,
00000022
00000000
00000030
00001000
00001000
00001003
00002020
00003000
,
00000000
00020000
00000030
00000000
00200000
00030000
00000000
10300000
,
01000000
00100000
10000000
00100000
00001000
00010000
00000100
00000010
,
00000002
00000000
00000103
00002000
00000000
00013000
00021000
00000010
,
00031000
00012000
00100000
00013000
00021000
00000100
00031000
00012000
,
01000000
00013000
00021000
00230000
20300000
32000000
03200000
00320000
,
02030000
00000000
00000000
00001000
00001000
03001000
00012000
00000100
,
00013000
00021000
01000000
00031000
00012000
00000010
00013000
00021000
,
00100000
00031000
00012000
00003200
00000302
00000023
00000230
00002300
,
00023000
00000000
00000000
01000000
01030000
00000000
20200000
30000000
,
00000000
00002000
00300000
00000000
00000020
00003000
00000000
00000002
,
00000033
00000000
00000001
00000010
00000100
00001000
00010000
00100000
,
20000000
01000000
01000000
01000000
31000000
00000000
02200000
03000000
,
00000000
00002000
00300000
00000000
00000020
00003000
00000000
00000032
,
00000000
00000103
00002000
00000000
00000000
00020000
00003000
00000000
,
01030000
10000000
00100000
00022000
00000000
00000000
00000000
00000000
,
00000000
00000000
00033000
00000000
;

//---------------dance-double - ----------------
#NOTES:
     dance-double:
     :
     Easy:
     5:
     0.152444,0.203019,0.040268,0.134227,0.000000,159.000000,153.000000,6.000000,20.000000,0.000000,0.000000,0.152444,0.203019,0.040268,0.134227,0.000000,159.000000,153.000000,6.000000,20.000000,0.000000,0.000000:
00000000
00000000
00000000
00000000
,
00000000
00000000
00000000
00000000
,
00000000
00000000
00000000
00000000
,
00001000
00000000
00000000
00001000
00000000
00000000
01000000
00000000
,
00000000
00001000
00000000
00000000
00010000
00000000
00000000
00010000
,
00000000
00000000
00000010
00000000
00000000
00010000
00000000
00000000
,
00001000
00000000
00000000
00100000
00000000
00000000
00001000
00000000
,
00000000
00010000
00000000
00000000
00000100
00000000
00000000
00010000
,
00000000
00022000
00000000
00033000
,
00001000
00000000
00000000
00100000
00000000
00000000
00010000
00000000
,
00000000
01000000
00000000
00000000
00001000
00000000
00000000
00010000
,
00000000
00022000
00000000
00033000
,
00001000
00000000
00000000
00010000
00000000
00000000
00000010
00000000
,
00000000
00001000
00000000
00000000
00000100
00000000
00000000
00010000
,
00000000
00002000
00000000
00003000
,
00100000
00000000
00000000
00010000
00000000
00000000
01000000
00000000
,
00000000
00100000
00000000
00000000
00010000
00000000
00000000
00001000
,
00000000
00000200
00000000
00000300
,
00000001
00000000
00000000
00000010
00000000
00000000
00001000
00000000
,
00000000
00010000
00000000
00000000
01000000
00000000
00000000
10000000
,
00000000
00000000
00200000
00000000
00000000
02300000
00000000
00000000
,
03100000
00000000
00000000
01100000
00000000
00000000
00010000
00000000
,
00000000
00011000
00000000
00000000
00000100
00000000
00000000
00000110
,
00000000
00002002
00000000
00003003
,
00000001
00000000
00000000
00000100
00000000
00000000
00001000
00000000
,
00000000
00010000
00000000
00000000
00100000
00000000
00000000
10000000
,
00000000
00000000
01000000
00000000
00000000
00010000
00000000
00000000
,
00001000
00000000
00000000
00100000
00000000
00000000
01000000
00000000
,
00000000
00010000
00000000
00000000
00001000
00000000
00000000
00000010
,
00000000
00000000
00000100
00000000
00000000
00001000
00000000
00000000
,
00000001
00000000
00000000
00000010
00000000
00000000
00001000
00000000
,
00000000
00010000
00000000
00000000
01000000
00000000
00000000
10000000
,
00000000
00000000
00100000
00000000
00000000
00010000
00000000
00000000
,
00001000
00000000
00000000
00000100
00000000
00000000
00000001
00000000
,
00000000
00000010
00000000
00000000
00001000
00000000
00000000
00010000
,
00000000
00000000
00100000
00000000
00000000
10000000
00000000
00000000
,
02000000
00000000
03000000
00200000
,
00000000
00300000
00002000
00000000
,
00003000
00020000
00000000
00030000
,
00000100
00000000
00000000
00000010
00000000
00000000
00000001
00000000
,
00000000
00001000
00000000
00000000
00000010
00000000
00000000
00010000
,
00000000
00000000
00100000
00000000
00000000
10000000
00000000
00000000
,
01000000
01000000
01000000
01000000
00000000
00000000
00100000
00000000
,
00000000
00010000
00000000
00000000
01000000
00000000
00000000
00001000
,
00000000
00000000
00010000
00000000
00000000
00000100
00000000
00001000
,
00001000
00000000
00000001
00000001
00000000
00000000
00000100
00000000
,
00000000
00000010
00000000
00000000
00010000
00000000
00000000
00001000
,
00000000
00000000
00100000
00000000
00000000
00010000
00000000
01000000
,
01000000
00000000
00100000
00100000
00000000
00000000
10000000
00000000
,
00000000
01000000
00000000
00000000
00100000
00000000
00000000
00010000
,
00000000
00000000
01000000
00000000
00001000
00001000
00000000
00010000
,
00010000
00000000
00000010
00000010
00000000
00000000
00001000
00000000
,
00000000
00000100
00000000
00000000
00000010
00000000
00000000
00000001
,
00000000
00000000
00000100
00000000
00001000
00001000
00000000
00010000
,
00010000
00000000
00001000
00001000
00000000
00000000
02000000
00000000
,
00000000
03000000
00000000
00000000
00200000
00000000
00000000
00300000
,
00000000
00000000
00020000
00000000
00000000
00030000
00000000
00000000
,
00002000
00000000
00000000
00003000
00000000
00000000
00000010
00000000
,
00000000
00000001
00000000
00000000
00000100
00000000
00000000
00001000
,
00000000
00010000
00010000
00000000
00000000
00002000
00000000
00000000
,
00020000
00000000
00033000
00000000
;

//---------------dance-double - ----------------
#NOTES:
     dance-double:
     :
     Medium:
     10:
     0.273248,0.288924,0.046980,0.281877,0.006711,285.000000,278.000000,7.000000,42.000000,0.000000,0.000000,0.273248,0.288924,0.046980,0.281877,0.006711,285.000000,278.000000,7.000000,42.000000,0.000000,0.000000:
// measure 0
00000000
00000000
00000000
00000000
,  // measure 1
00000000
00000000
00000000
00000000
,  // measure 2
00000000
00000000
00000000
00000000
,  // measure 3
01000000
00000000
00001000
00010000
00001000
00000000
00100000
00000000
,  // measure 4
00001000
00010000
00001000
00000000
01000000
00000000
00001000
00010000
,  // measure 5
00000000
00001000
00100000
00000000
00001000
01000000
00010000
01000000
,  // measure 6
00001000
00000000
00010000
00000010
00000000
00010000
00000100
00000000
,  // measure 7
00010000
00001000
00000000
00010000
00000100
00000000
00010000
00000010
,  // measure 8
00000000
00020000
00002000
00033000
00000000
00001000
00100000
00010000
,  // measure 9
01000000
00000000
00001000
00010000
00000000
00000100
00001000
00000000
,  // measure 10
00000010
00010000
00000000
00001000
00100000
00000000
00010000
01000000
,  // measure 11
00000000
00002000
00020000
00000000
00000000
00000000
00033000
00000000
,  // measure 12
00010000
00010000
00000000
00000100
00001000
00000100
00000010
00000000
,  // measure 13
00000001
00000001
00000000
00000000
00001000
00000010
00010000
00001000
,  // measure 14
00000000
00200000
00020000
00000000
00000000
00000000
00330000
00000000
,  // measure 15
00010000
00010000
00000000
10000000
00100000
01000000
00100000
00000000
,  // measure 16
00010000
00000000
00001000
00010000
00001000
00000000
00000100
00000010
,  // measure 17
00000100
00000002
00002000
00000000
00000000
00000000
00003003
00000000
,  // measure 18
00001001
00000000
00000001
00000100
00000000
00000010
00010000
00000000
,  // measure 19
00001000
00100000
00000000
01000000
20000000
00000000
00000000
30200000
,  // measure 20
00000000
00000000
00000000
00000000
01300000
00000000
00000000
00010000
00000000
00000000
00100000
00000000
00000000
01000000
00000000
00000000
,  // measure 21
00010000
00000000
00001000
00001000
00000000
00010000
00000100
00001000
,  // measure 22
00000100
00000010
00000001
00000000
00001000
00000000
00000010
00010000
,  // measure 23
00000000
00002000
00200000
00000000
00000000
00000000
00303000
00000000
,  // measure 24
00110000
00000000
00010000
00010000
00000000
10000000
10000000
00000000
,  // measure 25
00100000
01000000
00100000
01000000
00010000
00000000
00100000
00001000
,  // measure 26
00100000
00001000
00020000
00000000
00000000
00030100
00000100
00001000
,  // measure 27
00000001
00000000
00000010
00000001
00000000
00001000
00000010
00000000
,  // measure 28
00010000
00001000
00010000
00001000
00100000
00000000
00010000
00100000
,  // measure 29
00000000
01000000
10000000
00000000
00100000
01000000
00000000
00001000
,  // measure 30
00011000
00000000
00010000
00000100
00000000
00001000
00000001
00000000
,  // measure 31
00000100
00000010
00000100
00000010
00001000
00000000
00000100
00010000
,  // measure 32
00000100
00010000
00002000
00000000
00000000
00103000
00010000
00100000
,  // measure 33
01000000
00000000
10000000
00100000
00000000
00010000
00001000
00000000
,  // measure 34
00000100
00000001
00000000
00000010
00000100
00000000
00001000
00000010
,  // measure 35
00000000
00020000
00002000
00000000
00000000
00000000
00033000
00000000
,  // measure 36
00000100
00000000
00010000
00001000
00010000
00000000
00000010
00000000
,  // measure 37
00010000
00001000
00010000
00000000
00000100
00000000
00010000
00001000
,  // measure 38
00000000
00010000
00000010
00000000
00010000
00000100
00001000
00000100
,  // measure 39
00010000
00000000
00001000
00000100
00000000
00000001
00000010
00000000
,  // measure 40
00001000
00010000
00000000
01000000
10000000
00000000
00100000
00010000
,  // measure 41
00000000
00001000
00000010
00000000
00000001
00000100
00000000
00001000
,  // measure 42
00010000
00001000
00010000
00011000
00000000
00000000
00002000
00000000
,  // measure 43
00000000
00203000
00000000
00000000
02300000
00000000
00000000
23000000
,  // measure 44
00000000
00000000
30010000
00000000
00010000
00100000
00000000
01000000
,  // measure 45
00010000
00000000
00000000
00001000
00010000
00001000
00020000
00000000
,  // measure 46
00000000
00030020
00000000
00000000
00002030
00000000
00000000
00003100
,  // measure 47
00000100
00000010
00000001
00000000
00000100
00001000
00000000
00010000
,  // measure 48
01000000
00000000
10000000
00100000
00000000
00010000
00002000
00000000
,  // measure 49
00000000
00203000
00000000
00000000
02300000
00000000
00000000
03020000
,  // measure 50
00000000
00000000
00031000
00001000
00000100
00000010
00001000
00000100
,  // measure 51
00000010
00000000
00000000
00000001
00000100
00001000
00021000
00000000
,  // measure 52
00000000
02030000
00000000
00000000
23000000
00000000
00000000
30100000
,  // measure 53
01000000
00100000
00100000
00000000
00010000
00001000
00000000
00000100
,  // measure 54
00000010
00000000
00000100
00000001
00000010
00000000
00000021
00000000
,  // measure 55
00000000
00002030
00000000
00000000
00023000
00000000
00000000
02030000
,  // measure 56
00000000
00000000
13000000
00100000
01000000
00100000
00000000
00010000
,  // measure 57
00200000
00000000
00300000
20100000
,  // measure 58
00000000
32000000
00000000
00000000
03020000
00000000
00000000
00032000
,  // measure 59
00000000
00003010
00000002
00000000
00000000
00002003
00000000
00000000
,  // measure 60
00023000
00000000
00000000
00000000
,  // measure 61
00000000
00000000
00030000
00000000
;
