#TITLE:Predawn (Farewell);
#SUBTITLE:;
#ARTIST:M2U x NICODE;
#TITLETRANSLIT:;
#SUBTITLETRANSLIT:;
#ARTISTTRANSLIT:;
#GENRE:VARIETY;
#CREDIT:MUINELIM;
#BANNER:Predawn (Farewell).png;
#BACKGROUND:Predawn (Farewell)-bg.png;
#LYRICSPATH:;
#CDTITLE:;
#MUSIC:Predawn (Farewell).ogg;
#OFFSET:-0.081000;
#SAMPLESTART:82.374725;
#SAMPLELENGTH:13.714279;
#SELECTABLE:YES;
#DISPLAYBPM:60.000000:140.000000;
#BPMS:0.000000=70,32.000000=140,256.000000=100,257.500000=70,258.000000=90,259.500000=80,260.500000=70,261.500000=60;
#STOPS:
;
#BGCHANGES:;
#KEYSOUNDS:;
#ATTACKS:;

//---------------dance-single - ----------------
#NOTES:
     dance-single:
     :
     Beginner:
     3:
     0.141547,0.177397,0.000000,0.007622,0.000000,130.000000,130.000000,0.000000,1.000000,0.000000,0.000000,0.141547,0.177397,0.000000,0.007622,0.000000,130.000000,130.000000,0.000000,1.000000,0.000000,0.000000:
0000
0000
0000
0000
,
0000
0000
0000
0000
,
1000
0000
0001
0000
,
1000
0000
0001
0000
,
0100
0000
0010
0000
,
0100
0000
0010
0000
,
1000
0000
0100
0000
,
0010
0000
0001
0000
,
1000
0000
1000
0000
,
1000
0000
1000
0000
,
0001
0000
0001
0000
,
0001
0000
0001
0000
,
0100
0000
0100
0000
,
0010
0000
0010
0000
,
1000
0000
0001
0000
,
0100
0000
0010
0000
,
1000
0000
1000
0000
,
0001
0000
0001
0000
,
0010
0000
0010
0000
,
0100
0000
0100
0000
,
1000
0000
0010
0000
,
0100
0000
0001
0000
,
1000
0000
0100
0000
,
0010
0000
0001
0000
,
1000
0000
0000
0000
,
0010
0000
0000
0000
,
0001
0000
0000
0000
,
0100
0000
0000
0000
,
1000
0000
1000
0000
,
0010
0000
0010
0000
,
0001
0000
0001
0000
,
0100
0000
0100
0000
,
1000
0000
0010
0000
,
0100
0000
0001
0000
,
0100
0000
0010
0000
,
1000
0000
0100
0000
,
0010
0000
0001
0000
,
0010
0000
0100
0000
,
1000
0000
0001
0000
,
0100
0000
0010
0000
,
1000
1000
1000
0000
,
0001
0001
0001
0000
,
0100
0100
0100
0000
,
0010
0000
0100
0000
,
0010
0010
0010
0000
,
1000
1000
1000
0000
,
0001
0001
0001
0000
,
1000
0000
0001
0000
,
0100
0000
0100
0000
,
0010
0000
0010
0000
,
1000
0000
1000
0000
,
0001
0000
0001
0000
,
0010
0000
0100
0000
,
0010
0000
0100
0000
,
1000
0000
0001
0000
,
1000
1000
1000
0000
,
0010
0000
0001
0000
,
0100
0000
1000
0000
,
0100
0000
0001
0000
,
0010
0000
1000
0000
,
0100
0000
1000
0000
,
0010
0000
0001
0000
,
0100
0000
1000
0000
,
0010
0010
0010
0010
,
0020
0000
0000
0000
,
0000
0000
0000
0000
,
0000
0000
0030
0000
;

//---------------dance-single - ----------------
#NOTES:
     dance-single:
     :
     Easy:
     7:
     0.262407,0.301822,0.137192,0.114327,0.000000,241.000000,223.000000,18.000000,15.000000,0.000000,0.000000,0.262407,0.301822,0.137192,0.114327,0.000000,241.000000,223.000000,18.000000,15.000000,0.000000,0.000000:
0000
0000
0000
0000
,
0000
0000
0000
0000
,
1000
1000
0001
0001
,
2000
3000
0002
0003
,
1001
0100
0010
0100
,
0001
0010
0100
1000
,
0010
0100
0010
0100
,
0001
1000
2002
3003
,
0001
0100
0001
0000
,
1000
0010
1000
0000
,
0001
0010
0001
0000
,
1000
0100
1000
0000
,
0001
0001
0100
0100
,
0010
0010
1000
1000
,
0100
0100
0010
0010
,
0001
1000
0001
1001
,
1000
0010
0100
0000
,
0001
0100
0010
0000
,
1000
0100
0010
0000
,
0001
0010
0100
0000
,
1000
1000
0010
0010
,
0100
0100
0001
0001
,
0010
0010
1000
1000
,
0100
0100
2002
3003
,
1000
0100
0010
0000
,
0010
0001
0100
0001
,
0020
0030
0100
1000
,
0100
0010
0100
0100
,
1000
0000
1010
0000
,
0001
0000
0101
0000
,
1000
0000
1001
0000
,
0002
0003
0100
0100
,
0010
1000
0100
0000
,
0100
0010
0001
0010
,
0100
0000
0001
0100
,
1000
0010
0100
0010
,
1000
0000
1000
0100
,
0010
0001
0020
0030
,
0001
0100
0001
0010
,
0100
0100
0100
1001
,
1000
1010
0001
0011
,
1000
0100
0010
0001
,
2002
0000
0000
0000
3003
0000
0010
0100
,
0010
0010
0100
0100
,
0001
0011
1000
1100
,
0001
0010
0100
1000
,
0020
0030
0100
0110
,
0010
0000
0100
0000
0001
1000
0001
0000
,
1000
0100
1000
0001
,
1000
0100
1100
0000
,
0001
0010
0001
1000
,
0001
0010
0011
0000
,
1000
1000
0100
0100
,
0001
0001
0010
0010
,
1000
1000
0001
0001
,
0100
0010
0100
0110
,
0001
0100
0001
0010
,
0001
0100
0100
0010
,
1000
0100
1000
0010
,
1000
0100
0100
0010
,
0001
1000
0100
0010
,
0100
1000
0001
0010
,
0100
0010
0001
1000
,
0010
0100
0220
0330
,
0001
0000
0100
0000
,
1000
0000
0020
0000
,
0030
0000
0000
0000
;

//---------------dance-single - ----------------
#NOTES:
     dance-single:
     :
     Medium:
     11:
     0.428997,0.503037,0.266762,0.274384,0.076218,394.000000,359.000000,35.000000,36.000000,0.000000,0.000000,0.428997,0.503037,0.266762,0.274384,0.076218,394.000000,359.000000,35.000000,36.000000,0.000000,0.000000:
0000
0000
0000
0000
,
0000
0000
0000
0000
,
2000
3200
0320
0032
,
2003
3020
0230
0310
,
0110
1000
0110
0001
,
1001
0100
1001
0010
,
1000
0001
0100
0000
0001
1000
0010
0000
,
1000
0100
0010
0001
1000
0010
0200
0310
,
0010
1000
0100
0001
,
0010
0000
0100
0010
0110
0000
1000
0000
,
0010
0001
0100
1000
,
0010
0000
0100
0010
0110
0000
0001
0000
,
0010
0000
0000
0010
0000
0000
0010
0000
1000
0000
0000
1000
0000
0000
1000
0000
,
0100
0000
0000
0100
0000
0000
0100
0000
0010
0000
0000
0010
0000
0000
0010
0000
,
0001
0000
0000
0001
0000
0000
0001
0000
0100
0000
0000
0100
0000
0000
0100
0000
,
0010
1000
0010
1000
0002
0000
0103
0010
,
0110
1000
0100
0001
,
0010
0000
1000
0001
1001
0000
0100
0000
,
0010
0001
0100
1000
,
0010
0000
0001
1000
1001
0000
0001
0000
,
0100
0000
0000
0100
0000
0000
0100
0000
0010
0000
0000
0010
0000
0000
0010
0000
,
1000
0000
0000
1000
0000
0000
1000
0000
0001
0000
0000
0001
0000
0000
0001
0000
,
0010
0000
0000
0010
0000
0000
0010
0000
0100
0000
0000
0100
0000
0000
0100
0000
,
1000
0000
0000
1000
0000
0000
1000
0000
2002
0000
0000
0000
3003
0000
0000
0000
,
0001
0100
0010
0100
0002
0000
0000
0013
,
0010
0100
1000
0100
0010
0100
1000
0001
,
0010
0200
0000
1300
0010
0100
0001
1000
,
1001
0000
0001
0100
0010
1000
0100
0010
,
0002
0000
0000
0000
0103
0000
0100
0010
,
2000
0000
0000
0000
3100
0000
0100
0010
,
0002
0000
0000
0000
1003
0000
1000
0010
,
0200
0301
0011
1100
,
2002
0000
3003
0000
0110
0000
0010
0100
,
0001
1000
0100
0010
0200
0000
0000
1000
,
1300
0000
0000
1000
0010
0100
0001
1000
,
0200
0000
0310
0001
1000
0100
0010
0001
,
0020
0000
0000
0031
0001
0100
1000
0100
,
0001
0010
0100
1000
0001
0000
0101
0100
,
0020
0000
1030
0100
0001
0000
0100
1000
,
1020
0230
0302
1003
,
1001
0010
0100
0010
1001
0100
0010
0100
,
1001
0001
0010
0100
1000
0100
0010
0001
,
2000
0000
0000
0000
3010
0100
0001
1000
,
0110
0001
1000
0000
1010
0000
0101
0000
,
1100
0000
0011
0000
0001
0100
1000
0100
,
0001
0010
0100
0001
0100
0010
0001
0100
,
0020
0000
0000
1000
1030
0000
1100
0000
,
0020
0000
0000
0001
0031
0000
0101
0000
,
1000
0100
0001
0100
1000
0010
0001
0010
,
1000
0000
0100
0010
0011
0000
1100
0000
,
0001
0100
1000
0100
0001
0010
1000
0010
,
0001
0000
0100
0010
1010
0000
0101
0000
,
0001
0000
0000
0001
0000
0000
0001
0000
0010
0000
0000
0010
0000
0000
0010
0000
,
1000
0000
0000
1000
0000
0000
1000
0000
0100
0000
0000
0100
0000
0000
0100
0000
,
0001
0000
0000
0001
0000
0000
0001
0000
1000
0000
0000
1000
0000
0000
1000
0000
,
0200
0320
0032
1003
,
1000
0010
0001
1000
0100
0000
0001
0010
,
1000
0000
0001
0100
1000
0000
0010
0001
,
0010
0000
1000
0000
0100
0000
0001
0000
0100
0000
0000
1000
0000
0000
0001
0000
,
0010
1000
0010
0001
0100
0010
1000
0001
,
0110
0000
1000
0100
0001
1000
0010
0001
,
0100
0010
0010
0100
0101
0000
1010
1000
,
0100
0001
0100
1000
0010
0100
1000
0100
,
0010
1000
0100
0010
0001
0000
1001
0000
,
2000
0000
3020
0000
,
0032
0000
0203
0000
,
0300
0000
0000
0000
;

//---------------dance-single - ----------------
#NOTES:
     dance-single:
     :
     Hard:
     15:
     0.635874,0.653948,0.243897,0.480172,0.552579,584.000000,552.000000,32.000000,63.000000,0.000000,0.000000,0.635874,0.653948,0.243897,0.480172,0.552579,584.000000,552.000000,32.000000,63.000000,0.000000,0.000000:
// measure 0
0000
0000
0000
0000
,  // measure 1
0000
0000
0000
0000
,  // measure 2
2000
0000
0000
3010
0200
0000
0000
0301
0020
0000
0000
0000
0230
0000
0000
0000
,  // measure 3
2300
0000
0000
0000
0000
3001
0100
0010
2000
0000
0000
3100
0010
0000
0001
0000
,  // measure 4
2001
3020
0032
2003
,  // measure 5
3200
0302
0023
0230
,  // measure 6
1300
0000
0010
0000
0110
0000
0100
0001
0010
0000
0100
0000
0110
0000
0010
0100
,  // measure 7
1000
0000
0010
0000
0110
0000
0100
0000
0001
0010
0100
1000
0010
0100
0020
0000
,  // measure 8
1030
1000
0100
0100
0001
0001
0100
0100
,  // measure 9
2000
0000
0000
0000
3010
0100
0010
0100
0010
0000
0100
0000
0101
0000
0000
0000
,  // measure 10
0001
0001
0010
0010
1000
1000
0010
0010
,  // measure 11
0002
0000
0103
0010
1010
0000
1000
0100
,  // measure 12
0010
0000
0001
0100
0000
0010
0100
0000
0010
0000
1000
0010
0000
0100
0010
0000
,  // measure 13
0100
0000
0001
0010
0000
0100
0010
0000
0100
0000
1000
0100
0000
0010
0100
0000
,  // measure 14
1000
0000
0010
0100
0000
0001
0100
0010
0100
0000
0001
1000
0000
0010
1000
0001
,  // measure 15
1000
0000
0010
1000
0000
0100
1000
0010
1000
0000
0001
0100
0000
0001
0010
0100
,  // measure 16
0010
0010
0001
0001
0100
0100
1000
1000
,  // measure 17
0200
0000
0000
0000
0301
0010
0001
0010
0001
0000
1000
0000
1100
0000
0000
0000
,  // measure 18
0100
0100
1000
1000
0010
0010
0001
0001
,  // measure 19
0020
0000
1030
0001
0011
0000
0010
0100
,  // measure 20
1000
0000
0001
0100
0000
0001
0010
0000
0100
0000
1000
0010
0000
1000
0100
0000
,  // measure 21
0010
0000
0100
1000
0000
0100
0001
0000
0100
0000
0010
0001
0000
0010
1000
0000
,  // measure 22
0010
0000
0001
0100
0000
0010
0100
0010
1000
0000
0100
0010
0000
0001
0100
0001
,  // measure 23
1000
0000
0010
1000
0000
0100
0010
0100
2000
0000
0000
0000
0000
0000
0000
0000
,  // measure 24
3002
0000
0000
0000
0013
0001
0010
0100
2000
0000
0000
0000
3010
0100
0001
1000
,  // measure 25
0001
0000
0010
0001
0010
0000
0100
1000
0100
0000
1000
0010
1000
0000
0001
0100
,  // measure 26
0001
0100
0002
0000
0000
0000
1003
0100
1000
0000
0010
1000
0010
0000
0100
0001
,  // measure 27
0200
0000
0000
0000
0000
0000
0301
0010
0001
0000
1000
0100
1000
0000
0010
0100
,  // measure 28
0010
0000
1000
0001
1000
0001
1000
0001
0020
0000
0000
0000
0000
0000
0130
1000
,  // measure 29
0002
0000
0000
0000
0103
0010
0100
0010
1000
0000
0010
0100
0001
0000
0010
0000
,  // measure 30
0200
0000
0000
0000
1300
0010
1000
0010
0200
0000
0000
0000
0301
0010
0001
0010
,  // measure 31
0200
0000
0000
0000
1300
0001
1000
0001
0200
0000
0000
0000
0310
0000
0000
0000
,  // measure 32
2010
0000
0000
0000
0000
0000
0000
0000
3200
0000
0000
0000
0310
0001
0010
0001
,  // measure 33
0100
1000
0100
0001
0010
0100
0010
0001
,  // measure 34
2000
0000
0000
0000
0000
0000
3010
0000
0010
0000
0100
0001
0100
0001
0010
0100
,  // measure 35
2000
0000
0000
0000
3001
0000
0100
0000
0110
0000
0010
1000
0010
1000
0010
1000
,  // measure 36
0002
0000
0000
0000
0000
0000
0013
0100
1000
0000
0010
0000
0001
0000
1000
0000
,  // measure 37
0100
0000
0001
0000
0010
0000
0100
0010
0200
0000
0000
0000
1300
0000
0010
0000
,  // measure 38
0110
0000
0000
0000
0100
0001
0100
0001
2000
0000
0000
0000
3100
0010
0100
0010
,  // measure 39
0002
2003
3020
0130
,  // measure 40
0110
0000
0010
1000
0100
0000
0010
0000
0110
0000
0100
0010
0001
0000
0100
0000
,  // measure 41
0110
0000
0010
1000
0001
1000
0001
0100
0010
0000
1000
0000
0100
0000
0010
0000
,  // measure 42
0002
0000
0000
0000
1000
1000
1000
1003
,  // measure 43
1010
0000
0100
0000
0011
0000
0100
1000
0100
1000
0010
0100
0020
0000
0030
0000
,  // measure 44
0110
0000
2002
3003
0101
0010
1100
0010
,  // measure 45
0001
0100
0001
0100
0010
1000
0010
1000
0001
0000
0100
0001
1000
0000
0100
0000
,  // measure 46
0020
0000
0000
0000
0000
0000
0031
1000
0100
0000
0000
0000
1100
0000
0000
0000
,  // measure 47
0011
0000
0001
0000
0100
0000
1000
0000
0100
0000
0001
0010
0001
0000
1000
0000
,  // measure 48
0100
0100
0001
0001
0100
0100
1000
1000
,  // measure 49
0020
0000
0000
0000
0130
0001
0010
0100
0010
0000
0100
0000
1100
0000
0000
0000
,  // measure 50
0010
0010
1000
1000
0010
0010
0001
0001
,  // measure 51
0200
0000
0310
0100
0101
0000
0001
0010
,  // measure 52
0100
0000
1000
0010
0000
0001
0010
0000
0100
0000
0001
0100
0000
1000
0100
0000
,  // measure 53
0010
0000
1000
0100
0000
0001
0010
0000
1000
0000
0001
0100
0000
1000
0010
0000
,  // measure 54
0001
0000
1000
0100
0000
0010
0100
0010
0001
0000
1000
0010
0000
0100
0010
0100
,  // measure 55
0002
0023
2030
3100
,  // measure 56
0110
0000
0010
0000
1000
0100
0010
0001
0020
0000
0000
0000
0031
0000
0010
0100
,  // measure 57
2000
0000
0000
0000
3010
0000
0100
0000
0001
0000
1000
0100
0010
0100
0010
0001
,  // measure 58
0200
0000
0000
0000
0310
0000
1000
0000
0001
0000
0100
0010
0100
0010
1000
0100
,  // measure 59
0010
0001
1000
0000
1000
0100
0010
0000
0010
0001
0100
0000
0100
0010
1000
0000
,  // measure 60
2002
0000
3003
0000
0001
0100
0001
0100
0020
0000
0000
0000
0031
0000
0010
0000
,  // measure 61
1000
0100
0001
0100
1100
0000
0011
0100
,  // measure 62
2020
3030
0010
0100
0101
0010
1100
0010
,  // measure 63
0001
0100
0001
0100
0010
1000
0010
1000
0001
0010
0100
1000
0020
0000
0000
0000
,  // measure 64
0130
0001
1000
0200
0310
0001
1000
0020
,  // measure 65
0130
1000
0010
0001
2002
0000
0000
0000
,  // measure 66
3003
0000
0000
0000
;

//---------------dance-double - ----------------
#NOTES:
     dance-double:
     :
     Hard:
     15:
     0.617364,0.653948,0.221032,0.548768,0.499226,567.000000,538.000000,29.000000,72.000000,0.000000,0.000000,0.617364,0.653948,0.221032,0.548768,0.499226,567.000000,538.000000,29.000000,72.000000,0.000000,0.000000:
00000000
00000000
00000000
00000000
,
00000000
00000000
00000000
00000000
,
00002000
00000000
00000000
00103000
02000000
00000000
00000000
03010000
00002000
00000000
00000000
00000000
00003020
00000000
00000000
00000000
,
00000032
00000000
00000000
00000000
00000000
00000103
00001000
00010000
00200000
00000000
00000000
10300000
01000000
00000000
00100000
00000000
,
02100000
03020000
00032000
00003020
,
00000230
00020300
00032000
00203000
,
01300000
00000000
10000000
00000000
10010000
00000000
00010000
00100000
01000000
00000000
00010000
00000000
00011000
00000000
00001000
00000010
,
00000100
00000000
00001000
00000000
00001001
00000000
00000001
00000000
00000100
00001000
00010000
00000000
00001000
00010000
00200000
00000000
,
10300000
01000000
00100000
00010000
00001000
00000100
00000010
00000001
,
00002000
00000000
00000000
00000000
00003010
00000100
00000010
00000100
00000010
00000000
00001000
00000000
00001001
00000000
00000000
00000000
,
00000001
00000010
00000100
00001000
00010000
00100000
01000000
10000000
,
00020000
00000000
01030000
00010000
10010000
00000000
10000000
01000000
,
00100000
00000000
00010000
01000000
00000000
00001000
00010000
00000000
00000100
00000000
00001000
00000010
00000000
00010000
00001000
00000000
,
01000000
00000000
00010000
00100000
00000000
00001000
00010000
00000000
00000010
00000000
00001000
00000100
00000000
00010000
00001000
00000000
,
00100000
00000000
01000000
10000000
00000000
00100000
01000000
00100000
01000000
00000000
00010000
00100000
00000000
00001000
00010000
00001000
,
00010000
00000000
00000100
00001000
00000000
00000010
00000100
00000010
00000100
00000000
00000001
00001000
00000000
00000100
00000010
00000100
,
00000010
00000001
00000100
00001000
00010000
00100000
10000000
01000000
,
00020000
00000000
00000000
00000000
00031000
00100000
00001000
00100000
01000000
00000000
10000000
00000000
10010000
00000000
00000000
00000000
,
00100000
10000000
01000000
00010000
00001000
00000010
00000001
00000100
,
00002000
00000000
00013000
00000100
00000110
00000000
00000001
00000100
,
00001000
00000000
00010000
00100000
00000000
00010000
00001000
00000000
00010000
00000000
00001000
00000010
00000000
00001000
00010000
00000000
,
00001000
00000000
00010000
01000000
00000000
00010000
00001000
00000000
00010000
00000000
00001000
00000100
00000000
00001000
00010000
00000000
,
00100000
00000000
10000000
01000000
00000000
00100000
00010000
00100000
00010000
00000000
00001000
00000010
00000000
00000100
00000001
00000100
,
00000001
00000000
00000010
00001000
00000000
00010000
00001000
00010000
00002000
00000000
00000000
00000000
00000000
00000000
00000000
00000000
,
02003000
00000000
00000000
00000000
03100000
10000000
00100000
10000000
02000000
00000000
00000000
00000000
03100000
00010000
00100000
00010000
,
01000000
00000000
00100000
00000000
00100000
00000000
00010000
00000000
00010000
00000000
00001000
00000000
00001000
00000000
00000100
00000001
,
00000100
00000001
00000020
00000000
00000000
00000000
00000130
00000000
00000100
00000000
00010000
00000000
00010000
00000000
00001000
00000000
,
00002000
00000000
00000000
00103000
00100000
01000000
01000000
10000000
,
10000000
00000000
00100000
00010000
00100000
00010000
00100000
00010000
00002000
00000000
00000000
00000000
00000000
00000000
00103000
01000000
,
00020000
00000000
00000000
00000000
00031000
00000100
00001000
00000100
00000001
00000000
00000010
00000100
00000010
00000000
00001000
00000000
,
00020000
00000000
00000000
00000000
00130000
10000000
00100000
10000000
02000000
00000000
00000000
00000000
03010000
00001000
00010000
00001000
,
00000020
00000000
00000000
00000000
00000031
00000100
00000001
00000100
00002000
00000000
00000000
00000000
00013000
00000000
00000000
00000000
,
00210000
00000000
00000000
00000000
00000000
00000000
00000000
00000000
20300000
00000000
00000000
00000000
31000000
00100000
01000000
00100000
,
00010000
01000000
00001000
00010000
00100000
00001000
00000010
00000100
,
00000002
00000000
00000000
00000000
00000000
00000000
00000013
00000000
00000010
00000000
00001000
00010000
00001000
00010000
00100000
01000000
,
00200000
00000000
00000000
00000000
10300000
00000000
01000000
00000000
11000000
00000000
10000000
00010000
10000000
00010000
10000000
00010000
,
00200000
00000000
00000000
00000000
00000000
00000000
01300000
00010000
00001000
00000000
00100000
00000000
00010000
00000000
00000010
00000000
,
00001000
00000000
00010000
00000000
00001000
00000000
00000100
00000001
00000200
00000000
00000000
00000000
00000310
00000000
00001000
00000000
,
00001100
00000000
00000000
00000000
00000100
00000010
00000100
00000010
00000002
00000000
00000000
00000000
00000103
00001000
00000100
00001000
,
00020000
00230000
20300000
30010000
,
01100000
00000000
00100000
10000000
01000000
00000000
00010000
00000000
00011000
00000000
00001000
00000010
00000001
00000000
00000100
00000000
,
00000110
00000000
00000010
00001000
00000100
00001000
00000100
00000010
00000001
00000000
00000100
00000000
00001000
00000000
00010000
00000000
,
00200000
00000000
00000000
00000000
20300000
32000000
03020000
00031000
,
00011000
00000000
00001000
00000000
00000100
00000000
00000001
00000010
00000001
00000010
00000100
00001000
00000200
00000000
00000300
00000000
,
00000110
00000000
00002002
00003003
00000101
00000100
00001000
00010000
,
00100000
10000000
00100000
10000000
01000000
00100000
01000000
00100000
00010000
00000000
00100000
00000000
00001000
00000000
00000010
00000000
,
00000002
00000000
00000000
00000000
00000000
00000000
00001003
00000100
00000010
00000000
00000000
00000000
00000011
00000000
00000000
00000000
,
00001100
00000000
00000100
00000000
00010000
00000000
01000000
00000000
10000000
00000000
00100000
01000000
00100000
00000000
00010000
00000000
,
00001000
00000100
00000010
00000001
00000010
00000100
00001000
00010000
,
00200000
00000000
00000000
00000000
10300000
01000000
00100000
00010000
00100000
00000000
01000000
00000000
01100000
00000000
00000000
00000000
,
00100000
01000000
00010000
00001000
00000010
00000100
00000001
00000100
,
00000020
00000000
00001030
00010000
00110000
00000000
00100000
10000000
,
01000000
00000000
00010000
00001000
00000000
00010000
00000100
00000000
00000010
00000000
00000001
00000100
00000000
00001000
00000100
00000000
,
00001000
00000000
00010000
01000000
00000000
10000000
01000000
00000000
10000000
00000000
00100000
00010000
00000000
00001000
00010000
00000000
,
00001000
00000000
00000100
00000001
00000000
00000010
00000100
00000010
00001000
00000000
00010000
01000000
00000000
00100000
01000000
00100000
,
20000000
30020000
00032000
00003100
,
00000101
00000000
00000001
00000000
00001000
00000100
00000010
00000100
00002000
00000000
00000000
00000000
00003010
00000000
00010000
00001000
,
00200000
00000000
00000000
00000000
01300000
00000000
10000000
00000000
00100000
00000000
00010000
00001000
00000100
00001000
00000100
00000001
,
00000020
00000000
00000000
00000000
00000130
00000000
00010000
00000000
00001000
00000000
00100000
01000000
00100000
01000000
10000000
00100000
,
00010000
00001000
00200000
00000000
02300000
00000000
03020000
00000000
00032000
00000000
00003020
00000000
00000230
00000000
00002300
00000000
,
00000002
00000000
00003003
00000000
00000001
00000100
00001000
00010000
00200000
00000000
00000000
00000000
10300000
00000000
01000000
00000000
,
00100000
00010000
00001000
00000010
00000101
00000000
00001010
00010000
,
00022000
00033000
00001000
00100000
11000000
00010000
00101000
00001000
,
00010000
00000100
00010000
00000100
00001000
00000010
00001000
00000010
00000100
00000001
00000010
00000100
00002000
00000000
00000000
00000000
,
00003001
00000010
00000100
00020000
00031000
00100000
01000000
20000000
,
30100000
00010000
00001000
00000100
00002002
00000000
00000000
00000000
,
00003003
00000000
00000000
00000000
;

//---------------dance-double - ----------------
#NOTES:
     dance-double:
     :
     Easy:
     7:
     0.244986,0.301822,0.144814,0.129570,0.000000,225.000000,206.000000,19.000000,17.000000,0.000000,0.000000,0.244986,0.301822,0.144814,0.129570,0.000000,225.000000,206.000000,19.000000,17.000000,0.000000,0.000000:
00000000
00000000
00000000
00000000
,
00000000
00000000
00000000
00000000
,
00001000
00001000
00010000
00010000
,
00002000
00003000
00020000
00030000
,
00011000
00001000
00100000
00010000
,
01000000
00001000
00010000
00000100
,
00001000
00000010
00010000
00001000
,
00020000
00000000
00002000
00033000
,
00001000
00000000
01000000
00000000
,
00001000
00010000
00100000
00000000
,
00010000
00000000
00000010
00000000
,
00010000
00001000
00000100
00000000
,
00001000
00010000
01000000
10000000
,
00100000
00010000
00001000
00010000
,
01000000
10000000
00100000
00010000
,
00001000
00000010
00000001
00001001
,
00001000
00000000
00000100
00000000
,
00000010
00001000
00100000
00000000
,
00010000
00000000
00100000
00000000
,
01000000
00010000
00000100
00000000
,
00010000
00001000
00000100
00000001
,
00000010
00001000
00010000
00001000
,
00000100
00000001
00000010
00001000
,
00010000
01000000
20020000
30030000
,
10000000
00000000
01000000
00000000
,
00100000
00000000
00010000
00000000
,
00002000
00003000
00000010
00000100
,
00000010
00000000
00001000
00000001
,
00001000
00000000
00001100
00000000
,
00000010
00000000
00000011
00000000
,
00000100
00000000
00000110
00000000
,
00000020
00000030
00001000
00001000
,
00000001
00000000
00000010
00000000
,
00000100
00000000
00001000
00000000
,
00010000
00000000
01000000
00000000
,
00100000
00000000
10000000
00010000
,
20000000
30000000
01000000
00100000
,
00020000
00030000
00200000
00300000
,
01000000
00010000
00001000
00000010
,
00000001
00000100
00001000
00011000
,
00100000
01100000
00010000
10010000
,
10000000
01000000
00010000
00001000
,
00022000
00000000
00000000
00000000
00033000
00000000
00010000
00001000
,
00010000
00001000
00000100
00000001
,
00000010
00000110
00001000
00001001
,
00000001
00000100
00001000
00010000
,
00200000
00300000
10000000
10010000
,
00010000
00000000
01000000
00000000
00100000
01000000
00100000
00000000
,
10000000
01000000
00010000
00001000
,
00010000
01000000
11000000
00000000
,
10000000
00100000
00010000
00001000
,
00010000
00100000
10100000
00000000
,
10000000
01000000
00100000
00001000
,
00010000
00000100
00000010
00000001
,
00001000
00000010
00010000
00001000
,
01000000
00010000
00100000
01100000
,
01000000
00010000
00001000
00000010
,
00001000
00010000
00110000
00000000
,
00100000
00010000
00001000
00000100
,
00001000
00010000
01010000
00000000
,
10000000
00100000
00010000
00001000
,
00000100
00000001
00000010
00000100
,
00001000
00010000
00100000
01000000
,
10000000
00100000
02200000
03300000
,
10000000
00000000
00010000
00000000
,
00001000
00000000
00000002
00000000
,
00000003
00000000
00000000
00000000
;

//---------------dance-double - ----------------
#NOTES:
     dance-double:
     :
     Medium:
     11:
     0.424642,0.452734,0.243897,0.213410,0.076218,390.000000,358.000000,32.000000,28.000000,0.000000,0.000000,0.424642,0.452734,0.243897,0.213410,0.076218,390.000000,358.000000,32.000000,28.000000,0.000000,0.000000:
00000000
00000000
00000000
00000000
,
00000000
00000000
00000000
00000000
,
10000000
01000000
00100000
00010000
,
00001000
00000100
00000010
00000001
,
00001001
00000100
00011000
00100000
,
10010000
01000000
00011000
00000010
,
00001000
00000001
00000100
00000000
00000001
00001000
00000010
00000000
,
00001000
00000100
00000010
00000001
00000100
00001000
00020000
00031000
,
00001000
00010000
01000000
10000000
,
00100000
00000000
00010000
00001000
00011000
00000000
00001000
00000000
,
00010000
00001000
00000100
00000001
,
00000010
00000000
00001000
00010000
00011000
00000000
00010000
00000000
,
00001000
00000000
00000000
00100000
00000000
00000000
00001000
00000000
00010000
00000000
00000000
00000010
00000000
00000000
00010000
00000000
,
00001000
00000000
00000000
01000000
00000000
00000000
00001000
00000000
00010000
00000000
00000000
00000100
00000000
00000000
00010000
00000000
,
00001000
00000000
00000000
00000100
00000000
00000000
00001000
00000000
00010000
00000000
00000000
01000000
00000000
00000000
00010000
00000000
,
00001000
00000010
00000001
00001000
00000200
00000000
00000310
00000001
,
00001001
00001000
00000100
00010000
,
01000000
00000000
10000000
00010000
10010000
00000000
00010000
00000000
,
10000000
00010000
00100000
00001000
,
00000010
00000000
00000001
00001000
00001001
00000000
00000001
00000000
,
00000100
00000000
00000000
00000010
00000000
00000000
00000100
00000000
00001000
00000000
00000000
00010000
00000000
00000000
00001000
00000000
,
01000000
00000000
00000000
00100000
00000000
00000000
01000000
00000000
00001000
00000000
00000000
00010000
00000000
00000000
00001000
00000000
,
00100000
00000000
00000000
01000000
00000000
00000000
10000000
00000000
00100000
00000000
00000000
00010000
00000000
00000000
00001000
00000000
,
00000100
00000000
00000000
00000001
00000000
00000000
00001000
00000000
00002002
00000000
00000000
00000000
00003003
00000000
00000000
00000000
,
00000001
00000100
00000010
00000100
00000002
00000000
00000000
00001003
,
00001000
00000100
00000010
00000100
00000010
00000001
00000100
00001000
,
00010000
00200000
00000000
10300000
01000000
00100000
01000000
10000000
,
10010000
00000000
00010000
01000000
00100000
10000000
01000000
00100000
,
00020000
00000000
00000000
00000000
01030000
00000000
01000000
00001000
,
00020000
00000000
00000000
00000000
00030100
00000000
00000100
00000010
,
00000002
00000000
00000000
00000000
00001003
00000000
00001000
00000010
,
00020000
00031000
01001000
00010010
,
00022000
00000000
00033000
00000000
00011000
00000000
00001000
00010000
,
00100000
01000000
00010000
10000000
02000000
00000000
00000000
00100000
,
03100000
00000000
00000000
00100000
00001000
00010000
00000100
00000010
,
00000002
00000000
00001003
00000010
00000100
00000001
00000010
00000100
,
00020000
00000000
00000000
00031000
00001000
00100000
01000000
00100000
,
00001000
00010000
01000000
10000000
00100000
00000000
01000000
00100000
,
00020000
00000000
00031000
00000100
00000001
00000000
00000010
00001000
,
00021000
00030100
00012000
00103000
,
00011000
00010000
01000000
10000000
10000000
00100000
00010000
00001000
,
00000100
00000100
00000001
00000010
00000100
00001000
00000010
00000100
,
00002000
00000000
00000000
00000000
00013000
00100000
10000000
00000000
,
11000000
01000000
00100000
00000000
00101000
00000000
00010010
00000000
,
01001000
00000000
00010100
00000000
00000100
00000010
00000001
00001000
,
00000100
00000010
00001000
00000010
00000001
00000100
00001000
00010000
,
00200000
00000000
00000000
10000000
10300000
00000000
11000000
00000000
,
02000000
00000000
00000000
00010000
03010000
00000000
00011000
00000000
,
00001000
00010000
01000000
10000000
00100000
00010000
00001000
00010000
,
01000000
00000000
10000000
00100000
00010000
00000000
00011000
00000000
,
00010000
00001000
00000100
00000001
00000010
00001000
00010000
00001000
,
00000100
00000000
00000001
00000010
00001000
00000000
00011000
00000000
,
00001000
00000000
00000000
00000010
00000000
00000000
00001000
00000000
00010000
00000000
00000000
00100000
00000000
00000000
00010000
00000000
,
00001000
00000000
00000000
00000100
00000000
00000000
00001000
00000000
00010000
00000000
00000000
01000000
00000000
00000000
00010000
00000000
,
00001000
00000000
00000000
00000010
00000000
00000000
00000001
00000000
00000100
00000000
00000000
00001000
00000000
00000000
00010000
00000000
,
00200000
20300000
32000000
03100000
,
10010000
10000000
01000000
00100000
00010000
00000000
00100000
01000000
,
00010000
00000000
00001000
00000010
00000100
00000000
00001000
00000100
,
00000010
00000000
00000001
00000000
00001000
00000000
00000100
00000000
00000010
00000000
00000000
00000001
00000000
00000000
00000100
00000000
,
00001000
00010000
00001000
00000100
00001000
00010000
01000000
10000000
,
10100000
00000000
00100000
01000000
00100000
00010000
00001000
00000100
,
00000010
00000100
00000100
00000001
00001001
00000000
00000110
00000010
,
00001000
00000100
00000010
00000001
00000010
00000100
00001000
00010000
,
00100000
01000000
10000000
01000000
00010000
00000000
00011000
00000000
,
00000020
00000000
00020030
00000000
,
00032000
00000000
02003000
00000000
,
03000000
00000000
00000000
00000000
;
