#TITLE:PonPonPon;
#SUBTITLE:;
#ARTIST:Kyary Pamyu Pamyu;
#TITLETRANSLIT:;
#SUBTITLETRANSLIT:;
#ARTISTTRANSLIT:;
#GENRE:XROSS;
#CREDIT:MUINELIM;
#BANNER:PonPonPon.png;
#BACKGROUND:PonPonPon-bg.png;
#LYRICSPATH:;
#CDTITLE:;
#MUSIC:PonPonPon.mp3;
#OFFSET:0.000000;
#SAMPLESTART:31.393999;
#SAMPLELENGTH:15.000000;
#SELECTABLE:YES;
#DISPLAYBPM:128.000000;
#BPMS:0.000000=128.000000
;
#STOPS:
;
#BGCHANGES:-10000.000=black.mpg=1.000=1=0=1===CrossFade==,
-0.300=PonPonPon.mp4=1.000=1=0=0=StretchNoLoop==CrossFade==,
99999=-nosongbg-=1.000=0=0=0 // don't automatically add -songbackground-
;
#KEYSOUNDS:;
#ATTACKS:;

//---------------dance-single - ----------------
#NOTES:
     dance-single:
     :
     Beginner:
     3:
     0.125534,0.153344,0.008700,0.000000,0.000000,101.000000,100.000000,1.000000,0.000000,0.000000,0.000000,0.125534,0.153344,0.008700,0.000000,0.000000,101.000000,100.000000,1.000000,0.000000,0.000000,0.000000:
// measure 0
0000
0000
0000
0000
,  // measure 1
0000
0000
0000
0000
,  // measure 2
0000
0000
0000
0000
,  // measure 3
0000
0000
0000
0000
,  // measure 4
0000
0000
0000
0001
,  // measure 5
0000
0001
0000
0001
,  // measure 6
0000
0000
0000
1000
,  // measure 7
0000
1000
0000
1000
,  // measure 8
0000
0000
0000
0010
,  // measure 9
0000
0100
0000
0010
,  // measure 10
0000
0000
0000
0100
,  // measure 11
0000
0010
0000
0100
,  // measure 12
0000
0000
0000
0001
,  // measure 13
0000
1000
0000
0001
,  // measure 14
0000
0000
0000
1000
,  // measure 15
0000
0001
0000
1000
,  // measure 16
0000
0000
0000
0001
,  // measure 17
0000
0001
0000
0001
,  // measure 18
0000
0001
0000
0100
,  // measure 19
0000
0100
0000
0100
,  // measure 20
0000
0100
0000
1000
,  // measure 21
0000
1000
0000
1000
,  // measure 22
0000
1000
0000
0010
,  // measure 23
0000
0010
0000
0010
,  // measure 24
0000
0010
0000
0001
,  // measure 25
0000
1000
0000
0001
,  // measure 26
0000
1000
0000
0100
,  // measure 27
0000
0010
0000
0100
,  // measure 28
0000
0010
0000
0001
,  // measure 29
0000
1000
0000
0001
,  // measure 30
0000
1000
0000
0100
,  // measure 31
0000
0010
0000
0100
,  // measure 32
0000
0010
0000
0001
,  // measure 33
0000
0001
0000
0100
,  // measure 34
0000
0100
0000
1000
,  // measure 35
0000
1000
0000
0010
,  // measure 36
0000
0010
0000
0001
,  // measure 37
0000
0000
0000
1000
,  // measure 38
0000
0000
0000
0001
,  // measure 39
0000
1000
0000
0001
,  // measure 40
0001
0001
0000
1000
,  // measure 41
0000
1000
0000
1000
,  // measure 42
0000
1000
0000
0100
,  // measure 43
0000
0100
0000
0100
,  // measure 44
0000
0100
0000
0001
,  // measure 45
0000
0001
0000
0001
,  // measure 46
0000
0001
0000
0010
,  // measure 47
0000
0010
0000
0010
,  // measure 48
0010
0010
0000
1000
,  // measure 49
0000
0001
0000
0100
,  // measure 50
0000
0010
0000
1000
,  // measure 51
0000
0001
0000
0100
,  // measure 52
0000
0010
0000
1000
,  // measure 53
0000
0100
0000
0001
,  // measure 54
0000
0010
0000
1000
,  // measure 55
0000
0100
0000
0001
,  // measure 56
0000
0010
0000
0100
,  // measure 57
0000
0000
0000
0000
,  // measure 58
0000
0000
0000
1001
;

//---------------dance-single - ----------------
#NOTES:
     dance-single:
     :
     Easy:
     5:
     0.218751,0.255573,0.078303,0.087003,0.000000,176.000000,167.000000,9.000000,10.000000,0.000000,0.000000,0.218751,0.255573,0.078303,0.087003,0.000000,176.000000,167.000000,9.000000,10.000000,0.000000,0.000000:
0000
0000
0000
0000
,
0000
0000
0000
0000
,
0000
0000
0000
0000
,
0000
0000
0000
0000
,
0000
0000
0000
1000
,
0000
1000
0000
1000
,
0000
0000
0000
0001
,
0000
0001
0000
0001
,
0000
0000
0000
1000
,
0000
0100
0000
0010
,
0000
0001
0000
1000
,
0000
0100
0000
0010
,
0000
0001
0000
0001
,
0000
0010
0000
0100
,
0000
1000
0000
0001
,
0000
0010
0000
0100
,
0100
0100
1001
1000
,
0010
1000
0010
1000
,
0100
1000
0100
1000
,
0010
1000
0010
1000
,
0100
1000
1000
0001
,
0010
0001
0010
0001
,
0100
0001
0100
0001
,
0010
0001
0010
0001
,
0100
0001
0001
1000
,
0100
0020
0000
0030
,
0001
0200
0000
0300
,
0010
1000
0100
0010
,
0001
1001
0000
1000
,
0010
0200
0000
0300
,
0001
0020
0000
0030
,
0100
1000
0001
0100
,
0010
0110
0000
1000
,
0001
1000
0001
0100
,
0010
0100
0010
1000
,
0001
0100
0010
1000
,
0001
1000
1000
0010
,
0000
0100
0000
0010
,
0000
0100
0000
0110
,
0000
0110
0000
0010
,
0100
0010
0110
1000
,
0100
1000
0100
0001
,
0100
0001
0100
1000
,
0100
1000
0100
0001
,
0100
1000
0100
0010
,
0001
0010
0001
0010
,
1000
0010
1000
0010
,
0001
0010
0001
0010
,
1000
0010
0001
0010
,
0100
1000
0001
0010
,
0100
2000
3000
0100
,
0010
0001
1000
0100
,
0010
0002
0003
0010
,
0100
1000
0010
0100
,
0001
2002
3003
0100
,
0010
0001
0100
0010
,
1000
0001
1000
2002
,
0000
0000
0000
0000
,
0000
0000
3003
0110
;

//---------------dance-double - ----------------
#NOTES:
     dance-double:
     :
     Easy:
     5:
     0.219994,0.255573,0.087003,0.078303,0.000000,177.000000,167.000000,10.000000,9.000000,0.000000,0.000000,0.219994,0.255573,0.087003,0.078303,0.000000,177.000000,167.000000,10.000000,9.000000,0.000000,0.000000:
00000000
00000000
00000000
00000000
,
00000000
00000000
00000000
00000000
,
00000000
00000000
00000000
00000000
,
00000000
00000000
00000000
00000000
,
00000000
00000000
00000000
00001000
,
00000000
00001000
00000000
00001000
,
00000000
00000000
00000000
00010000
,
00000000
00010000
00000000
00010000
,
00000000
00000000
00000000
00000100
,
00000000
00010000
00000000
00001000
,
00000000
00010000
00000000
00000010
,
00000000
00010000
00000000
00001000
,
00000000
00001000
00000000
01000000
,
00000000
00001000
00000000
00010000
,
00000000
00001000
00000000
00100000
,
00000000
00001000
00000000
00010000
,
00010000
00010000
00011000
00001000
,
00100000
00001000
00100000
00010000
,
01000000
00010000
01000000
00001000
,
00100000
00001000
00100000
00010000
,
01000000
00001000
00001000
00010000
,
00000100
00010000
00000100
00001000
,
00000010
00001000
00000010
00010000
,
00000100
00010000
00000100
00001000
,
00000010
00010000
00010000
00001000
,
00100000
00020000
00000000
00030000
,
10000000
02000000
00000000
03000000
,
00100000
00010000
01000000
00001000
,
00010000
00011000
00000000
00001000
,
00010000
00000020
00000000
00000030
,
00001000
00000200
00000000
00000300
,
00000010
00000001
00001000
00000010
,
00010000
00011000
00000000
00001000
,
00010000
00001000
00010000
00100000
,
00010000
00100000
00010000
00001000
,
00010000
00001000
00000010
00001000
,
00000010
00001000
00010000
00100000
,
00000000
00100000
00000000
00100000
,
00000000
00100000
00000000
10100000
,
00000000
11000000
00000000
01000000
,
00010000
00001000
00011000
00010000
,
00000100
00010000
00001000
00010000
,
00000010
00010000
00001000
00010000
,
00100000
00010000
00001000
00010000
,
00000010
00010000
00011000
00001000
,
01000000
00001000
00010000
00001000
,
00100000
00001000
00010000
00001000
,
00000010
00001000
00010000
00001000
,
00100000
00001000
00011000
00010000
,
00000100
00001000
00000010
00000100
,
00000001
00002000
00003000
00000010
,
00010000
00001000
00100000
00010000
,
01000000
00200000
00300000
10000000
,
00010000
01000000
00001000
00010000
,
00000100
00000020
00000030
00000001
,
00000100
00000010
00001000
00010000
,
01000000
00100000
10000000
20020000
,
00000000
00000000
00000000
00000000
,
00000000
00000000
30030000
01100000
;

//---------------dance-single - ----------------
#NOTES:
     dance-single:
     :
     Hard:
     11:
     0.431288,0.460031,0.139205,0.191408,0.000000,347.000000,331.000000,16.000000,22.000000,0.000000,0.000000,0.431288,0.460031,0.139205,0.191408,0.000000,347.000000,331.000000,16.000000,22.000000,0.000000,0.000000:
0000
0000
0000
0000
,
0000
0000
0000
0000
,
0000
0000
0000
0000
,
0000
0000
0000
0000
,
0000
0000
0000
2000
,
0100
0000
3100
0002
,
0100
0000
0103
2000
,
0010
0000
3010
0002
,
0010
0000
0013
1001
,
1000
0010
0100
0110
,
0010
0100
0001
1001
,
1000
0100
0010
0110
,
0100
0010
0001
0201
,
0310
0100
0010
1020
,
0130
0010
0100
0102
,
1003
0000
2010
0000
3001
0001
0000
0001
,
0010
0100
1000
0000
1001
0000
0001
0100
,
0001
0100
0001
0010
0001
0010
0001
0100
,
0001
0010
0001
1000
0001
0100
0001
0010
,
0001
0010
0001
0100
0001
0100
0001
0010
,
0001
0100
0001
1000
0001
0000
1000
0100
,
1000
0100
1000
0010
1000
0010
1000
0100
,
1000
0010
1000
0001
1000
0100
1000
0010
,
1000
0010
1000
0100
1000
0100
1000
0010
,
1000
0100
1000
0001
1000
0000
0001
0010
,
0100
1000
0020
0000
0100
0000
1030
0100
,
0010
0001
0200
0000
0010
0000
0301
0010
,
0100
1000
0020
0000
0230
0000
0301
1000
,
0100
0010
2002
0000
3003
0000
1000
0010
,
0100
0001
0020
0000
0100
0000
0031
0100
,
0010
1000
0200
0000
0010
0000
1300
0010
,
0100
0001
0020
0000
0230
0000
1300
0010
,
0100
0001
1000
0100
0100
0000
1000
0010
,
0100
0001
0010
0010
0010
0001
0100
0010
,
1000
0100
0010
0100
1100
0000
0001
0010
,
0100
1000
0010
0010
0010
1000
0100
0010
,
0001
0100
0010
0100
0101
0000
0001
0000
,
0001
0000
0010
0010
0010
0000
1000
0000
,
1000
0000
0100
0001
0100
1000
0010
0000
,
0010
0000
0001
0001
0001
0000
0100
1000
,
0100
0001
0010
0100
1001
0000
1000
0010
,
1000
0010
0001
0010
0001
0010
1000
0010
,
0001
0010
0100
0010
1000
0010
0001
0010
,
0001
0010
1000
0010
1000
0010
0001
0010
,
0100
0010
1000
0010
0100
0000
0001
0100
,
0001
0100
1000
0100
1000
0100
0001
0100
,
1000
0100
0010
0100
0001
0100
1000
0100
,
1000
0100
0001
0100
0001
0100
1000
0100
,
0010
0100
0001
0100
0010
0000
1000
0100
,
0001
0100
1000
0010
0001
0010
1000
0100
,
0010
0001
2000
0000
3000
0001
0001
0100
,
1000
0100
0001
0010
1000
0010
0001
0100
,
0010
1000
0001
0000
0110
0000
1000
0100
,
0001
1000
0010
0001
0100
1000
0001
0010
,
1000
0100
0020
0000
0030
0001
0001
0100
,
1000
0001
0010
1000
0100
0001
1000
0010
,
0001
0100
1000
0010
0001
0100
2002
0000
,
0000
0000
0000
0000
,
0000
0000
3003
0110
;

//---------------dance-double - ----------------
#NOTES:
     dance-double:
     :
     Hard:
     11:
     0.428803,0.460031,0.113104,0.217509,0.000000,345.000000,332.000000,13.000000,25.000000,0.000000,0.000000,0.428803,0.460031,0.113104,0.217509,0.000000,345.000000,332.000000,13.000000,25.000000,0.000000,0.000000:
00000000
00000000
00000000
00000000
,
00000000
00000000
00000000
00000000
,
00000000
00000000
00000000
00000000
,
00000000
00000000
00000000
00000000
,
00000000
00000000
00000000
00002000
,
01000000
00000000
01003000
00020000
,
00000100
00000000
00030100
00002000
,
00100000
00000000
00103000
00020000
,
00000010
00000000
00030010
00011000
,
00001000
00010000
01000000
01100000
,
00100000
01000000
00010000
00011000
,
00010000
00001000
00000010
00000110
,
00000100
00000010
00001000
00021000
,
01030000
00010000
00001000
00012000
,
00003100
00001000
00010000
00021000
,
00030010
00000000
00012000
00000000
00103000
00100000
00000000
00010000
,
00100000
01000000
10000000
00000000
10010000
00000000
00010000
01000000
,
00010000
01000000
00001000
01000000
00001000
01000000
00010000
01000000
,
00100000
01000000
00010000
01000000
00001000
01000000
00010000
01000000
,
00010000
01000000
00001000
01000000
00001000
01000000
00010000
01000000
,
00100000
01000000
00010000
01000000
00001000
00000000
00010000
00000100
,
00010000
00000100
00001000
00000100
00001000
00000100
00010000
00000100
,
00001000
00000100
00000010
00000100
00001000
00000100
00010000
00000100
,
00010000
00000100
00001000
00000100
00001000
00000100
00000010
00000100
,
00001000
00000100
00010000
00000100
00001000
00000000
00000100
00000010
,
00000001
00001000
00000200
00000000
00000320
00000000
00000130
00001000
,
00000001
00000010
00000200
00000000
00000320
00000000
00000130
00001000
,
00000010
00000100
00002000
00000000
00023000
00000000
00130000
01000000
,
00010000
00100000
02000000
00000000
03100000
00000000
01000000
00100000
,
00010000
10000000
02000000
00000000
03200000
00000000
01300000
10000000
,
00010000
00100000
02000000
00000000
03200000
00000000
00310000
01000000
,
00100000
00010000
00002000
00000000
00023000
00000000
00031000
00000100
,
00000010
00001000
00000100
00000010
00000001
00000000
00000100
00001000
,
00010000
00100000
10000000
10000000
10000000
01000000
00010000
01000000
,
10000000
00100000
00010000
00001000
00010000
00000000
01000000
00010000
,
00001000
00000010
00000001
00000001
00000001
00000100
00001000
00000100
,
00000001
00000010
00001000
00010000
00001000
00000000
00010000
00000000
,
00010000
00000000
00100000
00100000
00100000
00000000
10000000
00000000
,
10000000
00000000
01000000
00010000
00001000
00010000
00001000
00000000
,
00000010
00000000
00000001
00000001
00000001
00000000
00000100
00001000
,
00000100
00001000
00010000
00001000
00011000
00000000
00010000
00001000
,
00010000
00001000
00010000
00100000
00010000
00100000
00010000
00001000
,
00010000
00100000
00010000
00001000
00010000
01000000
00010000
00001000
,
00010000
00001000
00010000
01000000
00010000
01000000
00010000
00001000
,
00010000
00100000
00010000
00001000
00010000
00000000
00001000
00010000
,
00001000
00010000
00001000
00000010
00001000
00000010
00001000
00010000
,
00001000
00000010
00001000
00010000
00001000
00000100
00001000
00010000
,
00001000
00010000
00001000
00000100
00001000
00000100
00001000
00010000
,
00001000
00000010
00001000
00010000
00001000
00000000
00010000
00001000
,
01000000
00010000
01000000
00001000
00010000
01000000
00010000
00001000
,
00100000
01000000
00020000
00000000
00030000
00001000
00001000
00010000
,
00000100
00001000
00000100
00010000
00001000
00000100
00001000
00010000
,
00000100
00000010
00001000
00000000
00011000
00000000
00010000
00100000
,
10000000
01000000
00010000
01000000
10000000
00100000
00010000
00001000
,
00000100
00000001
00000020
00000000
00000030
00000001
00000001
00000100
,
00001000
00000100
00000001
00000010
00001000
00010000
01000000
10000000
,
00100000
00010000
00100000
10000000
01000000
00010000
00022000
00000000
,
00000000
00000000
00000000
00000000
,
00000000
00000000
00033000
00011000
;

//---------------dance-single - ----------------
#NOTES:
     dance-single:
     :
     Medium:
     8:
     0.362929,0.460031,0.748229,0.139205,0.000000,292.000000,206.000000,86.000000,16.000000,0.000000,0.000000,0.362929,0.460031,0.748229,0.139205,0.000000,292.000000,206.000000,86.000000,16.000000,0.000000,0.000000:
0000
0000
0000
0000
,
0000
0000
0000
0000
,
0000
0000
0000
0000
,
0000
0000
0000
0000
,
0000
0000
0000
1000
,
1010
0000
1010
0001
,
0101
0000
0101
1000
,
1100
0000
1100
0001
,
0011
0000
0011
0001
,
1000
0001
0200
0301
,
0001
1000
0010
1000
,
0001
1000
0200
1300
,
1000
0001
0010
0001
,
1000
0001
0200
0310
,
0010
1000
0010
0100
,
0001
0100
0020
0130
,
0100
0010
0100
0000
0110
0000
1010
0000
,
1010
1100
1100
1010
,
1100
1010
1100
0011
,
0011
0101
0101
0011
,
0101
1001
0000
0011
,
0011
0101
0101
0011
,
0101
0011
0101
1010
,
1010
1100
1100
1010
,
1100
1001
0000
0001
,
1000
0002
0100
1003
,
0001
2000
0010
3001
,
1000
0002
0100
1003
,
0001
1000
0001
0000
1000
0000
0110
0000
,
0020
0100
0031
0010
,
0200
0010
1300
0100
,
0020
0000
0100
0000
0031
0000
0001
1000
,
0001
1000
0001
0000
0000
0000
0101
0000
,
0101
1010
1010
0101
,
1010
0101
1010
1100
,
1100
0011
0011
1100
,
0011
1100
0011
0001
,
0000
0100
0000
1000
,
0000
0010
0000
0001
,
0000
0100
0000
1000
,
0010
0000
0001
1000
0001
0000
0101
0000
,
0101
1100
1100
0101
,
1100
0101
1100
1010
,
1010
0011
0011
1010
,
0011
1001
0000
1100
,
1100
0101
0101
1100
,
0101
0011
1010
0011
,
0101
1100
1010
2002
,
0000
0000
3003
0001
,
0100
0000
0010
0000
1000
0000
0001
0010
,
0100
1000
0002
0000
0003
0000
1000
0000
,
0010
0000
0100
0000
0001
0000
1000
0100
,
0010
0001
1000
0000
1001
0000
0001
0000
,
0100
0000
1000
0000
0010
0000
0001
0100
,
0010
1000
0002
0000
0003
0000
1000
0000
,
0100
0000
0001
0000
0010
0000
1000
0100
,
0010
0001
0100
0010
0100
0020
0200
0000
,
0000
0000
0000
0000
,
0000
0000
0330
0110
;

//---------------dance-double - ----------------
#NOTES:
     dance-double:
     :
     Medium:
     7:
     0.328127,0.383359,0.504620,0.182707,0.000000,264.000000,206.000000,58.000000,21.000000,0.000000,0.000000,0.328127,0.383359,0.504620,0.182707,0.000000,264.000000,206.000000,58.000000,21.000000,0.000000,0.000000:
00000000
00000000
00000000
00000000
,
00000000
00000000
00000000
00000000
,
00000000
00000000
00000000
00000000
,
00000000
00000000
00000000
00000000
,
00000000
00000000
00000000
00001000
,
00101000
00000000
00101000
00010000
,
00010010
00000000
00010010
00001000
,
01001000
00000000
01001000
00010000
,
00010100
00000000
00010100
00010000
,
00001000
00010000
00002000
01003000
,
01000000
00010000
00100000
00001000
,
00010000
00001000
00020000
00030100
,
00000100
00001000
00000010
00010000
,
00001000
00010000
00002000
00103000
,
00100000
00010000
01000000
00001000
,
00010000
00001000
00020000
00030010
,
00000010
00001000
00000001
00000000
00001001
00000000
00000101
00000000
,
00000100
00000110
00000010
00010010
,
00010000
00011000
00001000
01001000
,
01000000
01100000
00100000
10100000
,
10000000
10010000
00000000
11000000
,
01000000
01100000
00100000
00101000
,
00001000
00011000
00010000
00010100
,
00000100
00000110
00000010
00000011
,
00000001
00001001
00000000
00001000
,
00000010
00000200
00020300
00031000
,
00000010
00000200
00020300
00031000
,
00000010
00000200
00020300
00031000
,
00001000
00010000
00001000
00000000
00010000
00000000
00100000
00000000
,
02000000
03002000
00013000
00100000
,
02000000
03002000
00013000
00100000
,
02000000
00000000
03002000
00000000
00013000
00000000
00010000
00001000
,
00010000
00001000
00010000
00000000
00000000
00000000
00011000
00000000
,
00001000
01001000
00001000
00011000
,
00010000
00010010
00010000
00011000
,
00001000
00101000
00001000
00011000
,
00010000
00010100
00010000
00011000
,
00000000
00001100
00000000
00011000
,
00000000
01010000
00000000
00011000
,
00000000
00001010
00000000
00011000
,
00110000
00000000
00100000
10000000
01000000
00000000
11000000
00000000
,
01000000
01010000
00010000
00011000
,
00001000
00001010
00000010
00000011
,
00000001
00000101
00000100
00001100
,
00001000
00011000
00000000
00001010
,
00000010
00000011
00000001
00000101
,
00000100
00001100
00001000
00011000
,
00010000
00110000
00100000
20200000
,
00000000
00000000
30300000
10000000
,
01000000
00000000
00100000
00000000
00010000
00000000
00100000
00001000
,
00100000
00001000
00200000
00000000
00300000
00000000
00010000
00000000
,
00100000
00000000
01000000
00000000
00010000
00000000
00001000
00010000
,
00001000
00010000
00001000
00000000
00011000
00000000
00010000
00000000
,
00001000
00000000
00000100
00000000
00000010
00000000
00001000
00000100
,
00001000
00000100
00002000
00000000
00003000
00000000
00000001
00000000
,
00000010
00000000
00001000
00000000
00010000
00000000
01000000
10000000
,
01000000
10000000
00100000
00010000
00100000
00010000
00002000
00000000
,
00000000
00000000
00000000
00000000
,
00000000
00000000
00003000
00011000
;
