#TITLE:Panopticon;
#SUBTITLE:;
#ARTIST:cybermiso;
#TITLETRANSLIT:;
#SUBTITLETRANSLIT:;
#ARTISTTRANSLIT:;
#GENRE:VARIETY;
#CREDIT:MUINELIM;
#BANNER:Panopticon.png;
#BACKGROUND:Panopticon-bg.png;
#LYRICSPATH:;
#CDTITLE:;
#MUSIC:Panopticon.ogg;
#OFFSET:-0.566000;
#SAMPLESTART:88.937637;
#SAMPLELENGTH:15.272728;
#SELECTABLE:YES;
#DISPLAYBPM:110.000000:220.000000;
#BPMS:0.000000=220.000000
,128.000000=110.000000
,226.000000=220.000000
,274.000000=110.000000
,278.000000=220.000000
,352.000000=110.000000
;
#STOPS:286.000000=0.818184,
351.000000=0.818184,
355.500000=0.545456
;
#BGCHANGES:0.000=Panopticon.avi=1.000=0=0=0=StretchNoLoop====,
99999=-nosongbg-=1.000=0=0=0 // don't automatically add -songbackground-
;
#KEYSOUNDS:;
#ATTACKS:;

//---------------dance-single - ----------------
#NOTES:
     dance-single:
     :
     Hard:
     16:
     0.706703,1.051691,0.909692,0.563859,0.405978,658.000000,537.000000,121.000000,75.000000,0.000000,0.000000,0.706703,1.051691,0.909692,0.563859,0.405978,658.000000,537.000000,121.000000,75.000000,0.000000,0.000000:
// measure 0
0000
0000
0000
0000
,  // measure 1
0000
0000
0000
0000
,  // measure 2
0000
0000
0000
0000
,  // measure 3
0000
0000
0000
0000
,  // measure 4
0000
0000
0000
0000
,  // measure 5
0000
0000
0000
0000
,  // measure 6
0000
0000
0000
0000
,  // measure 7
0000
0000
0000
0000
,  // measure 8
0000
0000
0000
0000
,  // measure 9
0000
0000
0000
0000
,  // measure 10
0001
0000
1000
0000
0010
1000
0000
1100
,  // measure 11
0000
0101
0000
2200
0300
0000
3001
0000
,  // measure 12
1000
0000
0001
0000
0010
0001
0000
0000
,  // measure 13
0101
0101
0000
1010
0000
1000
0100
0100
,  // measure 14
0002
0013
2000
3010
,  // measure 15
0002
0103
2000
3100
,  // measure 16
1001
0001
0010
0100
,  // measure 17
1000
0020
0000
0130
0000
0100
0001
0010
,  // measure 18
0100
0020
0000
0032
0000
0103
0000
0000
,  // measure 19
0100
0020
0000
2030
0000
3100
0000
0000
,  // measure 20
0200
0310
0002
0103
,  // measure 21
2000
3010
0002
1003
,  // measure 22
1000
1000
0000
0010
0010
0000
0001
0001
,  // measure 23
0000
0100
0100
0000
2002
0000
3003
0000
,  // measure 24
1000
0010
0010
0001
0000
0100
0010
0000
,  // measure 25
2020
0000
0000
3030
,  // measure 26
0001
0100
0100
1000
0000
0010
0100
0000
,  // measure 27
0001
1000
0001
1000
0002
0000
0000
0000
0000
0000
0103
0000
0100
0000
0100
0000
,  // measure 28
0010
1000
0000
1000
0100
0000
0100
0001
,  // measure 29
0000
0001
0010
0000
0220
0000
0330
0000
,  // measure 30
0100
0010
0001
0010
0100
0010
0001
0010
,  // measure 31
0100
0100
1000
0100
0100
0010
0001
0000
,  // measure 32
1001
0000
1000
0000
0101
0000
0001
0000
1010
0000
0100
0100
0200
0000
0301
0000
,  // measure 33
0001
0010
0010
1000
0100
0000
0010
0010
0012
0000
1003
0000
2100
0000
3001
0000
,  // measure 34
1001
0000
1000
0000
0011
0000
0001
0000
1100
0000
1000
1000
0000
0010
0010
0000
,  // measure 35
0110
0000
0000
0000
0100
0001
0100
0001
0100
0000
0000
0000
0010
0000
0000
0000
1000
0000
1100
0000
0000
0000
0001
0000
0101
0000
0000
0000
1010
0000
0000
0000
,  // measure 36
2002
0000
0000
0000
0000
0000
3003
0000
0110
0000
0000
0000
1001
0010
0020
0000
,  // measure 37
1030
0100
0100
0001
0010
0000
0100
0100
1100
0000
0022
0000
0033
0000
0101
0000
,  // measure 38
1010
0000
0010
0100
0110
0000
1001
0000
0002
0000
0000
0000
0203
0000
1300
0000
,  // measure 39
0101
0000
0000
0000
0001
0000
0000
0000
0011
0000
0000
0000
0010
0000
0000
0000
0001
0000
0100
0000
0100
0000
0010
1000
0010
0000
0100
0000
0001
0000
0010
0000
,  // measure 40
0100
0000
1100
0000
0010
0000
0011
0200
0000
0000
0000
0000
1300
0000
0000
0000
,  // measure 41
2020
0000
3000
0000
0000
0000
0130
0001
0011
0100
0000
1010
0100
0000
0101
0000
,  // measure 42
0001
0000
0101
0000
1000
0000
1010
0001
0000
0200
0000
0000
0310
0000
0000
0000
,  // measure 43
0110
0100
0001
0010
0000
0010
0100
1000
0010
0001
0010
1000
0100
0001
0100
1000
,  // measure 44
0010
0000
0101
0000
0010
0000
1100
0020
0000
0000
0000
0000
0031
0000
0000
0000
,  // measure 45
0202
0000
0000
0000
0003
0000
0000
0000
0000
0000
0000
0000
0310
0000
1000
0000
0100
0010
0100
0000
0010
0000
0000
0000
0001
1000
0001
0000
1000
0000
0000
0000
,  // measure 46
1001
0000
0001
0000
0100
0010
0010
2000
0000
0000
0000
0000
3001
0000
0000
0000
,  // measure 47
0022
0000
0003
0000
0130
1000
0100
0101
0000
1100
0000
1010
0000
0000
0011
0000
,  // measure 48
0002
0000
0000
0100
0000
0000
0010
0000
0000
1000
0000
0000
0103
0000
0000
0000
,  // measure 49
2000
0000
0000
0100
0000
0000
0001
0000
0000
0010
0000
0000
3100
0010
0100
0010
,  // measure 50
0200
0000
0000
1000
0000
0000
0001
0000
0000
1000
0000
0000
0310
0000
0000
0000
,  // measure 51
0020
0000
0000
0001
0000
0000
1000
0000
0000
0001
0000
0000
0130
0000
0100
0000
,  // measure 52
1100
0000
0000
1010
0000
0000
0011
0000
0000
0101
0000
0000
0110
0000
1001
0000
,  // measure 53
0011
0000
0000
0101
0000
0000
1100
0000
0000
1010
0000
0000
0010
0100
0010
0000
,  // measure 54
1001
0000
0000
1010
0000
0000
0011
0000
1001
0000
0000
0101
0000
0000
1100
0000
,  // measure 55
1000
0010
0000
0010
0100
0001
0010
0100
0001
0100
0010
1000
0010
0100
1000
0010
,  // measure 56
0100
0001
0100
0001
0100
0000
0010
0000
2000
0000
0000
0000
3001
0000
0000
0000
1001
0000
0000
0000
0001
0000
0000
0000
0010
0000
0000
0000
0100
0000
0000
0000
,  // measure 57
1000
0001
0010
0110
0000
0011
0000
1100
,  // measure 58
1000
0010
1000
0000
0001
0100
0001
0000
1000
0000
0100
0000
0010
0000
0001
0000
,  // measure 59
1000
0100
0010
0000
0011
0100
0000
2100
,  // measure 60
0000
0000
3010
0100
0001
0000
0010
0000
0011
0000
0000
0000
0011
0000
0000
0000
,  // measure 61
0101
0101
1100
1100
,  // measure 62
1010
0000
1010
0000
0010
0100
0101
0000
,  // measure 63
0100
0010
1010
0000
1000
0100
0100
0001
,  // measure 64
0010
0010
1000
0001
1001
1000
0010
0100
,  // measure 65
0001
1000
0010
0100
0000
0101
0000
1010
,  // measure 66
0010
1000
0001
0000
0100
0000
0010
1000
0001
0000
0100
0000
0010
0000
1000
0000
,  // measure 67
0001
0200
0300
0000
1010
1010
0000
0101
,  // measure 68
0001
0010
0001
0010
0100
1000
0100
1000
0200
0000
0310
0000
0001
1000
0100
0100
,  // measure 69
1000
0000
0001
0000
0010
0000
0010
0000
0001
1000
0001
1000
0200
0000
0000
0000
0310
0000
0000
0000
0100
0000
0000
0000
1100
0000
0000
0000
0000
0000
0000
0000
,  // measure 70
0100
0010
0011
0000
0100
1010
0000
0202
,  // measure 71
0300
0000
2003
0000
0020
3030
1001
0000
,  // measure 72
0000
0011
0000
0000
1010
0000
0000
1100
,  // measure 73
0200
0320
0031
0101
,  // measure 74
0000
0011
0000
0000
1010
0000
0000
1100
,  // measure 75
0000
0000
2002
3003
0220
0330
1010
0100
,  // measure 76
0000
0011
0100
0000
1100
0010
0000
0101
,  // measure 77
0010
0000
0000
0000
0010
1000
0010
1000
0020
0000
0030
0000
0101
0000
1000
0000
,  // measure 78
0000
1100
0001
0000
0011
1000
0000
1010
,  // measure 79
0001
0000
0001
0100
0200
0000
0310
0010
,  // measure 80
1000
0100
0100
1000
0010
0010
1000
0100
,  // measure 81
0100
0010
0022
0033
2200
3300
0010
0010
,  // measure 82
0001
0100
0100
0001
0010
0010
0001
0100
,  // measure 83
0010
0000
0000
1000
0000
0000
0010
0000
0000
1000
0000
0000
0001
0000
0000
0000
0100
0000
0000
0000
0010
0000
0000
0000
1000
0000
0000
0000
0000
0000
0000
0000
0000
0000
0000
0000
1001
0000
0000
0000
0000
0000
0100
0000
0000
0000
0000
0000
,  // measure 84
0100
0002
0000
0013
0100
0000
1001
0010
,  // measure 85
0010
2000
0000
3100
0010
0000
0110
0001
,  // measure 86
0001
2000
0000
3010
0100
0000
0001
0010
,  // measure 87
0010
0000
1000
0000
0100
0000
0100
0000
0001
0010
0100
2000
0002
0000
3003
0000
,  // measure 88
0101
0000
1100
0000
0100
0001
0000
0011
0000
1010
0000
1200
0000
0000
0310
0000
,  // measure 89
0010
0002
2000
0000
0000
0000
0000
0000
0000
0000
0000
0000
0000
0000
0000
0000
0000
0000
0000
0000
0000
0000
0000
0000
,  // measure 90
0000
3003
0000
0000
;

//---------------dance-double - ----------------
#NOTES:
     dance-double:
     :
     Hard:
     16:
     0.676631,0.983840,0.774366,0.571377,0.375906,630.000000,527.000000,103.000000,76.000000,0.000000,0.000000,0.676631,0.983840,0.774366,0.571377,0.375906,630.000000,527.000000,103.000000,76.000000,0.000000,0.000000:
00000000
00000000
00000000
00000000
,
00000000
00000000
00000000
00000000
,
00000000
00000000
00000000
00000000
,
00000000
00000000
00000000
00000000
,
00000000
00000000
00000000
00000000
,
00000000
00000000
00000000
00000000
,
00000000
00000000
00000000
00000000
,
00000000
00000000
00000000
00000000
,
00000000
00000000
00000000
00000000
,
00000000
00000000
00000000
00000000
,
00010000
00000000
00001000
00000000
00010000
00010000
00000000
00010010
,
00000000
00001000
00000000
02002000
03000000
00000000
00013000
00000000
,
00001000
00000000
00010000
00000000
00001000
00001000
00000000
00000000
,
00101000
00001000
00000000
00010100
00000000
00010000
00001000
00001000
,
00020000
00030010
00002000
00103000
,
00020000
00030100
00002000
01003000
,
00011000
00010000
00001000
00010000
,
00000100
00002000
00000000
00003010
00000000
00000010
00010000
00001000
,
00100000
00020000
00000000
02030000
00000000
03001000
00000000
00000000
,
00001000
00020000
00000000
00030020
00000000
00001030
00000000
00000000
,
00001000
00001100
00000100
00010100
,
00010000
00011000
00001000
01001000
,
01000000
00010000
00000000
00100000
01000000
00000000
10000000
00100000
,
00000000
00010000
00001000
00000000
00022000
00000000
00033000
00000000
,
00010000
00000010
00001000
00000100
00000000
00000010
00000001
00000000
,
00000202
00000000
00000000
00000303
,
00000001
00001000
00000010
00010000
00000000
00001000
00100000
00000000
,
00010000
01000000
00010000
01000000
00020000
00000000
00000000
00000000
00000000
00000000
10030000
00000000
10000000
00000000
10000000
00000000
,
00100000
01000000
00000000
00010000
00100000
00000000
01000000
00010000
,
00000000
00001000
00000010
00000000
00000220
00000000
00000330
00000000
,
00000001
00000010
00000100
00000010
00000001
00000010
00000100
00000010
,
00000001
00000100
00000000
00000100
00001000
00000000
00011000
00000000
,
00010100
00000000
00010000
00000000
01001000
00000000
00001000
00000000
00011000
00000000
00100000
00100000
00200000
00000000
00310000
00000000
,
00010000
01000000
00100000
10000000
01000000
00000000
00100000
00100000
00002000
00000000
01003000
00000000
00020000
00000000
00030100
00000000
,
00011000
00000000
00100000
00000000
00101000
00000000
00000010
00000000
00010010
00000000
00010000
00001000
00000000
00000100
00000001
00000000
,
00000011
00000000
00000000
00000000
00000010
00000100
00000010
00000000
00000001
00000000
00000000
00000000
00000100
00000000
00000000
00000000
00001000
00000000
00011000
00000000
00000000
00000000
00010000
00000000
00011000
00000000
00000000
00000000
01001000
00000000
00000000
00000000
,
00020200
00000000
00000000
00000000
00000000
00000000
00030300
00000000
00011000
00000000
00000000
00000000
00001000
00001000
00002000
00000000
,
00103000
01000000
10000000
00010000
00100000
00000000
01000000
00010000
00001000
00000000
00022000
00000000
00033000
00000000
00101000
00000000
,
00010010
00000000
00000010
00001000
00000100
00000000
00000011
00000000
00000002
00000000
00000000
00000000
00000203
00000000
00001300
00000000
,
00011000
00000000
00000000
00000000
00100000
00000000
00000000
00000000
01100000
00000000
00000000
00000000
10000000
00000000
00000000
00000000
00100000
00000000
01000000
00000000
00010000
00000000
00100000
00001000
00100000
00000000
00010000
00000000
01000000
00000000
00100000
00000000
,
00010000
00000000
00011000
00000000
00000100
00000000
00000110
00000020
00000000
00000000
00000000
00000000
00000031
00000000
00000000
00000000
,
00002200
00000000
00000300
00000000
00000000
00000000
00003010
00010000
00001000
00010000
00000000
00011000
00000100
00000000
00000110
00000000
,
00001000
00000000
00011000
00000000
00100000
00000000
01100000
01000000
00000000
20000000
00000000
00000000
30100000
00000000
00000000
00000000
,
01010000
00010000
00100000
01000000
00000000
01000000
00010000
00001000
00010000
00100000
00010000
00001000
00000010
00001000
00010000
00100000
,
01000000
00000000
01010000
00000000
00001000
00000000
00011000
00020000
00000000
00000000
00000000
00000000
00030100
00000000
00000000
00000000
,
00002200
00000000
00000000
00000000
00003000
00000000
00000000
00000000
00000000
00000000
00000000
00000000
00000310
00000000
00000001
00000000
00000100
00000010
00000100
00000000
00001000
00000000
00000000
00000000
00010000
00001000
00010000
00000000
00100000
00000000
00000000
00000000
,
10100000
00000000
10000000
00000000
00010000
01000000
00100000
00020000
00000000
00000000
00000000
00000000
00030010
00000000
00000000
00000000
,
00202000
00300000
00000000
00000000
00013000
00001000
00000100
00000101
00000000
00001010
00000000
00020010
00000000
00000000
00031000
00000000
,
00012000
00000000
00000000
00100000
00000000
00000000
01000000
00000000
00000000
00000100
00000000
00000000
00013000
00000000
00000000
00000000
,
00021000
00000000
00000000
00000100
00000000
00000000
00000010
00000000
00000000
00100000
00000000
00000000
00031000
00010000
00001000
00010000
,
00000200
00000000
00000000
00001000
00000000
00000000
00000001
00000000
00000000
00001000
00000000
00000000
00010300
00000000
00000000
00000000
,
02000000
00000000
00000000
00010000
00000000
00000000
10000000
00000000
00000000
00010000
00000000
00000000
03001000
00000000
00010000
00000000
,
00010010
00000000
00000000
00101000
00000000
00000000
00010100
00000000
00000000
01001000
00000000
00000000
00011000
00000000
00000100
00000000
,
00001001
00000000
00000000
00001010
00000000
00000000
00011000
00000000
00000000
00110000
00000000
00000000
00100000
01000000
10000000
00000000
,
10010000
00000000
00000000
01010000
00000000
00000000
00011000
00000000
00001100
00000000
00000000
00001010
00000000
00000000
00001001
00000000
,
00000001
00000100
00000000
00000100
00001000
00010000
00001000
00000100
00001000
00010000
01000000
00010000
00001000
00010000
00100000
10000000
,
01000000
01000000
00100000
00100000
00002000
00000000
00013000
00000000
00011000
00000000
00001000
00000000
00010000
00000000
00100000
00000000
,
01000000
00100000
00010000
00001000
00000000
01001000
00000000
00010010
,
00000010
00001000
00000010
00000000
00000100
00000001
00000100
00000000
00000010
00000000
00001000
00000000
00000100
00000000
00010000
00000000
,
00000100
00001000
00000010
00000000
00000110
00000100
00000000
00000102
,
00000000
00001003
00000100
00000010
00002000
00000000
00103000
00000000
,
00020000
00030010
00002000
01003000
,
00020000
00000000
00030100
00000000
00010000
00001000
00101000
00000000
,
00001000
00010000
00010010
00000000
00010000
00001000
00100000
01000000
,
00000000
10000000
00100000
00010000
00011000
00001000
00000100
00000010
,
00010000
00001000
00000100
00000010
00000000
00010010
00000000
01001000
,
01000000
00010000
01000000
00000000
00100000
00000000
01000000
00010000
01000000
00000000
00100000
00000000
00010000
00000000
00001000
00000000
,
00010000
00200000
00300000
00000000
00100000
10100000
00000000
11000000
,
01000000
00100000
01000000
00000000
00010000
00001000
00010000
00000000
00000200
00000000
00000310
00000000
00000010
00000001
00001000
00000100
,
00000010
00000000
00000001
00000000
00001000
00000000
00000100
00000000
00010000
00001000
00010000
00001000
00020000
00000000
00000000
00000000
00031000
00000000
00000000
00000000
01000000
00000000
00000000
00000000
01001000
00000000
00000000
00000000
00000000
00000000
00000000
00000000
,
00001000
00010000
00010100
00000000
00010000
00011000
00000000
00202000
,
00300000
00000000
00023000
00000000
00000020
00030030
00001010
00000000
,
00000000
00000101
00000000
00000000
00001010
00000000
00000000
00011000
,
00020000
00032000
00103000
00110000
,
00000000
11000000
00000000
00000000
00110000
00000000
00000000
00011000
,
00000000
00000000
02002000
03003000
00020200
00030300
00011000
00000100
,
00000000
00011000
01000000
00000000
00011000
00000010
00000000
00011000
,
00100000
00000000
00000000
00000000
00001000
00010000
00001000
00010000
00002000
00000000
00003000
00000000
01000000
00000000
00011000
00000000
,
00000000
00000100
00011000
00000000
00100000
00011000
00000000
00000010
,
00011000
00000000
00010000
00001000
00002000
00000000
00103000
00100000
,
00010000
01000000
01000000
00010000
00100000
00100000
00010000
01000000
,
01000000
00001000
00202000
00303000
00020020
00030030
00000010
00000010
,
00001000
00000100
00000100
00001000
00000010
00000010
00001000
00000100
,
00000010
00000001
00000010
00000001
00001000
00000000
00000100
00000000
00000100
00000000
00000000
00000000
00000010
00000000
00001000
00000000
,
00010000
02000000
00000000
13000000
00100000
00000000
00100000
00010000
,
00001000
00000200
00000000
00000301
00000010
00000000
00000100
00001000
,
00010000
00200000
00000000
01300000
10000000
00000000
01000000
00100000
,
00010000
00000000
00001000
00000000
00000100
00000000
00000010
00000000
00000001
00001000
00000001
00002000
00000002
00000000
00003003
00000000
,
00000001
00000000
00000100
00000000
00001000
00010000
00000000
00110000
00000000
10100000
00000000
12000000
00000000
00000000
03010000
00000000
,
00010000
00002000
00020000
00000000
00000000
00000000
00000000
00000000
00000000
00000000
00000000
00000000
00000000
00000000
00000000
00000000
00000000
00000000
00000000
00000000
00000000
00000000
00000000
00000000
,
00000000
00033000
00000000
00000000
;

//---------------dance-single - ----------------
#NOTES:
     dance-single:
     :
     Easy:
     9:
     0.293207,0.441032,0.165399,0.165399,0.000000,273.000000,251.000000,22.000000,22.000000,0.000000,0.000000,0.293207,0.441032,0.165399,0.165399,0.000000,273.000000,251.000000,22.000000,22.000000,0.000000,0.000000:
0000
0000
0000
0000
,
0000
0000
0000
0000
,
0000
0000
0000
0000
,
0000
0000
0000
0000
,
0000
0000
0000
0000
,
0000
0000
0000
0000
,
0000
0000
0000
0000
,
0000
0000
0000
0000
,
0000
0000
0000
0000
,
0000
0000
0000
0000
,
1000
0000
0001
0000
1000
0000
0000
0100
,
0000
0100
0000
0100
0000
0000
0000
0000
,
0001
1000
0001
0000
,
0010
0000
0000
0010
0000
0000
0010
0000
,
2000
3000
0002
0003
,
2000
3000
0002
0003
,
0100
0010
0100
0000
,
0010
0000
0000
0010
0000
0000
0000
0000
,
0100
0000
0000
0100
0000
0000
0000
0000
,
0001
0000
0000
0001
0000
0000
0000
0000
,
1000
0000
1000
0000
,
1000
0000
1000
0000
,
1000
0000
0000
0010
0000
0000
0100
0000
,
0000
0001
0000
0000
2002
0000
3003
0000
,
1000
0010
0100
0010
,
1000
0000
0000
0000
,
0001
0010
0100
0010
,
0001
0000
0000
0000
,
1000
0100
0010
0100
,
1000
0100
0010
0100
,
1000
1000
0001
0001
,
0200
0000
0300
0110
,
0010
0000
1000
0000
0100
0100
0100
0000
,
1000
0000
0001
0000
0020
0000
0130
0100
,
0010
0000
0001
0000
0100
0100
0010
0000
,
0100
0101
0010
1010
,
2000
3000
1001
0110
,
0010
0000
1000
0000
0001
0000
0100
0100
,
0010
0100
0001
0010
,
1000
0000
0100
0000
0001
1000
0002
0000
,
1003
0100
1100
0000
,
0001
0010
0011
0000
,
1000
0001
1001
0000
,
0010
0000
0100
0000
0010
0010
0020
0000
,
1030
0001
0101
0000
,
0001
1000
1010
0000
,
0010
0100
0110
0000
,
0001
0000
1000
0000
0001
1000
0010
0100
,
0002
0000
0000
0003
,
0020
0000
0000
0030
,
0200
0000
0000
0300
,
2000
0000
0000
3000
,
0001
0100
0001
0011
,
1000
0010
1000
1100
,
0001
1001
0100
0110
,
1000
0000
0010
0000
0001
0000
0100
0100
,
0200
0300
1000
0010
,
0100
0000
0000
0010
0000
0010
0000
0100
,
0000
0100
0001
0010
,
0100
0000
0000
0000
0010
0000
0000
0010
,
0000
0010
0011
0000
,
0101
0000
1010
0000
,
1100
0000
1000
0001
,
1000
0000
0010
0000
0100
0000
0000
0010
,
0000
0100
0100
0001
,
0010
0000
0000
0001
0000
0001
0000
1000
,
0000
1000
0010
1000
,
0100
0000
0000
0000
1000
0000
0000
0001
,
0000
1000
0100
0100
,
0010
0010
0010
0000
0001
0000
1000
0000
,
0001
0000
0010
0000
0100
0000
0000
0100
,
0000
0100
1001
1000
,
0000
0010
0000
0000
1000
0000
0000
0010
,
0000
1000
0000
0001
,
0000
0100
0000
0000
0001
0000
0000
0100
,
0000
0001
0000
1000
,
0000
0001
0000
0000
1000
0000
0000
0001
,
0000
1000
0000
0010
,
0000
0100
0000
0000
0010
0000
0000
0100
,
0000
0020
0030
1000
,
0100
1000
0001
1000
,
0100
0200
0300
0001
,
0010
0001
1000
0001
,
0010
0020
0030
1000
,
0001
1000
0001
0010
,
0100
0010
0100
1000
,
0010
0100
0001
0100
,
0010
1000
0020
0030
,
0100
0100
0100
0000
0001
0000
1000
0000
,
2002
0000
0000
0000
,
0000
3003
0000
0000
;

//---------------dance-single - ----------------
#NOTES:
     dance-single:
     :
     Medium:
     13:
     0.553119,0.848138,0.586413,0.488678,0.218025,515.000000,437.000000,78.000000,65.000000,0.000000,0.000000,0.553119,0.848138,0.586413,0.488678,0.218025,515.000000,437.000000,78.000000,65.000000,0.000000,0.000000:
0000
0000
0000
0000
,
0000
0000
0000
0000
,
0000
0000
0000
0000
,
0000
0000
0000
0000
,
0000
0000
0000
0000
,
0000
0000
0000
0000
,
0000
0000
0000
0000
,
0000
0000
0000
0000
,
0000
0000
0000
0000
,
0000
0000
0000
0000
,
1000
0000
0001
0000
1000
0100
0000
1000
,
0000
0010
0000
0010
0000
0000
1001
0000
,
0001
0000
1000
0000
0001
0100
0000
0000
,
0001
0010
0000
0010
0000
0001
0100
0010
,
2000
3100
0200
0310
,
0020
0031
0002
1003
,
1000
0010
0100
0001
,
0010
0200
0000
0310
0000
0000
0100
0000
,
1000
0002
0000
1003
0000
0000
1000
0000
,
0010
0200
0000
0310
0000
0000
0010
0000
,
0200
0301
0002
0013
,
0020
0130
0200
1300
,
1000
0010
0000
0010
0100
0000
0100
0001
,
0000
0001
1000
0000
2002
0000
3003
0000
,
0001
0100
0010
1000
0000
0010
0100
0000
,
0202
0000
0000
0303
,
1000
0100
0010
0001
0000
0010
0100
0000
,
2200
0000
0000
3300
0000
1000
0001
0100
,
0010
1000
1020
0130
,
0100
0001
0201
0310
,
0010
1000
0010
0000
0100
0001
0100
0000
,
0001
0010
0100
1000
0100
0010
0001
0000
,
1001
0000
1000
0000
0010
0000
0100
0000
0010
0000
1000
0100
1000
0000
0010
0000
,
0100
0001
0000
0000
0011
0000
0010
0000
0200
0000
0000
0000
0310
0000
0010
0000
,
0001
0000
0100
0000
0010
0000
1000
0000
1100
0000
0100
0010
0000
0100
1000
0000
,
0010
0001
1000
0100
0001
0010
0110
0110
,
2000
0000
0000
0000
0000
0000
0000
0000
3002
0000
0000
0000
0103
0010
1000
0000
,
0001
0000
0010
0100
1000
0000
0010
0000
0101
0000
0101
0000
0000
0000
1010
0000
,
1000
0000
0001
0010
0100
0000
0010
0000
0002
0000
0000
0000
0100
0000
0103
0000
,
2000
0000
0000
0000
3020
0000
0000
0000
0130
0001
0010
0001
0100
0010
1000
0000
,
0100
0000
1000
0000
0010
0000
0100
0001
0000
0000
0000
0000
0011
0000
0000
0000
,
2200
0000
0300
0000
0000
0000
3010
0100
0002
0000
0000
0000
1003
0000
0000
0000
,
1010
0000
0010
0000
0100
0000
0001
1000
0000
0100
0000
0000
0110
0000
0000
0000
,
0010
0001
0010
0100
0000
1000
0010
0100
0010
0000
0100
0001
1000
0000
0100
0000
,
0010
0000
0001
0000
0100
0000
1000
0100
0000
0000
0000
0000
0101
0000
0000
0000
,
2020
0000
3000
0000
0000
0000
0130
0001
0010
0000
0000
0000
0110
0000
0000
0000
,
0100
0000
1000
0000
0010
0000
0001
0010
0000
0000
0000
0000
1010
0000
0000
0000
,
0102
0000
0000
0000
2003
0000
0000
0010
0000
0010
0000
3010
0000
0000
0110
0000
,
0100
0000
0000
0001
0000
0000
0010
0000
0000
1000
0000
0000
0100
0000
0000
0000
,
0010
0000
0000
0001
0000
0000
0100
0000
0000
1000
0000
0000
0010
0100
0010
0100
,
0010
0000
0000
1000
0000
0000
0100
0000
0000
0001
0000
0000
0010
0000
0000
0000
,
0100
0000
0000
1000
0000
0000
0010
0000
0000
0001
0000
0000
0100
0000
0010
0100
,
0010
0000
0000
1010
0000
0000
1000
0000
0000
1100
0000
0000
0100
0000
0110
0000
,
0010
0000
0000
0011
0000
0000
0001
0000
0000
0101
0000
0000
0100
0010
1000
0000
,
0001
0000
0000
0011
0000
0000
1010
0000
1000
0000
0000
1100
0000
0000
0101
0000
,
0001
0010
0000
0010
0100
1000
0000
1000
0010
0001
0010
1000
0010
0001
0010
0100
,
0020
2030
3002
0103
0100
0010
1000
0010
,
0100
0010
1000
0010
0000
1010
0000
0202
,
0303
0000
1001
0000
0001
0010
0100
0010
,
0001
0020
0030
0000
0010
0011
0000
2200
,
3300
1001
0001
0101
,
1000
1100
0001
0011
,
1000
0000
1010
0000
0010
0100
0001
0000
,
0100
0010
1000
0000
0001
0002
0000
2003
,
0000
0000
3010
0000
0010
0100
1000
0100
,
0001
0100
1000
0100
0000
0101
0000
2020
,
3030
0000
1001
0000
0001
0010
1000
0010
,
0001
0020
0030
0000
0100
1100
0000
0022
,
0033
0000
1001
0000
0001
0100
1000
0010
,
0001
0100
0010
1000
0100
0010
0001
0000
1000
0000
0010
0000
0100
0000
0010
0000
,
0001
0010
0100
0010
1000
1100
0000
0202
,
0303
0000
1010
0000
2002
3003
0001
0000
,
0000
0101
0000
0000
1100
0000
0000
1010
,
0000
0022
0033
1000
,
0000
1100
0000
0000
0101
0000
0000
0011
,
0000
2010
3001
0011
,
0000
0101
0000
0000
1100
0000
0000
1010
,
0000
0220
0330
1010
,
0000
1100
0000
0000
0101
0000
0000
0011
,
0000
0000
0110
0000
0100
0000
1000
0010
,
0000
0001
0010
0000
1000
0010
0000
0001
,
0010
1000
2002
0000
3003
0000
0001
0100
,
0000
1000
0100
0000
0001
0100
0000
1000
,
0100
0001
2002
0000
3003
0000
1000
0010
,
0100
0100
0000
1000
1010
0000
0001
0100
,
0010
0010
0000
0001
0101
0000
1000
0100
,
0100
0010
0000
1000
1001
0000
0001
0010
,
0010
0100
0001
1000
0100
0010
2002
3003
,
1000
0000
0010
0000
0001
0010
0000
1000
0000
0100
0000
0020
0000
0000
0130
0000
,
2002
0000
0000
0000
,
0000
3003
0000
0000
;

//---------------dance-single - ----------------
#NOTES:
     dance-single:
     :
     Beginner:
     4:
     0.177213,0.305330,0.082699,0.120290,0.000000,165.000000,154.000000,11.000000,16.000000,0.000000,0.000000,0.177213,0.305330,0.082699,0.120290,0.000000,165.000000,154.000000,11.000000,16.000000,0.000000,0.000000:
0000
0000
0000
0000
,
0000
0000
0000
0000
,
0000
0000
0000
0000
,
0000
0000
0000
0000
,
0000
0000
0000
0000
,
0000
0000
0000
0000
,
0000
0000
0000
0000
,
0000
0000
0000
0000
,
0000
0000
0000
0000
,
0000
0000
0000
0000
,
0001
0000
0000
0000
,
0001
0000
0000
0000
,
1000
0000
0000
0000
,
1000
0000
0000
0000
,
0001
0000
0000
0000
,
0100
0000
0000
0000
,
0010
0000
0000
0000
,
1000
0000
0000
0000
,
0001
0000
0000
0000
,
1000
0000
0000
0000
,
0001
0000
0001
0000
,
0001
0000
0001
0000
,
0002
0000
0000
0000
,
0000
0000
0003
0000
,
1001
0000
0000
0000
,
1000
0000
0000
0000
,
1001
0000
0000
0000
,
0001
0000
0000
0000
,
0100
0000
0010
0000
,
0100
0000
0010
0000
,
0100
0000
0100
0000
,
0100
0100
0100
0000
,
0001
0000
0010
0000
,
0100
0000
1000
0000
,
0010
0000
0100
0000
,
0010
0000
0010
0000
0010
0010
0010
0000
,
2000
3000
0002
0003
,
1000
0000
0100
0000
,
0010
0000
0001
0000
,
0100
0000
0100
0000
0100
0100
0100
0000
,
0020
0000
0030
0000
,
2000
0000
3000
0000
,
0002
0000
0003
0000
,
0200
0000
0300
0000
,
0010
0100
0010
0000
,
1000
0000
0001
0000
,
0100
0010
0100
0000
,
0001
1000
0001
1001
,
2000
0000
3000
0000
,
0020
0000
0030
0000
,
0200
0000
0300
0000
,
0002
0000
0003
0000
,
1001
0000
1000
0000
,
1001
0000
0001
0000
,
1001
0000
1001
0000
,
1000
0001
1000
0010
,
0020
0030
0100
0000
,
0001
0000
0100
0100
,
0100
0000
0010
0000
,
1000
0000
0010
0000
,
0010
0000
1000
0000
,
0001
0000
1000
0000
,
0001
0000
1001
0000
,
1001
0000
1000
1000
,
1000
0000
0001
0000
,
0010
0000
0001
0001
,
0001
0000
1000
0000
,
0100
0000
1000
0000
,
1000
0000
0020
0030
,
0010
0010
0010
0000
1000
0000
0000
0000
,
0010
0000
0001
0000
,
0100
0000
1000
1000
,
0000
1000
0000
1000
,
0000
1000
0000
0001
,
0000
0001
0000
0001
,
0000
0001
0000
1000
,
0000
1000
0000
0001
,
0000
0001
0000
1000
,
0000
0001
0000
1000
,
0000
1001
0000
0001
,
0000
0100
0000
0010
,
0000
1000
0000
0001
,
0000
0010
0000
0100
,
0000
1000
0000
0010
,
0000
0001
0000
0100
,
0000
1000
0000
0010
,
0000
0001
0000
0100
,
0100
0100
0200
0300
,
1000
0000
0001
0000
,
2002
0000
0000
0000
,
0000
3003
0000
0000
;

//---------------dance-double - ----------------
#NOTES:
     dance-double:
     :
     Easy:
     9:
     0.293207,0.441032,0.202989,0.172917,0.000000,273.000000,246.000000,27.000000,23.000000,0.000000,0.000000,0.293207,0.441032,0.202989,0.172917,0.000000,273.000000,246.000000,27.000000,23.000000,0.000000,0.000000:
00000000
00000000
00000000
00000000
,
00000000
00000000
00000000
00000000
,
00000000
00000000
00000000
00000000
,
00000000
00000000
00000000
00000000
,
00000000
00000000
00000000
00000000
,
00000000
00000000
00000000
00000000
,
00000000
00000000
00000000
00000000
,
00000000
00000000
00000000
00000000
,
00000000
00000000
00000000
00000000
,
00000000
00000000
00000000
00000000
,
00001000
00000000
00010000
00000000
00001000
00000000
00000000
01000000
,
00000000
01000000
00000000
01000000
00000000
00000000
00000000
00000000
,
00010000
00001000
00010000
00000000
,
00000100
00000000
00000000
00000100
00000000
00000000
00000100
00000000
,
00000020
00000030
00000002
00000003
,
00000200
00000300
00002000
00003000
,
00010000
00001000
00010000
00000000
,
00100000
00000000
00000000
00100000
00000000
00000000
00000000
00000000
,
00010000
00000000
00000000
00010000
00000000
00000000
00000000
00000000
,
00001000
00000000
00000000
00001000
00000000
00000000
00000000
00000000
,
00000010
00000000
00000010
00000000
,
00000010
00000000
00000010
00000000
,
00001000
00000000
00000000
00010000
00000000
00000000
01000000
00000000
,
00000000
10000000
00000000
00000000
20020000
00000000
30030000
00000000
,
00010000
01000000
00001000
00000000
,
00011000
00000000
00000000
00000000
,
00001000
00000010
00010000
00000000
,
00011000
00000000
00000000
00000000
,
00010000
00100000
00001000
00010000
,
00000100
00001000
00000010
00010000
,
00001000
01000000
00010000
00100000
,
00002000
00000000
00003000
00011000
,
00010000
00000000
00000100
00000000
00001000
00000001
00001000
00000000
,
00000100
00000000
00000010
00000000
00000002
00000000
00001003
00001000
,
00001000
00000000
00000010
00000000
00010000
00001000
00010000
00000000
,
00100000
10000000
01000000
00010000
,
00022000
00033000
00101000
00010100
,
00000100
00000010
00000001
00000100
,
00001100
00001000
00010000
00100000
,
10000000
00000000
11000000
00000000
01000000
00100000
02000000
00000000
,
03010000
00001000
00101000
00000000
,
00001000
00010000
00010010
00000000
,
00010000
00001000
01001000
00000000
,
00001000
00000000
00010000
00000000
00000100
00000100
00000200
00000000
,
00000310
00000001
00000101
00000000
,
00000100
00001000
00011000
00000000
,
00010000
01000000
11000000
00000000
,
10000000
00000000
00100000
00000000
00010000
00001000
00010000
00000000
,
00000020
00000000
00000030
00000000
,
00200000
00000000
00300000
00000000
,
00000200
00000000
00000300
00000000
,
02000000
00000000
03000000
00000000
,
00001000
00010000
00001000
00101000
,
00010000
00001000
00010000
00010100
,
00001000
01001000
00010000
00010010
,
00001000
00000000
00000100
00000000
00000001
00000000
00000010
00000010
,
00000020
00000030
00000001
00000100
,
00000010
00000000
00000000
00000100
00000000
00000100
00000000
00000100
,
00000000
00000110
00000010
00001000
,
00000100
00000000
00000000
00000000
00010000
00000000
00000000
00010000
,
00000000
00010000
00010010
00000000
,
01001000
00000000
00010100
00000000
,
00101000
00000000
00001000
00010000
,
00001000
00000000
00100000
00000000
00010000
00000000
00000000
10000000
,
00000000
00010000
00100000
01000000
,
10000000
00000000
00000000
00100000
00000000
00100000
00000000
01000000
,
00000000
01010000
00010000
00100000
,
00001000
00000000
00000000
00000000
00010000
00000000
00000000
00001000
,
00000000
00010000
00000100
00000010
,
00000001
00000100
00010000
01000000
,
00100000
00000000
10000000
00000000
01000000
00000000
00000000
00010000
,
00000000
00001000
00011000
00010000
,
00000000
00000010
00000000
00000000
00010000
00000000
00000000
00000010
,
00000000
00010000
00000000
00001000
,
00000000
00100000
00000000
00000000
00001000
00000000
00000000
00100000
,
00000000
00001000
00000000
00010000
,
00000000
00000100
00000000
00000000
00010000
00000000
00000000
00000100
,
00000000
00010000
00000000
00001000
,
00000000
01000000
00000000
00000000
00001000
00000000
00000000
01000000
,
00000000
00002000
00003000
00010000
,
00000100
00001000
00000010
00010000
,
00000100
00000020
00000030
00001000
,
00100000
00010000
01000000
00001000
,
00100000
02000000
03000000
00010000
,
00000010
00001000
00000100
00010000
,
00001000
00100000
00010000
01000000
,
00001000
00010000
00000100
00000010
,
00000001
00000100
00002000
00003000
,
00010000
00010000
00010000
00000000
00001000
00000000
00010000
00000000
,
00022000
00000000
00000000
00000000
,
00000000
00033000
00000000
00000000
;

//---------------dance-double - ----------------
#NOTES:
     dance-double:
     :
     Medium:
     13:
     0.540231,0.848138,0.548823,0.473641,0.206748,503.000000,430.000000,73.000000,63.000000,0.000000,0.000000,0.540231,0.848138,0.548823,0.473641,0.206748,503.000000,430.000000,73.000000,63.000000,0.000000,0.000000:
00000000
00000000
00000000
00000000
,
00000000
00000000
00000000
00000000
,
00000000
00000000
00000000
00000000
,
00000000
00000000
00000000
00000000
,
00000000
00000000
00000000
00000000
,
00000000
00000000
00000000
00000000
,
00000000
00000000
00000000
00000000
,
00000000
00000000
00000000
00000000
,
00000000
00000000
00000000
00000000
,
00000000
00000000
00000000
00000000
,
00001000
00000000
00010000
00000000
00000010
00001000
00000000
00000100
,
00000000
00010000
00000000
00001000
00000000
00000000
00011000
00000000
,
00010000
00000000
00001000
00000000
01000000
00010000
00000000
00000000
,
00100000
00001000
00000000
00010000
00000000
00000100
00001000
00000001
,
00002000
00003100
00000200
00010300
,
00020000
00031000
00002000
01003000
,
01000000
00010000
00100000
01000000
,
20000000
00100000
00000000
30100000
00000000
00000000
00100000
00000000
,
00020000
00001000
00000000
00031000
00000000
00000000
00001000
00000000
,
00000200
00000001
00000000
00000301
00000000
00000000
00000001
00000000
,
00000020
00000130
00000200
00010300
,
00020000
00031000
00002000
00103000
,
00100000
01000000
00000000
01000000
10000000
00000000
10000000
00100000
,
00000000
00100000
00010000
00000000
00022000
00000000
00033000
00000000
,
00001000
00010000
00000100
00001000
00000000
00000001
00001000
00000000
,
00002002
00000000
00000000
00003003
,
00001000
00000010
00010000
00001000
00000000
00100000
00010000
00000000
,
20020000
00000000
00000000
30030000
00000000
10000000
01000000
00100000
,
00010000
00100000
00102000
00013000
,
00001000
00010000
00010020
00001030
,
00001000
00000100
00000010
00000000
00000001
00000010
00000100
00000000
,
00001000
00000010
00010000
00001000
01000000
00010000
00100000
00000000
,
01100000
00000000
01000000
00000000
10000000
00000000
00100000
00000000
00010000
00000000
00001000
00010000
00001000
00000000
00000100
00000000
,
00000001
00000010
00000000
00000000
00000110
00000000
00000100
00000000
00000020
00000000
00000000
00000000
00000031
00000000
00000001
00000000
,
00001000
00000000
00000010
00000000
00000100
00000000
00001000
00000000
00011000
00000000
00010000
00000010
00000000
00010000
00001000
00000000
,
00100000
01000000
10000000
00100000
00010000
00001000
00011000
00011000
,
00020000
00000000
00000000
00000000
00000000
00000000
00000000
00000000
00030200
00000000
00000000
00000000
00001300
00000001
00001000
00000000
,
00000010
00000000
00001000
00000001
00001000
00000000
00000100
00000000
00000010
00000000
00000011
00000000
00000000
00000000
00000101
00000000
,
00000100
00000000
00001000
00010000
00001000
00000000
00100000
00000000
02000000
00000000
00000000
00000000
10000000
00000000
13000000
00000000
,
20000000
00000000
00000000
00000000
30200000
00000000
00000000
00000000
00310000
00001000
00010000
00001000
00010000
00001000
00010000
00000000
,
00000010
00000000
00001000
00000000
00000100
00000000
00000010
00000100
00000000
00000000
00000000
00000000
00001100
00000000
00000000
00000000
,
00000022
00000000
00000030
00000000
00000000
00000000
00000103
00000010
00020000
00000000
00000000
00000000
00031000
00000000
00000000
00000000
,
00101000
00000000
00100000
00000000
01000000
00000000
10000000
00100000
00000000
01000000
00000000
00000000
01100000
00000000
00000000
00000000
,
00100000
00010000
00001000
00010000
00000000
00000010
00010000
00001000
00010000
00000000
00000100
00001000
00000001
00000000
00000010
00000000
,
00001000
00000000
00010000
00000000
01000000
00000000
10000000
01000000
00000000
00000000
00000000
00000000
01100000
00000000
00000000
00000000
,
00220000
00000000
00300000
00000000
00000000
00000000
00031000
00000010
00000100
00000000
00000000
00000000
00001100
00000000
00000000
00000000
,
00001000
00000000
00000010
00000000
00000100
00000000
00000001
00000010
00000000
00000000
00000000
00000000
00001100
00000000
00000000
00000000
,
00020100
00000000
00000000
00000000
00032000
00000000
00000000
01000000
00000000
01000000
00000000
01003000
00000000
00000000
01100000
00000000
,
00100000
00000000
00000000
10000000
00000000
00000000
01000000
00000000
00000000
00010000
00000000
00000000
00001000
00000000
00000000
00000000
,
00000010
00000000
00000000
00000001
00000000
00000000
00000100
00000000
00000000
00001000
00000000
00000000
00010000
00001000
00010000
00001000
,
00010000
00000000
00000000
01000000
00000000
00000000
10000000
00000000
00000000
00100000
00000000
00000000
00010000
00000000
00000000
00000000
,
00001000
00000000
00000000
00000100
00000000
00000000
00000001
00000000
00000000
00000010
00000000
00000000
00001000
00000000
00010000
00001000
,
00010000
00000000
00000000
00010010
00000000
00000000
00001000
00000000
00000000
00101000
00000000
00000000
00010000
00000000
00011000
00000000
,
00001000
00000000
00000000
01001000
00000000
00000000
00010000
00000000
00000000
00010100
00000000
00000000
00001000
00010000
00001000
00000000
,
01000000
00000000
00000000
01001000
00000000
00000000
00011000
00000000
00000100
00000000
00000000
00010100
00000000
00000000
00011000
00000000
,
00001000
00100000
00000000
00010000
00100000
01000000
00000000
10000000
00100000
00010000
00100000
00010000
00001000
00010000
00001000
00010000
,
00000020
00000000
00000000
00000130
00000100
00000001
00000100
00000010
,
00000100
00000001
00000100
00000010
00000000
00001010
00000000
00022000
,
00033000
00000000
00011000
00000000
00010000
00001000
01000000
00001000
,
00010000
00002000
00003000
00000000
00010000
01000000
00000000
22000000
,
33000000
10100000
00100000
01100000
,
01000000
01001000
00001000
00011000
,
00010000
00000000
00010100
00000000
00000100
00000010
00000001
00000000
,
00001000
00000100
00000010
00000000
00000001
00000200
00000000
00002300
,
00000000
00000000
00013000
00000000
00010000
01000000
10000000
01000000
,
00010000
01000000
10000000
01000000
00000000
00110000
00000000
00022000
,
00033000
00000000
00011000
00000000
00010000
00001000
00000010
00001000
,
00010000
00002000
00003000
00000000
00000100
00000001
00000000
00000220
,
00000330
00000000
00001001
00000000
00000001
00000010
00000100
00001000
,
00010000
00100000
01000000
10000000
00100000
01000000
00100000
00010000
,
00001000
00000100
00000010
00000100
00000001
00000011
00000000
00002020
,
00003030
00000000
00011000
00000000
00022000
00033000
00010000
00000000
,
00000000
00010010
00000000
00000000
00001000
00000000
00000000
01001000
,
00000000
00022000
00033000
00010000
,
00000000
00010100
00000000
00000000
00001000
00000000
00000000
00101000
,
00000000
00021000
00030010
00001010
,
00000000
00010100
00000000
00000000
00101000
00000000
00000000
01010000
,
00000000
00022000
00033000
00011000
,
00000000
00110000
00000000
00000000
01001000
00000000
00000000
00010010
,
00000000
00000000
00001100
00000000
00000100
00000000
00000010
00000001
,
00000000
00000100
00001000
00000000
00000010
00000001
00000000
00000100
,
00001000
00000000
00022000
00000000
00033000
00000000
00100000
10000000
,
00000000
01000000
00010000
00000000
00100000
10000000
00000000
01000000
,
00010000
00000000
00022000
00000000
00033000
00000000
00001000
00010000
,
01000000
00100000
00000000
00001000
00011000
00000000
00010000
00001000
,
00000010
00000100
00000000
00010000
00011000
00000000
00001000
00010000
,
00100000
01000000
00000000
00001000
00011000
00000000
00010000
00001000
,
00000100
00000010
00000010
00000001
00000100
00001000
00022000
00033000
,
00010000
00000000
00100000
00000000
00010000
00001000
00000000
00000010
00000000
00001000
00000000
00020000
00000000
00000000
00031000
00000000
,
00022000
00000000
00000000
00000000
,
00000000
00033000
00000000
00000000
;
