#TITLE:PUPA;
#SUBTITLE:;
#ARTIST:モリモリあつし;
#TITLETRANSLIT:;
#SUBTITLETRANSLIT:;
#ARTISTTRANSLIT:Morimori Atsushi;
#GENRE:VARIETY;
#CREDIT:MUINELIM;
#BANNER:PUPA.png;
#BACKGROUND:PUPA-bg.png;
#LYRICSPATH:;
#CDTITLE:;
#MUSIC:PUPA.mp3;
#OFFSET:-0.045000;
#SAMPLESTART:78.456848;
#SAMPLELENGTH:10.000000;
#SELECTABLE:YES;
#DISPLAYBPM:101.000000:404.000000;
#BPMS:0.000000=202,72.062500=404,200.062500=202,226.062500=404,291.062500=101,307.062500=202,337.062500=404,466.062500=202,496.062500=404;
#STOPS:205.562500=0.594,212.562500=0.297,219.062500=0.446,226.062500=0.297,336.062500=0.149,336.562500=0.149,337.062500=0.149,495.062500=0.149,495.562500=0.149,496.062500=0.149;
#BGCHANGES:-10000.000=black.mpg=1.000=1=0=1===CrossFade==,
-0.200=PUPA.mpg=1.000=0=0=0=StretchNoLoop====,
99999=-nosongbg-=1.000=0=0=0 // don't automatically add -songbackground-
;
#KEYSOUNDS:;
#ATTACKS:;

//---------------dance-single - ----------------
#NOTES:
     dance-single:
     :
     Hard:
     17:
     1.015572,1.578791,0.679305,0.545024,0.387046,900.000000,814.000000,86.000000,69.000000,0.000000,0.000000,1.015572,1.578791,0.679305,0.545024,0.387046,900.000000,814.000000,86.000000,69.000000,0.000000,0.000000:
0000
0000
0000
0000
,
0000
0000
0000
0000
0000
0000
0000
0000
0000
0000
0000
0000
0010
1000
0010
1000
,
0001
0000
1000
0100
1000
0000
0001
0000
1000
0100
1000
0000
0001
0000
0000
0000
,
0000
0000
0000
0000
0000
0000
0000
0000
0000
0000
0000
0000
0010
0001
0010
0001
,
1000
0000
0001
0100
0001
0000
1000
0000
0001
0100
0001
0000
1000
0000
0000
0000
,
0000
0000
0000
0000
0000
0000
0000
0000
0000
0000
0000
0000
0100
0010
0100
0010
,
0001
0000
0100
0010
0100
0000
1000
0000
0100
0010
0100
0000
0001
0000
0000
0000
,
0000
0000
0000
0000
0000
0000
0000
0000
0000
0000
0000
0000
1000
0001
1000
0001
,
0010
0000
0001
1000
0001
0000
0100
0000
0001
1000
0001
0000
2002
0000
3000
0000
,
0000
0203
0320
2030
3200
0320
0032
0000
,
1003
0000
0000
0000
1010
0000
0010
0100
0010
0000
0200
0000
0000
0000
0301
0010
,
0001
0000
0010
0000
0100
0000
1000
0100
1000
0000
0100
0000
0010
0000
0001
0000
,
1001
0000
1000
0000
0010
0000
0100
0000
0001
1000
0001
0000
0100
0000
0010
0000
,
1010
0000
1010
0000
0000
0000
0101
0000
0001
0010
0001
0010
0100
1000
0100
1000
,
0010
0000
0100
0000
0001
0000
1000
0100
1000
0000
0020
0000
0000
0000
0130
0000
,
0001
0000
1000
0000
0100
0000
0010
0001
0010
0000
0100
0000
1000
0000
0010
0000
,
0100
0001
0100
0000
0010
1000
0010
0000
0100
0001
0100
0001
0010
0000
2100
0000
,
0000
0000
0000
3010
0000
0000
0100
0000
0000
0002
0000
0000
1003
0000
0100
0000
0010
0000
0001
0000
0100
0000
0010
0000
,
1000
0000
0001
0000
0000
0010
0000
0000
,
0100
0000
0000
1000
0000
0000
0020
0000
,
0030
0000
0100
0000
0000
0001
0000
0000
,
1000
0000
0000
0100
0000
0000
0020
0000
,
0030
0000
0001
0000
0000
1000
0000
0000
,
0010
0000
0000
0100
0000
0000
0002
0000
,
0003
0000
0010
0000
0000
0100
0000
0000
,
1000
0000
0000
0010
0000
0000
0100
0000
,
0220
0330
0010
2000
,
0000
0000
3002
0000
0000
0000
0103
0010
,
0100
0001
0010
1100
,
0000
1020
0000
0130
,
0102
0000
1003
1200
,
0000
0320
0000
0031
,
0100
1000
0100
0001
,
0010
0100
0000
0100
0010
0000
0001
0000
,
1001
0000
1000
0000
0000
1010
0000
0000
,
0001
0000
0000
0011
0000
0000
0100
0000
,
0110
0000
0001
0000
0000
0101
0000
0000
,
1000
0000
0000
1100
0000
0000
0010
0000
,
0110
0000
1000
0000
0000
1100
0000
0000
,
0010
0000
0000
1010
0000
0000
0100
0000
,
0101
0000
0010
0000
0000
0011
0000
0000
,
0001
0100
0000
0010
1000
0000
0100
0000
,
0110
0010
0001
0010
,
0100
0000
1000
0000
0100
0000
0010
0100
,
0010
0001
0100
0010
,
1000
0001
0010
0100
,
2200
3300
0011
0202
,
0303
2020
3030
1001
,
0001
1000
0010
0000
1000
0001
0100
0000
,
0001
1000
0010
1000
0001
0100
0001
1000
,
0100
0100
0010
0001
1000
1000
0001
0010
,
0100
0100
0010
0002
1003
1000
0001
0100
,
0010
0010
0100
0001
1000
1000
0001
0100
,
0110
0110
0010
0010
1000
0001
0100
0100
,
1000
0001
0010
0010
1000
0100
0020
0130
,
0100
1000
0001
0010
0010
1000
0001
0100
,
0100
1000
0010
0110
0110
0000
0200
0000
,
0000
0301
0010
0000
0001
0000
0200
0000
,
0000
0310
1000
0000
0010
0000
0200
0000
,
0000
0301
0010
0000
0001
0000
0101
0000
,
0000
1100
0000
0000
1001
0000
0020
0000
,
0000
1030
0100
0000
1000
0000
0020
0000
,
0000
0130
0001
0000
0100
0000
0020
0000
,
0000
1030
0100
0000
1000
0000
1010
0000
,
0000
0011
0000
0000
1001
0000
0001
0100
,
0001
0000
0010
0000
0100
0000
1000
0010
,
1000
0000
0100
0000
0010
0000
0001
0010
,
0001
0000
0100
0000
0010
0000
1000
0100
,
1000
0000
0010
0100
0010
0100
0010
1000
,
0100
1000
0001
0010
0001
1000
0010
1000
,
0001
0100
0001
1000
0020
0000
0030
0000
,
0110
0000
0101
0000
1010
0000
1000
0100
,
0010
0000
0000
0000
2002
0000
0000
0000
3003
0000
0000
0000
0110
0000
0010
1000
,
0100
0000
0000
1000
0000
0000
0001
0000
0010
0000
0000
0001
0000
0000
0100
0000
0010
0000
0000
0000
0000
0000
0100
0001
0100
0000
0000
0000
0010
0000
1000
0000
,
0001
0000
0000
0100
0000
0000
0001
0000
1000
0000
0000
0010
0000
0000
1000
0000
0100
0000
0000
0000
0000
0000
0010
0100
0010
0000
0000
0000
0100
0000
1000
0000
,
0001
0000
0000
0100
0000
0000
1000
0000
0100
0000
0000
0001
0000
0000
0010
0000
0100
0000
0000
0000
0000
0000
1000
0010
1000
0000
0000
0000
0001
0000
0010
0000
,
0100
0000
0000
1000
0000
0000
0010
0000
0001
0000
0000
0010
0000
0000
1000
0000
0100
0000
0000
0000
0000
0000
0010
0001
2000
0000
0000
0000
0000
0000
0000
0000
,
3010
0000
0100
0000
0101
0000
0000
0011
0000
0000
0010
0000
1010
0000
0000
1100
,
0000
0000
0100
0000
0220
0000
0000
0000
0330
0000
0010
0001
0010
0000
0000
0000
,
0100
0000
1000
0000
1010
0000
0000
0011
0000
0000
0001
0000
0101
0000
0000
1100
,
0000
0000
1000
0000
2002
0000
0000
0000
3003
0000
0001
0100
0010
0000
0000
0000
,
1000
0000
0100
0000
0110
0000
0000
0011
0000
0000
0001
0100
0010
0000
0000
1010
,
0000
0000
0101
0000
2200
0000
0000
0000
3300
0000
1000
0010
0100
0000
0001
0000
,
0010
1000
0001
0100
1000
0020
0200
0330
,
1010
0101
1001
0000
1000
0000
0010
0000
,
0100
0000
0001
0000
0010
0001
0000
0010
,
0100
0000
0010
0000
0100
1000
0000
0100
,
0010
0000
0100
0000
1000
0010
0000
0100
,
0001
0000
0010
0100
0010
0000
0001
0000
,
0100
0000
0010
0000
1000
0100
0000
0010
,
0100
0000
0010
0000
0001
0010
0000
0100
,
0010
0000
0100
0000
1000
0010
0000
0100
,
0001
0000
1000
0010
1000
0000
0001
0000
,
0100
0000
0010
0000
1000
0100
0000
1000
,
0001
0000
0010
0000
0001
0100
0000
0001
,
1000
0000
0100
0000
1000
0010
0000
1000
,
0001
0000
0100
0000
0001
0010
0000
0100
,
1000
0000
0010
0000
0100
0001
0000
1000
,
0010
0000
0100
0000
0101
0000
0000
0011
,
0000
1010
2200
3300
,
0220
0330
0010
0001
,
0100
0010
1000
0000
0100
0000
1000
0000
,
0010
0100
0001
0000
0010
0000
0100
0000
,
1000
0010
0100
0000
0001
0000
1000
0100
,
1000
0100
0010
0001
1000
0000
0010
0000
,
0100
0001
1000
0000
0100
0000
0010
0000
,
0001
1000
0010
0000
0110
0000
1000
0000
,
1001
0000
0010
0000
1000
0100
0000
0010
,
0001
0000
0000
0110
0000
0000
1000
0000
0010
0000
0100
0000
,
0001
0000
0100
0000
0010
0000
1000
0000
0010
0000
0100
0000
,
0001
0000
0010
0000
0001
0000
1000
0000
0100
0000
1000
0000
,
0010
0000
0100
0000
0001
0000
2002
0000
0000
0000
0000
0000
,
0000
0000
3003
0000
1000
0100
1000
0010
,
0100
0001
0010
0001
0100
0010
1000
0002
,
0103
0000
0001
2000
3010
0000
0000
0011
,
0000
1100
0202
0303
,
2002
0000
0000
0000
3003
0000
0000
0000
0110
0000
0000
0000
0010
0000
1000
0100
,
0010
0200
0000
1300
0010
0001
0010
1000
,
0100
0000
0010
0001
0100
0000
0010
0000
0210
0000
0000
0000
0000
0000
0001
0000
,
0000
0000
1000
0000
0000
0001
0000
0000
,
0310
0000
0000
0000
0110
0000
0000
0000
1001
0000
0000
0000
1000
0000
0100
0010
,
0001
0020
0000
0031
0100
1000
0100
0001
,
0010
0000
0100
1000
0010
0000
0100
0000
0120
0000
0000
0000
0000
0000
0001
0000
,
0000
0000
0000
0000
1030
0000
0000
0000
1000
0100
0010
0001
0100
0000
1100
0000
,
0011
0000
0010
0000
0100
0000
1000
0010
,
0100
0000
1000
0000
0100
0000
0001
0100
,
0010
0000
0001
0000
0010
0000
1000
0100
,
0010
0000
1000
0000
0010
0000
0001
0010
,
0100
0000
1000
0000
0010
0000
0001
0010
,
1000
0000
0001
0000
0100
0000
1000
0100
,
0001
0000
0000
0010
0000
0100
0000
1000
0000
0001
0000
0010
,
0000
0100
0000
1000
0000
0010
0000
0001
0000
1000
0000
0100
,
0000
0000
0001
0000
0000
0000
0010
0000
0000
0100
0000
0000
0010
0000
0000
0000
0000
0000
0100
0000
0000
1000
0000
0000
,
0100
0000
0010
0001
0010
0000
0001
0100
,
0001
0000
1000
0010
1000
0000
0001
1000
,
0001
0000
0100
0010
1000
0000
0010
0100
,
0001
0000
1000
0100
1000
0100
0010
0001
,
0010
0001
1000
0010
0100
0001
0100
0010
,
0100
0001
0010
0100
1000
0010
0100
0001
,
0010
0100
1000
0010
0100
0001
0010
0100
,
1000
0010
0200
0000
0310
1000
0100
0000
,
0010
0000
0100
1000
0010
0000
0110
0000
,
0000
0000
0000
0000
,
0000
0000
0000
0000
0000
0000
0100
0001
,
1000
0010
0200
0000
0301
0010
0100
0000
,
0010
0000
0001
0100
0010
0000
0110
0000
,
0000
0000
0000
0000
,
0000
0000
0000
0000
0000
0000
0100
0001
,
1000
0100
0020
0000
0031
1000
0010
0000
,
0100
0000
0001
0010
0100
0000
1001
0000
,
0000
0000
0000
0000
,
0000
0000
0000
0000
0000
0000
0010
1000
,
0001
0010
0200
0000
1300
0010
0100
0000
,
0001
0000
1000
0100
0010
0000
1001
0000
;

//---------------dance-double - ----------------
#NOTES:
     dance-double:
     :
     Hard:
     17:
     0.988490,1.578791,0.687204,0.552923,0.363349,876.000000,789.000000,87.000000,70.000000,0.000000,0.000000,0.988490,1.578791,0.687204,0.552923,0.363349,876.000000,789.000000,87.000000,70.000000,0.000000,0.000000:
00000000
00000000
00000000
00000000
,
00000000
00000000
00000000
00000000
00000000
00000000
00000000
00000000
00000000
00000000
00000000
00000000
00001000
00010000
00001000
00000000
,
01000000
00000000
00001000
00010000
00001000
00000000
00000100
00000000
00001000
00010000
00001000
00000000
00011000
00000000
00000000
00000000
,
00000000
00000000
00000000
00000000
00000000
00000000
00000000
00000000
00000000
00000000
00000000
00000000
00010000
00001000
00010000
00000000
,
00000010
00000000
00010000
00001000
00010000
00000000
00100000
00000000
00010000
00001000
00010000
00000000
00011000
00000000
00000000
00000000
,
00000000
00000000
00000000
00000000
00000000
00000000
00000000
00000000
00000000
00000000
00000000
00000000
00001000
00010000
00001000
00000000
,
00000010
00000000
00001000
00010000
00001000
00000000
00100000
00000000
00001000
00010000
00001000
00000000
00011000
00000000
00000000
00000000
,
00000000
00000000
00000000
00000000
00000000
00000000
00000000
00000000
00000000
00000000
00000000
00000000
00010000
00001000
00010000
00000000
,
01000000
00000000
00010000
00001000
00010000
00000000
00000100
00000000
00010000
00001000
00010000
00000000
00022000
00000000
00003000
00000000
,
00000000
00030200
00000320
00000032
00000203
00002300
00023000
00000000
,
00130000
00000000
00000000
00000000
10100000
00000000
10000000
01000000
10000000
00000000
02000000
00000000
00000000
00000000
03010000
00000000
,
00001000
00000000
00100000
00000000
01000000
00000000
00010000
00001000
00010000
00000000
00001000
00000000
00000100
00000000
00000001
00000000
,
00001001
00000000
00001000
00000000
00000100
00000000
00000010
00000000
00001000
00010000
00001000
00000000
00100000
00000000
00010000
00000000
,
10000000
00000000
11000000
00000000
00000000
00000000
00110000
00000000
00010000
01000000
00010000
01000000
00001000
00010000
00001000
00010000
,
00000010
00000000
00001000
00000000
00000100
00000000
00000010
00000001
00000010
00000000
00000200
00000000
00000000
00000000
00001300
00000000
,
00000010
00000000
00010000
00000000
00001000
00000000
00100000
00010000
00100000
00000000
01000000
00000000
10000000
00000000
00100000
00000000
,
01000000
00010000
01000000
00000000
00001000
00000000
00010000
00000000
00000010
00001000
00000010
00001000
00000100
00000000
00000120
00000000
,
00000000
00000000
00000000
00000031
00000000
00000000
00000100
00000000
00000000
00002000
00000000
00000000
00013000
00000000
00000100
00000000
00010000
00000000
00001000
00000000
01000000
00000000
00001000
00000000
,
00010000
00000000
00000100
00000000
00000000
00001000
00000000
00000000
,
00000010
00000000
00000000
00000100
00000000
00000000
00000002
00000000
,
00000000
00000000
00001003
00000000
00000000
00000010
00000000
00000000
,
00010000
00000000
00000000
00001000
00000000
00000000
00200000
00000000
,
00000000
00000000
00310000
00000000
00000000
01000000
00000000
00000000
,
00100000
00000000
00000000
10000000
00000000
00000000
00020000
00000000
,
00000000
00000000
00130000
00000000
00000000
01000000
00000000
00000000
,
00010000
00000000
00000000
00001000
00000000
00000000
00000010
00000000
,
00000220
00000330
00000100
00002000
,
00000000
00000000
00003002
00000000
00000000
00000000
00000013
00000100
,
00000010
00000001
00000100
00002000
,
00000000
00023000
00000000
00130000
,
20100000
00000000
31000000
01200000
,
00000000
00302000
00000000
00013000
,
00001000
00000010
00000001
00000100
,
00001000
00010000
00000000
00001000
00010000
00000000
00100000
00000000
,
10100000
00000000
10000000
00000000
00000000
11000000
00000000
00000000
,
01000000
00000000
00000000
01100000
00000000
00000000
00100000
00000000
,
00101000
00000000
00001000
00000000
00000000
00011000
00000000
00000000
,
00010000
00000000
00000000
00010010
00000000
00000000
00000010
00000000
,
00001010
00000000
00001000
00000000
00000000
00001100
00000000
00000000
,
00000100
00000000
00000000
00000110
00000000
00000000
00000010
00000000
,
00000011
00000000
00000001
00000000
00000000
00000101
00000000
00000000
,
00000100
00000010
00000000
00000100
00000010
00000000
00010000
00000000
,
00011000
00001000
00010000
00100000
,
10000000
00000000
01000000
00000000
00010000
00000000
00001000
00010000
,
00001000
00000010
00000001
00000100
,
00001000
00010000
01000000
10000000
,
20020000
30030000
01001000
00020200
,
00030300
00002002
00003003
00000110
,
00000010
00001000
00000010
00000000
00000100
00000001
00000100
00000000
,
00000010
00010000
00001000
00010000
00001000
00100000
00010000
01000000
,
00100000
00100000
10000000
01000000
00100000
00100000
00010000
01000000
,
00100000
00100000
00010000
00002000
00003010
00000010
00000100
00001000
,
00000010
00000010
00000100
00000001
00000010
00000010
00000100
00001000
,
00001001
00001001
00000001
00000001
00000100
00001000
00010000
00010000
,
00100000
10000000
01000000
01000000
00010000
00001000
00200000
01300000
,
01000000
10000000
00100000
00010000
00010000
00001000
00000100
00000001
,
00000001
00000010
00001000
00011000
00011000
00000000
00020000
00000000
,
00000000
00030100
00000000
00000000
00010000
00000000
00002000
00000000
,
00000000
01003000
00000000
00000000
00001000
00000000
00020000
00000000
,
00000000
00030010
00000000
00000000
00010000
00000000
00010100
00000000
,
00000000
01001000
00000000
00000000
00011000
00000000
00002000
00000000
,
00000000
00103000
00000000
00000000
00001000
00000000
00020000
00000000
,
00000000
00030010
00000000
00000000
00010000
00000000
00002000
00000000
,
00000000
01003000
00000000
00000000
00001000
00000000
00101000
00000000
,
00000000
00010010
00000000
00000000
00011000
00000000
00001000
00010000
,
00001000
00000000
00100000
00000000
00010000
00000000
01000000
00100000
,
01000000
00000000
00001000
00000000
00010000
00000000
00000010
00000100
,
00000010
00000000
00001000
00000000
00000100
00000000
00010000
00001000
,
00010000
00000000
00001000
00010000
00001000
00010000
00001000
01000000
,
00010000
00000000
00100000
00001000
00010000
00000000
00001000
00010000
,
00000100
00000000
00001000
00000010
00000200
00000000
00000300
00000000
,
00000101
00000000
00000010
00000000
00001010
00000000
00001000
00000100
,
00010000
00000000
00000000
00000000
00022000
00000000
00000000
00000000
00033000
00000000
00000000
00000000
00011000
00000000
00001000
00010000
,
01000000
00000000
00000000
10000000
00000000
00000000
00100000
00000000
01000000
00000000
00000000
00010000
00000000
00000000
00100000
00000000
01000000
00000000
00000000
00000000
00000000
00000000
00010000
00001000
00010000
00000000
00000000
00000000
00000100
00000000
00001000
00000000
,
00000001
00000000
00000000
00000100
00000000
00000000
00000010
00000000
00001000
00000000
00000000
00000100
00000000
00000000
00000010
00000000
00001000
00000000
00000000
00000000
00000000
00000000
00010000
00001000
00010000
00000000
00000000
00000000
00001000
00000000
00100000
00000000
,
01000000
00000000
00000000
10000000
00000000
00000000
00100000
00000000
01000000
00000000
00000000
00010000
00000000
00000000
10000000
00000000
01000000
00000000
00000000
00000000
00000000
00000000
00010000
00001000
00010000
00000000
00000000
00000000
00000100
00000000
00000010
00000000
,
00000001
00000000
00000000
00001000
00000000
00000000
00000010
00000000
00000100
00000000
00000000
00001000
00000000
00000000
00010000
00000000
00011000
00000000
00000000
00000000
00000000
00000000
00001000
00010000
00000200
00000000
00000000
00000000
00000000
00000000
00000000
00000000
,
00000310
00000000
00000001
00000000
00000101
00000000
00000000
00001100
00000000
00000000
00001000
00000000
00011000
00000000
00000000
01010000
,
00000000
00000000
01000000
00000000
22000000
00000000
00000000
00000000
33000000
00000000
10000000
00100000
01000000
00000000
00000000
00000000
,
00010000
00000000
10000000
00000000
11000000
00000000
00000000
01010000
00000000
00000000
00010000
00000000
00011000
00000000
00000000
00001010
,
00000000
00000000
00000010
00000000
00000022
00000000
00000000
00000000
00000033
00000000
00000001
00000100
00000010
00000000
00000000
00000000
,
00001000
00000000
00000100
00000000
00010100
00000000
00000000
01001000
00000000
00000000
00001000
00010000
00000010
00000000
00000000
00010010
,
00000000
00000000
00101000
00000000
00022000
00000000
00000000
00000000
00033000
00000000
00010000
00001000
00100000
00000000
01000000
00000000
,
00010000
00001000
00000010
00000100
00010000
00001000
00022000
00033000
,
01001000
00010010
00011000
00000000
00001000
00000000
00100000
00000000
,
00010000
00000000
01000000
00000000
00100000
10000000
00000000
10000000
,
01000000
00000000
00100000
00000000
00010000
01000000
00000000
01000000
,
00001000
00000000
00010000
00000000
00000100
00001000
00000000
00001000
,
00000001
00000000
00000100
00000010
00010000
00000000
00000100
00000000
,
00001000
00000000
00000010
00000000
00000100
00000001
00000000
00000001
,
00000010
00000000
00000100
00000000
00001000
00000010
00000000
00000010
,
00010000
00000000
00001000
00000000
00100000
00010000
00000000
00010000
,
10000000
00000000
00100000
01000000
00001000
00000000
00010000
00000000
,
00100000
00000000
10000000
00000000
01000000
00010000
00000000
00010000
,
00001000
00000000
00000010
00000000
00000001
00000100
00000000
00000100
,
00001000
00000000
00010000
00000000
01000000
10000000
00000000
10000000
,
00100000
00000000
00010000
00000000
00001000
00000100
00000000
00000100
,
00000001
00000000
00000010
00000000
00000100
00010000
00000000
00010000
,
00001000
00000000
01000000
00000000
01010000
00000000
00000000
00101000
,
00000000
00010010
00002200
00003300
,
00022000
00033000
00010000
00001000
,
00100000
00010000
01000000
00000000
00100000
00000000
10000000
00000000
,
00010000
00100000
01000000
00000000
00010000
00000000
00001000
00000000
,
00000010
00000100
00001000
00000000
00000001
00000000
00000100
00000010
,
00000100
00000010
00000100
00000010
00000100
00000000
00000001
00000000
,
00001000
00000100
00000010
00000000
00001000
00000000
00010000
00000000
,
01000000
00100000
00010000
00000000
01010000
00000000
10000000
00000000
,
10100000
00000000
00010000
00000000
01000000
00100000
00000000
00100000
,
00010000
00000000
00000000
00011000
00000000
00000000
00001000
00000000
00100000
00000000
00001000
00000000
,
00010000
00000000
00000010
00000000
00010000
00000000
00001000
00000000
01000000
00000000
00001000
00000000
,
00010000
00000000
00000100
00000000
00010000
00000000
00001000
00000000
00000100
00000000
00001000
00000000
,
00010000
00000000
00100000
00000000
00010000
00000000
00022000
00000000
00000000
00000000
00000000
00000000
,
00000000
00000000
00033000
00000000
00001000
01000000
00001000
01000000
,
00001000
00010000
00001000
00010000
00000010
00010000
00000010
00010000
,
00002000
00000000
01003000
00001000
00010000
00000000
00000000
00010100
,
00000000
01001000
00020020
00030030
,
00202000
00000000
00000000
00000000
00303000
00000000
00000000
00000000
00011000
00000000
00000000
00000000
00010000
00000000
00000100
00001000
,
00000100
00000020
00000000
00000031
00000100
00001000
00010000
00100000
,
10000000
00000000
01000000
00100000
01000000
00000000
00010000
00000000
00012000
00000000
00000000
00000000
00000000
00000000
00000010
00000000
,
00000000
00000000
00000001
00000000
00000000
00000100
00000000
00000000
,
00013000
00000000
00000000
00000000
00010010
00000000
00000000
00000000
01001000
00000000
00000000
00000000
00001000
00000000
01000000
00010000
,
01000000
00200000
00000000
10300000
01000000
00010000
00001000
00000010
,
00000001
00000000
00000100
00000010
00000100
00000000
00001000
00000000
00021000
00000000
00000000
00000000
00000000
00000000
00100000
00000000
,
00000000
00000000
00000000
00000000
10030000
00000000
00000000
00000000
00010000
00001000
00010000
00001000
00010000
00000000
00010100
00000000
,
00101000
00000000
00100000
00000000
00010000
00000000
01000000
00100000
,
10000000
00000000
00010000
00000000
01000000
00000000
00001000
00010000
,
00000100
00000000
00001000
00000000
00000010
00000000
00000100
00000001
,
00001000
00000000
00000100
00000000
00000010
00000000
00001000
00010000
,
01000000
00000000
10000000
00000000
00100000
00000000
01000000
00010000
,
00100000
00000000
01000000
00000000
00010000
00000000
00001000
00000010
,
00000001
00000000
00000000
00000100
00000000
00000010
00000000
00001000
00000000
00000100
00000000
00010000
,
00000000
00001000
00000000
00100000
00000000
00010000
00000000
01000000
00000000
00001000
00000000
00010000
,
00000000
00000000
00000010
00000000
00000000
00000000
00000100
00000000
00000000
00000001
00000000
00000000
00000100
00000000
00000000
00000000
00000000
00000000
00000010
00000000
00000000
00001000
00000000
00000000
,
00000010
00000000
00010000
00001000
00010000
00000000
01000000
10000000
,
01000000
00000000
00100000
00010000
00100000
00000000
00001000
00010000
,
00001000
00000000
00000100
00000010
00000100
00000000
00000001
00001000
,
00000001
00000000
00000100
00000010
00001000
00000100
00010000
00001000
,
00100000
00010000
01000000
00100000
00010000
00001000
01000000
00100000
,
00010000
00001000
00000200
00000000
00000000
00000000
00000000
00000000
,
00000000
00000000
00000301
00000010
00000100
00010000
00001000
00100000
,
01000000
10000000
00200000
00000000
00310000
00001000
00010000
00000000
,
00100000
00000000
10000000
01000000
00100000
00000000
00101000
00000000
,
00000000
00000000
00000000
00000000
,
00000000
00000000
00000000
00000000
00000000
00000000
00001000
00010000
,
00001000
00000000
00000200
00000000
00001300
00010000
00001000
00000000
,
00000100
00000000
00000001
00000010
00000100
00000000
00010100
00000000
,
00000000
00000000
00000000
00000000
,
00000000
00000000
00000000
00000000
00000000
00000000
00010000
00001000
,
00010000
00000000
02000000
00000000
03010000
00001000
00010000
00000000
,
01000000
00000000
10000000
00100000
01000000
00000000
01001000
00000000
,
00000000
00000000
00000000
00000000
,
00000000
00000000
00000000
00000000
00000000
00000000
00001000
00010000
,
00001000
00000000
00000020
00000000
00001030
00010000
00001000
00000000
,
00000010
00000000
00000001
00000100
00001000
00000000
01001000
00000000
;

//---------------dance-single - ----------------
#NOTES:
     dance-single:
     :
     Beginner:
     7:
     0.273076,0.607228,0.039494,0.102686,0.000000,242.000000,237.000000,5.000000,13.000000,0.000000,0.000000,0.273076,0.607228,0.039494,0.102686,0.000000,242.000000,237.000000,5.000000,13.000000,0.000000,0.000000:
0000
0000
0000
0000
,
0000
0000
0000
0000
,
1000
0000
0000
1000
,
0000
0000
0000
0000
,
0001
0000
0000
0001
,
0000
0000
0000
0000
,
0100
0000
0000
0100
,
0000
0000
0000
0000
,
0010
0000
0000
0020
,
0000
0000
0030
0010
,
0010
0000
1000
0000
,
0001
0000
0100
0000
,
0010
0000
1000
0000
,
0001
0001
0001
0000
,
1000
0000
0100
0000
,
0010
0000
0001
0000
,
1000
1000
1000
1000
,
1000
0000
0020
0030
,
0100
0000
0000
0000
,
0100
0000
0000
0000
,
0001
0000
0000
0000
,
0001
0000
0000
0000
,
1000
0000
0000
0000
,
1000
0000
0000
0000
,
0010
0000
0000
0000
,
0010
0000
0000
0000
,
0100
0000
0000
0000
,
0010
0000
0000
0000
,
1000
0000
1000
0000
,
1000
0000
0000
0000
,
0010
0000
0000
0000
,
0100
0000
0000
0000
,
0001
0000
0001
0000
,
0001
0000
0000
0000
,
1000
0000
0000
0000
,
0100
0000
0000
0000
,
0010
0000
0000
0000
,
0001
0000
0000
0000
,
1000
0000
0000
0000
,
0010
0000
0000
0000
,
0100
0000
0000
0000
,
0001
0000
0000
0000
,
0010
0000
0000
0000
,
0100
0000
0100
0000
,
0100
0000
0000
0000
,
1000
0000
0000
0000
,
0001
0000
0000
0000
,
0010
0000
0010
0000
,
0100
0000
0100
0000
,
0010
0000
0100
0000
,
2000
0000
3000
0000
,
0000
0000
0002
0000
,
0003
0000
0000
0000
,
0000
0200
0000
0300
,
0000
0000
0000
0000
0000
0000
0000
0020
,
0000
0000
0000
0030
0000
0000
0000
0000
,
0000
0000
0000
1000
,
0000
0000
0000
0001
,
0000
0000
0000
1000
,
0000
1000
0000
1000
,
0000
0000
0000
0001
,
0000
0000
0000
1000
,
0000
0000
0000
0001
,
0000
0001
0000
0001
,
0000
0000
0000
0100
,
0000
0100
0000
0100
,
0000
0000
0000
0010
,
0000
0010
0000
0010
,
0000
0000
0000
1000
,
0000
1000
0000
0001
,
0000
0001
0000
0000
,
0000
0100
0000
0010
,
0000
0100
0000
0110
,
0000
0000
1000
1000
1000
0000
0100
0000
,
0000
0000
0010
0010
0010
0000
0001
0000
,
0000
0000
0010
0010
0010
0000
0100
0000
,
0000
0000
1000
1000
1000
0000
0001
0000
,
0000
0100
0000
0010
,
0100
0001
0000
1000
,
0000
0010
0000
0100
,
0010
1000
0000
0001
,
1000
0100
0000
1000
,
0001
0010
0000
0001
,
1000
0001
0100
0020
,
0000
0030
0100
0000
,
0000
0000
0100
0000
,
0000
0000
0100
0000
,
0001
0000
0010
0000
,
0000
0000
0010
0000
,
0000
0000
0010
0000
,
0000
0000
0010
0000
,
0100
0000
1000
0000
,
0000
0000
1000
0000
,
0000
0000
1000
0000
,
0000
0000
1000
0000
,
0001
0000
0100
0000
,
0000
0000
0100
0000
,
0000
0000
0100
0000
,
0000
0000
0020
0000
,
0000
0000
0030
0000
,
0110
0000
0100
0000
,
0001
0000
0100
0000
,
0001
0000
0100
0000
,
0010
0000
0100
0010
,
0100
0000
0010
0000
,
1000
0000
0010
0000
,
1000
0000
0010
0000
,
0100
0000
0010
0100
,
0010
0000
2000
0000
,
0000
0000
0000
3000
,
0000
0000
0002
0000
,
0000
0000
0000
0003
,
0000
0000
1000
0000
,
0001
0000
1000
0000
,
0010
0000
0100
0000
,
0100
0000
0100
0000
,
0000
0000
1001
0000
,
1000
0000
0001
0000
,
0100
0010
0100
0001
,
0010
0000
0100
1000
,
0010
0000
0110
0000
,
0100
0000
0010
0000
,
0100
0001
1000
0010
,
0100
0001
2000
0000
,
3000
0001
0000
0100
,
0000
0001
0000
0100
,
0000
0010
0000
1000
,
0000
0010
0000
0000
,
0000
1000
0000
0100
,
0000
0010
0000
0001
,
0000
0020
0000
0000
,
0000
0000
0000
0030
,
0000
0010
0000
0010
,
0000
0001
0000
0001
,
0000
0100
0000
0100
,
0000
1000
0000
1000
,
0000
0010
0000
0001
,
0000
0100
0000
1000
,
0000
0020
0000
0000
,
0000
0000
0000
0030
,
0000
0001
0000
0000
,
0001
0000
0000
0001
,
0000
0000
0000
0000
,
0000
0000
0000
0100
,
0000
0100
0000
0000
,
0100
0000
0000
0100
,
0000
0000
0000
0000
,
0000
0000
0000
0010
,
0000
0010
0000
0000
,
0010
0000
0000
0010
,
0000
0000
0000
0000
,
0000
0000
0000
1000
,
0000
1000
0000
0000
,
1000
0000
0000
1001
;

//---------------dance-single - ----------------
#NOTES:
     dance-single:
     :
     Easy:
     11:
     0.466035,0.789396,0.213270,0.236967,0.000000,413.000000,386.000000,27.000000,30.000000,0.000000,0.000000,0.466035,0.789396,0.213270,0.236967,0.000000,413.000000,386.000000,27.000000,30.000000,0.000000,0.000000:
0000
0000
0000
0000
,
0000
0000
0000
1000
,
1000
0000
0000
1000
0000
0000
1000
0000
,
0000
0000
0000
0010
,
0010
0000
0000
0010
0000
0000
0010
0000
,
0000
0000
0000
0100
,
0100
0000
0000
0100
0000
0000
0100
0000
,
0000
0000
0000
0001
,
0001
0000
0000
0001
0000
0000
0002
0000
,
0000
0000
0000
1003
,
1000
0010
1000
0000
,
0001
0100
0001
0000
,
1000
0010
0100
0001
,
1000
1000
0000
0020
0000
0000
0000
0000
,
0130
0001
0100
0000
,
0010
1000
0010
0000
,
0100
0000
0001
0000
1000
0000
0010
0010
,
0000
0100
0220
0330
,
0010
0000
1000
0000
,
0010
0000
1000
0000
,
0001
0000
0100
0000
,
0001
0000
0100
0000
,
0001
0000
0010
0000
,
0001
0000
0010
0000
,
0100
0000
1000
0000
,
0100
0000
1000
0000
,
0100
0000
0010
0010
,
0000
0001
0000
0100
,
0020
0000
0000
0000
,
0000
0000
0000
0000
,
1030
0000
0001
0001
,
0000
1000
0000
0010
,
0200
0000
0000
0000
,
0001
0000
0301
0000
,
0001
0000
0010
0000
,
0001
0000
0010
0000
,
0100
0000
1000
0000
,
0100
0000
1000
0000
,
0010
0000
1000
0000
,
0010
0000
1000
0000
,
0001
0000
0100
0000
,
0001
0000
0100
0000
,
0001
0000
0010
0010
,
0000
0100
0000
1000
,
0002
0000
0000
0000
,
0000
0000
0000
0000
,
0103
0000
0100
0100
,
0000
0010
0000
1000
,
1000
0000
0001
0000
,
0010
0000
0100
0000
,
1000
0000
0000
1000
0000
0000
0001
0000
,
0000
0001
0000
0100
0100
0000
0000
0100
,
0000
0000
0010
0000
0000
0010
0000
0000
,
1000
1000
0100
0000
0000
0010
0000
0000
,
0100
0000
0000
0010
0000
0000
0001
0001
,
0000
0000
1000
0000
0000
0001
0000
0000
,
1000
0000
0000
0010
0010
0000
0100
0000
,
0000
0001
0000
0100
,
0000
0010
0000
1000
,
0000
0010
0000
0100
,
0010
0100
0000
0001
,
0000
0010
0000
0001
,
0000
1000
0000
0100
,
0000
1000
0000
0010
,
0100
0010
0000
1000
,
0000
0100
0000
0010
,
0001
0010
0000
0001
,
0000
0100
0000
0010
,
1000
0010
0000
1000
,
0100
1000
0100
0010
,
0001
0010
0002
0000
,
0103
0200
0000
0320
,
0000
2030
0000
3001
,
0100
0000
1000
0100
1000
0000
0100
0000
,
0001
0000
0010
0100
0110
0000
1000
0000
,
0100
0000
0001
0100
0001
0000
0100
0000
,
1000
0000
0010
0100
0110
0000
1000
0000
,
0001
0100
1000
0100
,
0001
0202
0303
0001
,
1000
0010
0001
0010
,
1000
2020
3030
1000
,
0100
0001
1000
0010
,
0001
0220
0330
1000
,
0100
0001
0010
0200
,
0310
0010
0010
0000
1000
0000
0000
0000
,
0100
0000
0010
0000
,
0001
0000
1000
0010
,
0100
0010
1000
0000
,
1001
0000
0001
0000
,
0010
0000
0100
0000
,
1000
0000
0001
0100
,
0010
0100
0001
0000
,
1001
0000
1000
0000
,
0010
0000
0100
0000
,
0001
0000
0010
0100
,
0001
1000
0100
0000
,
0110
0000
0010
0000
,
0001
0000
1000
0000
,
0100
0000
0020
0000
,
0000
0000
0000
0000
,
0130
0000
0110
0000
,
0010
0001
0010
0000
,
0100
0000
0010
0000
,
0100
1000
0100
0000
,
0100
0000
0010
0000
,
0001
0100
0001
0000
,
1000
0000
0001
0100
,
0001
0100
0010
0100
,
0010
0100
0002
0000
,
0023
0000
0230
0000
,
2300
0000
3020
0000
,
0230
0000
0302
0000
,
0000
0000
1003
0100
,
1000
0100
0010
0001
,
0010
0001
0100
0000
,
0010
0000
0220
0000
,
0330
0000
0000
0000
0110
0000
0000
0100
,
0000
0000
0101
0000
0000
0001
0000
0000
,
1001
0000
0100
0000
0110
0000
0000
0010
,
0000
0000
1010
0000
0000
1000
0000
0000
,
1001
0000
0100
0000
0110
0000
0000
0010
,
0000
0000
0011
0000
0000
1000
0000
0000
,
1100
0000
0010
0000
0110
0000
0000
0101
,
0000
0000
1010
0000
2000
0000
3001
0001
,
0001
0100
0000
0010
,
0000
1000
0000
0001
,
0000
0010
0100
1000
,
0000
0001
0010
0100
,
0000
1000
0000
0010
,
0000
0100
0000
0001
,
0000
2000
0000
0000
,
0000
0000
0000
0000
,
0000
3001
0010
0100
,
0000
1000
0010
0100
,
0000
0001
0100
0010
,
0000
1000
0100
0010
,
0000
0001
0100
0001
,
0100
0010
1000
1000
,
0001
0001
0010
0100
,
1000
0001
0010
0100
,
1000
0010
0000
0100
,
0010
0000
0100
0110
,
0000
0000
0000
0000
,
0000
0000
0000
0001
,
1000
0001
0000
1000
,
0001
0000
1000
1001
,
0000
0000
0000
0000
,
0000
0000
0000
0010
,
1000
0010
0000
1000
,
0010
0000
1000
1010
,
0000
0000
0000
0000
,
0000
0000
0000
0001
,
0010
0001
0000
0010
,
0001
0000
0010
0011
;

//---------------dance-double - ----------------
#NOTES:
     dance-double:
     :
     Easy:
     11:
     0.442338,0.789396,0.173776,0.268562,0.000000,392.000000,370.000000,22.000000,34.000000,0.000000,0.000000,0.442338,0.789396,0.173776,0.268562,0.000000,392.000000,370.000000,22.000000,34.000000,0.000000,0.000000:
00000000
00000000
00000000
00000000
,
00000000
00000000
00000000
01000000
,
01000000
00000000
00000000
01000000
00000000
00000000
01000000
00000000
,
00000000
00000000
00000000
00001000
,
00001000
00000000
00000000
00001000
00000000
00000000
00001000
00000000
,
00000000
00000000
00000000
00010000
,
00010000
00000000
00000000
00010000
00000000
00000000
00010000
00000000
,
00000000
00000000
00000000
00000100
,
00000100
00000000
00000000
00000100
00000000
00000000
00000200
00000000
,
00000000
00000000
00000000
00001300
,
00001000
00000001
00000100
00000000
,
00000100
00001000
00010000
00000000
,
00001000
00010000
00100000
10000000
,
01000000
01000000
00000000
00200000
00000000
00000000
00000000
00000000
,
00310000
10000000
01000000
00000000
,
01000000
00010000
00001000
00000000
,
00010000
00000000
00001000
00000000
00000010
00000000
00000100
00000100
,
00000000
00001000
00002002
00003003
,
00000001
00000000
00000100
00000000
,
00000001
00000000
00000100
00000000
,
00000010
00000000
00010000
00000000
,
00000010
00000000
00010000
00000000
,
00001000
00000000
00100000
00000000
,
00001000
00000000
00100000
00000000
,
01000000
00000000
10000000
00000000
,
01000000
00000000
10000000
00000000
,
00010000
00000000
01000000
00100000
,
00000000
01000000
00000000
00100000
,
02000000
00000000
00000000
00000000
,
00000000
00000000
00000000
00000000
,
03001000
00000000
00001000
00010000
,
00000000
00001000
00000000
00010000
,
00002000
00000000
00000000
00000000
,
00103000
00000000
00100000
00000000
,
01000000
00000000
10000000
00000000
,
01000000
00000000
10000000
00000000
,
00100000
00000000
00010000
00000000
,
00100000
00000000
00010000
00000000
,
00001000
00000000
00000010
00000000
,
00001000
00000000
00000010
00000000
,
00000001
00000000
00000100
00000000
,
00000001
00000000
00000100
00000000
,
00001000
00000000
00010000
00001000
,
00000000
00010000
00000000
00001000
,
00020000
00000000
00000000
00000000
,
00000000
00000000
00000000
00000000
,
00030010
00000000
00000010
00000100
,
00000000
00000010
00000000
00000100
,
00000010
00000000
00010000
00000000
,
00001000
00000000
00100000
00000000
,
00020000
00000000
00000000
00000000
,
00000000
00030000
00000000
01000000
00002000
00000000
00000000
00000000
,
00000000
00000000
00000000
00003000
,
00010000
00010000
00000020
00000000
00000000
00000000
00000000
00000000
,
00000000
00000000
00000000
00000000
00000030
00000000
00000100
00000002
,
00000000
00000000
00000000
00000000
,
00000000
00000003
00000000
00000010
00000010
00000000
00000001
00000000
,
00000000
00001000
00000000
00000010
,
00000000
00010000
00000000
00001000
,
00000000
00100000
00000000
00010000
,
00000000
10000000
00000000
00100000
,
00000000
01000000
00000000
00010000
,
00000000
00100000
00000000
00001000
,
00000000
00010000
00000000
00000100
,
00000000
00001000
00000000
00000001
,
00000000
00000010
00000000
00001000
,
00000000
00010000
00000000
01000000
,
00000000
10000000
00000000
00100000
,
00000000
00010000
00000000
00001000
,
00010000
00001000
00010000
00001000
,
00010000
00001000
00020000
00000000
,
00030100
00000200
00000000
00000320
,
00000000
00000032
00000000
00001003
,
00000001
00000000
00000100
00001000
00010000
00000000
00100000
00000000
,
10000000
00000000
01000000
00010000
01100000
00000000
00010000
00000000
,
10000000
00000000
01000000
00010000
00001000
00000000
00000010
00000000
,
00000001
00000000
00000100
00001000
00000110
00000000
00000001
00000000
,
00001000
00000010
00010000
00001000
,
00100000
02200000
03300000
10000000
,
00010000
01000000
00001000
00010000
,
00000100
00000220
00000330
00000001
,
00000100
00001000
00010000
00100000
,
10000000
20020000
30030000
00010000
,
00100000
01000000
00010000
00002000
,
00013000
00010000
00010000
00000000
00000100
00000000
00000000
00000000
,
00001000
00000000
00000010
00000000
,
00000100
00000000
00000001
00001000
,
00000001
00001000
00000001
00000000
,
00001001
00000000
00001000
00000000
,
00000010
00000000
00010000
00000000
,
00001000
00000000
00100000
00010000
,
00100000
00010000
00100000
00000000
,
00110000
00000000
00010000
00000000
,
01000000
00000000
00100000
00000000
,
10000000
00000000
01000000
00100000
,
01000000
00100000
01000000
00000000
,
01100000
00000000
00100000
00000000
,
00001000
00000000
00010000
00000000
,
00000100
00000000
00000020
00000000
,
00000000
00000000
00000000
00000000
,
00000031
00000000
00001001
00000000
,
00001000
00000100
00001000
00000000
,
00000010
00000000
00010000
00000000
,
00001000
00100000
00001000
00000000
,
00010000
00000000
00100000
00000000
,
10000000
01000000
10000000
00000000
,
00100000
00000000
00010000
00001000
,
00010000
00001000
00000100
00000001
,
00000100
00000001
00000020
00000000
,
00002030
00000000
00023000
00000000
,
02030000
00000000
23000000
00000000
,
30200000
00000000
00320000
00000000
,
00000000
00000000
00031000
00100000
,
00001000
00100000
00010000
01000000
,
00010000
01000000
00001000
00000000
,
00010000
00000000
00022000
00000000
,
00033000
00000000
00000000
00000000
00011000
00000000
00000000
00001000
,
00000000
00000000
00000100
00000000
00000000
00000001
00000000
00000000
,
00000011
00000000
00000100
00000000
00001100
00000000
00000000
00001000
,
00000000
00000000
00000010
00000000
00000000
00010000
00000000
00000000
,
00011000
00000000
00100000
00000000
00110000
00000000
00000000
00010000
,
00000000
00000000
01000000
00000000
00000000
00100000
00000000
00000000
,
10100000
00000000
01000000
00000000
01010000
00000000
00000000
00010000
,
00000000
00000000
00100000
00000000
00002000
00000000
00013000
00010000
,
00010000
00000100
00000000
00000010
,
00000000
00000001
00000000
00001000
,
00000000
00000100
00010000
00001000
,
00000000
01000000
00001000
00010000
,
00000000
00100000
00000000
10000000
,
00000000
01000000
00000000
00100000
,
00000000
00020000
00000000
00000000
,
00000000
00000000
00000000
00000000
,
00000000
00130000
01000000
00010000
,
00000000
00010000
00001000
00000010
,
00000000
00000100
00000010
00000001
,
00000000
00000001
00000100
00001000
,
00000000
00010000
00001000
00010000
,
00001000
00100000
00010000
00100000
,
01000000
10000000
00100000
00010000
,
00001000
00000100
00000001
00000010
,
00000100
00001000
00000000
00000100
,
00010000
00000000
00001000
00011000
,
00000000
00000000
00000000
00000000
,
00000000
00000000
00000000
00100000
,
00100000
00010000
00000000
00100000
,
00001000
00000000
00010000
00011000
,
00000000
00000000
00000000
00000000
,
00000000
00000000
00000000
00000010
,
00000010
00010000
00000000
00001000
,
01000000
00000000
00001000
00011000
,
00000000
00000000
00000000
00000000
,
00000000
00000000
00000000
01000000
,
01000000
00001000
00000000
00010000
,
00000010
00000000
00010000
00011000
;

//---------------dance-single - ----------------
#NOTES:
     dance-single:
     :
     Medium:
     14:
     0.696231,1.275178,0.394945,0.252765,0.094787,617.000000,567.000000,50.000000,32.000000,0.000000,0.000000,0.696231,1.275178,0.394945,0.252765,0.094787,617.000000,567.000000,50.000000,32.000000,0.000000,0.000000:
0000
0000
0000
0000
,
0000
0000
0000
0000
0000
0000
0010
1000
,
0010
0000
0100
0010
0000
1000
1001
0000
,
0000
0000
0000
0000
0000
0000
0100
0001
,
0100
0000
0010
0100
0000
0001
1001
0000
,
0000
0000
0000
0000
0000
0000
0010
0001
,
0010
0000
0100
0010
0000
0001
1001
0000
,
0000
0000
0000
0000
0000
0000
0100
1000
,
0100
0000
0010
0100
0000
1000
1002
0000
,
0000
0103
0010
1000
0001
0100
0110
0000
,
1001
0000
0001
0010
0100
0010
0000
0010
,
0001
0100
0010
0000
0100
0001
0010
0000
,
0001
0100
0010
1000
0010
0100
0001
0010
,
0100
0100
0000
2200
0000
0000
3300
0000
,
1001
0000
1000
0010
0100
0010
0000
0010
,
1000
0100
0010
0000
0100
1000
0010
0000
,
1000
0100
0010
0001
0010
0100
1000
1000
,
0000
0010
0100
0001
2001
0000
3020
0000
,
0130
0000
0001
0000
,
0010
0001
0100
0000
,
0010
0000
1000
0000
,
0100
1000
0010
0000
,
0100
0000
0001
0000
,
0010
0100
1000
0000
,
0010
0000
1000
0000
,
0100
0010
0001
0000
,
0100
0000
0020
1000
,
0000
1000
0000
1030
,
0100
0010
0002
0100
,
0000
0100
0000
0103
,
0010
0000
0010
2000
,
0000
0100
0000
3100
,
0010
0001
1000
0100
,
0010
0000
0000
0010
0000
0000
0010
0000
,
0110
0000
0100
0000
,
1000
0010
0100
0000
,
0110
0000
0010
0000
,
0100
0001
0010
0000
,
0110
0000
0100
0000
,
1000
0001
0100
0000
,
0110
0000
0010
0000
,
1000
0000
0000
0001
0000
0000
1000
0000
,
0010
0000
0020
0100
,
0000
0100
0000
0130
,
0001
0010
0100
1000
,
0100
0010
0001
0100
,
0010
0000
0010
2000
,
0000
0001
0000
3001
,
0100
0010
1000
0100
,
0010
0001
0100
0010
,
0110
1000
0100
0010
,
0001
0000
0100
0100
0110
0000
0001
0000
,
0010
0100
1000
0010
,
0100
0100
1001
0000
0010
0000
1000
0000
,
0100
0000
0010
0000
0001
0000
1000
1001
,
0000
0100
0000
0001
0000
0010
0000
0100
,
0000
1000
0000
0010
0010
0000
0100
0000
,
0000
0001
0000
0000
0100
0000
0010
0000
,
0000
1000
0000
0000
0010
0000
1000
0000
,
0000
0001
0000
0000
1000
0000
0020
0000
,
0000
0230
0000
0301
,
0000
0010
0000
0000
0001
0000
1000
0000
,
0000
0100
0000
0000
1000
0000
0010
0000
,
0000
0100
0000
0000
0010
0000
2000
0000
,
0000
3002
0000
0103
,
0000
0010
0000
0000
1000
0000
0001
0000
,
0000
0010
0000
0000
0100
0000
1000
0000
,
0000
0010
0000
0000
0100
0000
0102
0000
,
0000
2003
0000
3010
,
0010
0100
0001
1000
,
0100
0010
0002
0000
,
1003
0000
0001
0000
1000
0000
0010
0100
,
0010
0000
0000
0000
0200
0000
0000
0000
0000
0000
0000
0000
0301
0000
0001
0010
,
0001
0000
0100
0000
0010
0000
1000
0100
1000
0000
0000
0000
0100
0000
0010
0100
,
0010
0000
0001
0000
0100
0000
0010
1000
0010
0000
0000
0000
1000
0000
0100
0010
,
0001
0000
0100
0000
0010
0000
1000
0001
0010
0000
0000
0000
0100
0000
1000
0010
,
0100
0000
0001
0000
1000
0000
0010
1000
0100
0000
0010
0000
0110
0000
0000
0000
,
0100
0000
1000
0000
0001
0000
0000
0010
0000
0000
0001
0000
0100
0000
0000
1000
,
0000
0100
0002
0000
0000
0010
0013
0000
,
0010
0000
0001
0000
1000
0000
0000
0100
0000
0000
1000
0000
0010
0000
0000
0001
,
0000
0010
2000
0000
0000
0100
3100
0000
,
0100
0000
0010
0000
0001
0000
0000
1000
0000
0000
0001
0000
0010
0000
0000
0100
,
0000
0010
2000
0000
0000
3010
0001
0100
,
0010
1000
0100
0010
0001
1000
0020
0000
,
0130
0110
1001
0000
0002
0000
0000
0000
,
0103
0000
0010
0000
1000
0000
0000
0100
,
0000
0000
0001
0000
0100
0000
0000
1000
,
0000
0000
0010
0000
0001
0000
0000
0010
,
0000
1000
0200
0000
,
0310
0000
0001
0000
0100
0000
0000
1000
,
0000
0000
0100
0000
0001
0000
0000
0010
,
0000
0000
1000
0000
0010
0000
0000
0001
,
0000
0100
0020
0000
,
1030
0000
0100
0000
0001
0000
0000
1000
,
0000
0000
0010
0000
0001
0000
0000
0100
,
0000
0000
1000
0000
0001
0000
0000
0010
,
0000
0000
1000
0000
1100
0000
0000
0100
,
0000
0000
0110
0000
0011
0000
0000
0010
,
0000
0000
0110
0000
1001
0000
0000
1010
,
0000
0101
0200
0000
,
0020
0330
0010
1000
,
0010
0000
0100
0000
0001
0000
0000
0011
,
0000
0000
0010
0000
0100
0000
0000
1100
,
0000
0000
1000
0000
0010
0000
0000
0110
,
0000
0100
0001
1000
,
0100
0000
0010
0000
0001
0000
0000
0101
,
0000
0000
0100
0000
0010
0000
0000
1010
,
0000
0000
1000
0000
0001
0000
0000
1001
,
0000
0000
0000
1000
0000
0000
0010
0000
0000
0000
0010
0000
,
0100
0000
0000
0000
0100
0000
0001
0000
0000
0000
0001
0000
,
0010
0000
0000
0000
0010
0000
0100
0000
0000
0000
0100
0000
,
1000
0000
0000
0000
1000
0000
0020
0000
0000
0000
0000
0000
,
0000
0000
0130
0001
,
0100
0010
1000
0010
,
0100
0000
0001
0000
0011
0000
0000
0110
,
0000
1100
2000
0000
,
0002
0000
3003
0000
1001
0000
0001
0100
,
0000
1000
0100
0000
0001
0010
0000
1000
,
0010
0000
0001
0000
0201
0000
0000
0010
,
0000
0000
1000
0000
0000
0010
0000
0000
,
0301
0000
0110
0000
1001
0000
1000
0010
,
0000
0001
0010
0000
1000
0100
0000
0001
,
0100
0000
1000
0000
1020
0000
0000
0001
,
0000
0000
0130
0000
1001
0000
0110
0110
,
1001
1000
0010
0100
,
0010
1000
0100
0010
,
0100
1000
0001
0100
,
0010
0100
0001
0010
,
0100
0010
0001
0100
,
1000
0100
0001
0010
,
0100
0000
0000
1000
0000
0000
0000
1000
0000
0010
0000
0000
,
0000
0010
0000
0100
0000
0000
0000
0100
0000
0001
0000
0000
,
0000
0001
0000
1000
0000
0000
1000
0000
0000
0100
0000
0000
,
0100
0010
0010
0001
,
0001
0100
0100
0010
,
0010
1000
1000
0001
,
0001
0000
0010
0001
0010
0000
0001
0000
,
0100
0000
0010
1000
0010
0000
1000
0000
,
0100
0000
0010
0001
0010
0000
0001
0100
,
0001
0000
1000
0010
1000
0000
0100
1000
,
0100
0010
0010
1000
,
0010
0010
0001
1001
,
0000
0000
0000
0000
,
0000
0000
0000
0100
,
0010
0100
0100
0001
,
0100
0100
1000
1001
,
0000
0000
0000
0000
,
0000
0000
0000
0001
,
0010
1000
1000
0100
,
0001
0001
0010
0110
,
0000
0000
0000
0000
,
0000
0000
0000
1000
,
0100
0001
0001
0010
,
1000
1000
0100
0110
;

//---------------dance-double - ----------------
#NOTES:
     dance-double:
     :
     Medium:
     14:
     0.683819,1.275178,0.331754,0.260664,0.094787,606.000000,564.000000,42.000000,33.000000,0.000000,0.000000,0.683819,1.275178,0.331754,0.260664,0.094787,606.000000,564.000000,42.000000,33.000000,0.000000,0.000000:
// measure 0
00000000
00000000
00000000
00000000
,  // measure 1
00000000
00000000
00000000
00000000
00000000
00000000
00001000
01000000
,  // measure 2
00001000
00000000
00010000
00000010
00000000
00010000
00011000
00000000
,  // measure 3
00000000
00000000
00000000
00000000
00000000
00000000
00010000
00000100
,  // measure 4
00010000
00000000
00001000
00100000
00000000
00001000
00011000
00000000
,  // measure 5
00000000
00000000
00000000
00000000
00000000
00000000
00001000
00100000
,  // measure 6
00001000
00000000
00010000
00000100
00000000
00010000
00011000
00000000
,  // measure 7
00000000
00000000
00000000
00000000
00000000
00000000
00010000
00000010
,  // measure 8
00010000
00000000
00001000
01000000
00000000
00001000
00021000
00000000
,  // measure 9
00000000
00030100
00001000
00000100
00000010
00000001
00000200
00000000
,  // measure 10
00000310
00000000
00000010
00001000
00000100
00000010
00000000
00000010
,  // measure 11
00001000
00010000
01000000
00000000
10000000
00100000
01000000
00000000
,  // measure 12
00100000
10000000
01000000
00100000
00010000
01000000
00100000
00010000
,  // measure 13
00001000
00001000
00000000
00022000
00000000
00000000
00033000
00000000
,  // measure 14
00011000
00000000
00010000
00001000
00100000
01000000
00000000
01000000
,  // measure 15
00010000
00001000
00000100
00000000
00000001
00000010
00000100
00000000
,  // measure 16
00000010
00000001
00000100
00000010
00001000
00000100
00010000
00010000
,  // measure 17
00000000
00001000
00010000
00100000
02000000
00000000
03002000
00000000
,  // measure 18
00013000
00000000
00010000
00000000
,  // measure 19
00000100
00001000
00000100
00000000
,  // measure 20
00010000
00000000
00001000
00000000
,  // measure 21
01000000
00010000
01000000
00000000
,  // measure 22
00001000
00000000
00010000
00000000
,  // measure 23
00000010
00001000
00000010
00000000
,  // measure 24
00010000
00000000
00001000
00000000
,  // measure 25
00100000
00010000
00100000
00000000
,  // measure 26
00001000
00000000
00020000
00000100
,  // measure 27
00000000
00000100
00000000
00030100
,  // measure 28
00000010
00000001
00000200
00000010
,  // measure 29
00000000
00000010
00000000
00000310
,  // measure 30
00001000
00000000
00000100
00020000
,  // measure 31
00000000
00001000
00000000
00031000
,  // measure 32
00100000
00010000
01000000
00100000
,  // measure 33
10000000
00000000
00000000
00010000
00000000
00000000
10000000
00000000
,  // measure 34
10010000
00000000
00010000
00000000
,  // measure 35
01000000
00001000
00010000
00000000
,  // measure 36
00011000
00000000
00001000
00000000
,  // measure 37
00010000
00000100
00001000
00000000
,  // measure 38
00001001
00000000
00000001
00000000
,  // measure 39
00000100
00000010
00010000
00000000
,  // measure 40
00011000
00000000
00001000
00000000
,  // measure 41
01000000
00000000
00000000
00100000
00000000
00000000
01000000
00000000
,  // measure 42
00010000
00000000
20000000
00100000
,  // measure 43
00000000
00100000
00000000
30100000
,  // measure 44
01000000
00010000
00100000
00001000
,  // measure 45
00010000
00000100
00001000
00000010
,  // measure 46
00000100
00000000
00000100
00000002
,  // measure 47
00000000
00001000
00000000
00001003
,  // measure 48
00000100
00000010
00000001
00000100
,  // measure 49
00000010
00010000
00001000
00010000
,  // measure 50
00011000
00001000
00010000
00100000
,  // measure 51
10000000
00000000
01000000
01000000
10000000
00000000
00100000
00000000
,  // measure 52
00010000
00001000
00000100
00000001
,  // measure 53
00000010
00000010
00000001
00000000
00000100
00000000
00001000
00000000
,  // measure 54
00010000
00000000
00100000
00000000
10000000
00000000
10010000
01000000
,  // measure 55
00000000
00010000
00000000
00001000
00000000
00000010
00000000
00000001
,  // measure 56
00000000
00000100
00000000
00001000
00011000
00000000
00010000
00000000
,  // measure 57
00000000
00000100
00000000
00000000
00010000
00000000
00001000
00000000
,  // measure 58
00000000
00100000
00000000
00000000
00001000
00000000
00010000
00000000
,  // measure 59
00000000
00000010
00000000
00000000
00010000
00000000
00002000
00000000
,  // measure 60
00000000
00023000
00000000
00031000
,  // measure 61
00000000
00100000
00000000
00000000
00001000
00000000
00010000
00000000
,  // measure 62
00000000
00000010
00000000
00000000
00010000
00000000
00001000
00000000
,  // measure 63
00000000
01000000
00000000
00000000
00001000
00000000
00020000
00000000
,  // measure 64
00000000
00032000
00000000
00013000
,  // measure 65
00000000
00000100
00000000
00000000
00001000
00000000
00000010
00000000
,  // measure 66
00000000
00010000
00000000
00000000
00001000
00000000
00100000
00000000
,  // measure 67
00000000
00010000
00000000
00000000
01000000
00000000
01002000
00000000
,  // measure 68
00000000
00023000
00000000
00030100
,  // measure 69
00000100
00000010
00000001
00001000
,  // measure 70
00000100
00000010
00000002
00000000
,  // measure 71
00000103
00001000
00010000
00100000
,  // measure 72
00100000
00000000
00000000
00000000
20000000
00000000
00000000
00000000
00000000
00000000
00000000
00000000
30010000
00000000
00010000
00100000
,  // measure 73
00010000
00000000
01000000
00000000
00100000
00000000
10000000
01000000
10000000
00000000
00000000
00000000
01000000
00000000
00010000
00001000
,  // measure 74
00010000
00000000
00001000
00000000
00000100
00000000
00000001
00001000
00000001
00000000
00000000
00000000
00000010
00000000
00000100
00000010
,  // measure 75
00000100
00000000
00010000
00000000
00001000
00000000
00100000
01000000
00100000
00000000
00000000
00000000
01000000
00000000
10000000
00100000
,  // measure 76
10000000
00000000
00100000
00000000
00010000
00000000
00001000
00000010
00001000
00000000
00010000
00000000
00011000
00000000
00000000
00000000
,  // measure 77
00001000
00000000
00100000
00000000
00010000
00000000
00000000
01000000
00000000
00000000
00100000
00000000
10000000
00000000
00000000
01000000
,  // measure 78
00000000
00100000
00002000
00000000
00000000
00010000
00013000
00000000
,  // measure 79
00010000
00000000
00000010
00000000
00001000
00000000
00000000
00000100
00000000
00000000
00000010
00000000
00000001
00000000
00000000
00000100
,  // measure 80
00000000
00000010
00020000
00000000
00000000
00001000
00031000
00000000
,  // measure 81
00001000
00000000
00010000
00000000
01000000
00000000
00000000
10000000
00000000
00000000
00100000
00000000
00010000
00000000
00000000
00001000
,  // measure 82
00000000
00000100
00000002
00000000
00000000
00001003
00000100
00000010
,  // measure 83
00001000
00010000
01000000
00100000
00010000
01000000
00002000
00000000
,  // measure 84
00013000
00001000
00011000
00000000
00020000
00000000
00000000
00000000
,  // measure 85
00030100
00000000
00001000
00000000
00000001
00000000
00000000
00000100
,  // measure 86
00000000
00000000
00001000
00000000
00010000
00000000
00000000
00100000
,  // measure 87
00000000
00000000
10000000
00000000
01000000
00000000
00000000
00010000
,  // measure 88
00000000
00001000
00200000
00000000
,  // measure 89
00310000
00000000
01000000
00000000
00001000
00000000
00000000
00010000
,  // measure 90
00000000
00000000
00000100
00000000
00001000
00000000
00000000
00000010
,  // measure 91
00000000
00000000
00010000
00000000
00001000
00000000
00000000
00100000
,  // measure 92
00000000
00010000
20000000
00000000
,  // measure 93
31000000
00000000
00010000
00000000
00001000
00000000
00000000
00000010
,  // measure 94
00000000
00000000
00000001
00000000
00000100
00000000
00000000
00001000
,  // measure 95
00000000
00000000
00010000
00000000
00100000
00000000
00000000
10000000
,  // measure 96
00000000
00000000
01000000
00000000
01100000
00000000
00000000
00100000
,  // measure 97
00000000
00000000
00101000
00000000
00001000
00000000
00000000
00011000
,  // measure 98
00000000
00000000
00010000
00000000
00010010
00000000
00000000
00001010
,  // measure 99
00000000
00001100
00000200
00000000
,  // measure 100
00000020
00000330
00000010
00000001
,  // measure 101
00000100
00000000
00000010
00000000
00001000
00000000
00000000
00001100
,  // measure 102
00000000
00000000
00000100
00000000
00010000
00000000
00000000
00011000
,  // measure 103
00000000
00000000
00001000
00000000
01000000
00000000
00000000
01100000
,  // measure 104
00000000
00100000
10000000
01000000
,  // measure 105
00100000
00000000
00010000
00000000
01000000
00000000
00000000
01001000
,  // measure 106
00000000
00000000
00001000
00000000
00010000
00000000
00000000
00010100
,  // measure 107
00000000
00000000
00000100
00000000
00001000
00000000
00000000
00001010
,  // measure 108
00000000
00000000
00000000
00000010
00000000
00000000
00000100
00000000
00000000
00000000
00000100
00000000
,  // measure 109
00000001
00000000
00000000
00000000
00000001
00000000
00001000
00000000
00000000
00000000
00001000
00000000
,  // measure 110
00000010
00000000
00000000
00000000
00000010
00000000
00010000
00000000
00000000
00000000
00010000
00000000
,  // measure 111
00001000
00000000
00000000
00000000
00001000
00000000
00200000
00000000
00000000
00000000
00000000
00000000
,  // measure 112
00000000
00000000
01300000
10000000
,  // measure 113
01000000
00100000
00010000
01000000
,  // measure 114
00001000
00000000
00010000
00000000
00010010
00000000
00000000
00011000
,  // measure 115
00000000
01001000
00002000
00000000
,  // measure 116
00020000
00000000
00033000
00000000
00011000
00000000
00010000
00000100
,  // measure 117
00000000
00001000
00000100
00000000
00000010
00000100
00000000
00001000
,  // measure 118
00000100
00000000
00010000
00000000
00012000
00000000
00000000
00100000
,  // measure 119
00000000
00000000
00000010
00000000
00000000
00100000
00000000
00000000
,  // measure 120
00013000
00000000
00010010
00000000
00101000
00000000
00001000
01000000
,  // measure 121
00000000
00010000
01000000
00000000
00100000
01000000
00000000
00010000
,  // measure 122
01000000
00000000
00001000
00000000
00021000
00000000
00000000
01000000
,  // measure 123
00000000
00000000
00030100
00000000
00011000
00000000
00001000
00010000
,  // measure 124
00011000
00001000
00100000
00010000
,  // measure 125
01000000
00100000
10000000
00010000
,  // measure 126
01000000
00001000
00010000
00000010
,  // measure 127
00001000
00000100
00000010
00000001
,  // measure 128
00000100
00001000
00010000
00100000
,  // measure 129
10000000
01000000
00010000
00001000
,  // measure 130
00000010
00000000
00000000
00000100
00000000
00000000
00000000
00000100
00000000
00010000
00000000
00000000
,  // measure 131
00000000
00010000
00000000
00001000
00000000
00000000
00000000
00001000
00000000
00100000
00000000
00000000
,  // measure 132
00000000
00100000
00000000
01000000
00000000
00000000
10000000
00000000
00000000
00100000
00000000
00000000
,  // measure 133
00010000
00001000
00000100
00000001
,  // measure 134
00000010
00001000
00000010
00000001
,  // measure 135
00000100
00001000
00010000
00100000
,  // measure 136
10000000
00000000
01000000
00100000
01000000
00000000
00010000
00000000
,  // measure 137
00001000
00000000
00000010
00000100
00000010
00000000
00000001
00000000
,  // measure 138
00000100
00000000
00001000
00010000
00001000
00000000
00100000
00000000
,  // measure 139
01000000
00000000
00010000
00001000
00010000
00000000
00000100
00000000
,  // measure 140
00000010
00000001
00000100
00000100
,  // measure 141
00001000
00010000
00010000
00011000
,  // measure 142
00000000
00000000
00000000
00000000
,  // measure 143
00000000
00000000
00000000
00100000
,  // measure 144
01000000
10000000
00100000
00100000
,  // measure 145
00010000
00001000
00001000
00011000
,  // measure 146
00000000
00000000
00000000
00000000
,  // measure 147
00000000
00000000
00000000
00000010
,  // measure 148
00000001
00000100
00000100
00001000
,  // measure 149
00010000
00010000
00100000
10100000
,  // measure 150
00000000
00000000
00000000
00000000
,  // measure 151
00000000
00000000
00000000
01000000
,  // measure 152
10000000
00100000
00100000
00010000
,  // measure 153
00001000
00001000
00000100
00000101
;
