#TITLE:Over The Christmas;
#SUBTITLE:;
#ARTIST:LUCY;
#TITLETRANSLIT:;
#SUBTITLETRANSLIT:;
#ARTISTTRANSLIT:;
#GENRE:;
#CREDIT:MUINELIM;
#BANNER:Over The Christmas.png;
#BACKGROUND:Over The Christmas-bg.png;
#LYRICSPATH:;
#CDTITLE:;
#MUSIC:Over The Christmas.ogg;
#OFFSET:-0.667000;
#SAMPLESTART:82.675003;
#SAMPLELENGTH:13.333336;
#SELECTABLE:YES;
#DISPLAYBPM:90.000000;
#BPMS:0.000000=90.000000
;
#STOPS:
;
#BGCHANGES:0.000=Over The Christmas.avi=1.000=1=0=0=StretchNoLoop==CrossFade==,
99999=-nosongbg-=1.000=0=0=0 // don't automatically add -songbackground-
;
#KEYSOUNDS:;
#ATTACKS:;

//---------------dance-single - ----------------
#NOTES:
     dance-single:
     :
     Beginner:
     1:
     0.070799,0.105583,0.014365,0.007183,0.000000,69.000000,67.000000,2.000000,1.000000,0.000000,0.000000,0.070799,0.105583,0.014365,0.007183,0.000000,69.000000,67.000000,2.000000,1.000000,0.000000,0.000000:
0000
0000
0000
0000
,
0000
0000
0000
0000
,
0000
0000
0000
0000
,
0001
0000
0000
0000
,
0001
0000
0000
0000
,
0001
0000
0000
0000
,
0001
0000
0000
0000
,
1000
0000
0000
0000
,
1000
0000
0000
0000
,
1000
0000
0000
0000
,
1000
0000
0000
0000
,
0001
0000
0000
0000
,
1000
0000
0000
0000
,
0001
0000
0000
0000
,
1000
0000
0000
0000
,
0001
0000
0000
0000
,
1000
0000
0000
0000
,
0001
0000
0000
0000
,
1001
0000
0000
0000
,
1000
0000
1000
0000
,
1000
0000
0000
0000
,
0001
0000
0001
0000
,
0001
0000
0000
0000
,
0100
0000
0100
0000
,
0010
0000
0010
0000
,
0100
0000
0000
0000
,
0001
0000
0000
0000
,
1000
0000
0000
0000
,
0010
0000
0000
0000
,
0100
0000
0200
0000
,
0300
0000
0000
0000
,
0001
0000
0010
0000
,
0100
0000
1000
0000
,
0100
0000
0010
0000
,
0001
0000
0000
0000
,
1000
0000
0010
0000
,
0100
0000
0001
0000
,
0100
0000
0010
0000
,
1000
0000
0000
0000
,
0001
0000
1000
0000
,
0010
0000
0010
0000
,
0100
0000
0001
0000
,
0100
0000
0001
0000
,
1000
0000
0010
0000
,
1000
0000
0010
0000
,
0100
0000
0001
0000
,
0010
0000
0100
0000
,
1000
0000
0010
0000
,
0100
0000
0001
0000
,
1001
0000
0000
0000
;

//---------------dance-single - ----------------
#NOTES:
     dance-single:
     :
     Easy:
     4:
     0.137494,0.183154,0.035913,0.100555,0.000000,134.000000,129.000000,5.000000,14.000000,0.000000,0.000000,0.137494,0.183154,0.035913,0.100555,0.000000,134.000000,129.000000,5.000000,14.000000,0.000000,0.000000:
0000
0000
0000
0000
,
0000
0000
0000
0000
,
0000
0000
0000
0000
,
1000
0000
1000
0000
,
0001
0000
0001
0000
,
1000
0000
0001
0000
,
1000
0000
0001
0000
,
0100
0000
0100
0000
,
0010
0000
0010
0000
,
0100
0000
0010
0000
,
0200
0000
0000
0300
,
0100
0000
0001
0100
,
0001
0100
0010
1000
,
0010
0000
0000
1000
,
2000
3000
0002
0003
,
1000
0000
0100
1000
,
0100
1000
0001
0010
,
0001
0000
0000
0100
,
0020
0000
0000
0030
,
0010
0000
1000
0000
,
0001
0100
0010
1000
,
0001
0000
1000
0100
,
0010
0001
1000
0100
,
0100
0000
1000
0010
,
0200
0300
0002
0003
,
2000
0000
0000
3000
,
0010
0000
0100
0000
,
0001
0000
1000
0000
,
0010
0100
0001
1000
,
0100
0010
0200
0000
,
0300
0000
0000
0000
,
1001
0000
1001
0000
,
1000
0001
0100
0010
,
2000
3000
0001
1000
,
0001
0000
0100
0100
,
1001
0000
1001
0000
,
0001
0010
0100
1000
,
0010
0200
0300
0010
,
0010
0000
1000
0001
,
1000
0000
0010
0100
,
0001
1000
0001
1001
,
1000
0010
0100
0000
,
0001
0100
0010
0000
,
1000
0010
0100
0001
,
0100
0010
1000
0000
,
0001
0010
0100
1000
,
0100
0010
0001
0000
,
1000
0010
0100
0001
,
0010
0100
1000
0010
,
0200
0300
0002
0003
,
2000
3000
0020
0000
,
0030
0000
0000
0000
;

//---------------dance-double - ----------------
#NOTES:
     dance-double:
     :
     Easy:
     4:
     0.129285,0.183154,0.035913,0.107738,0.000000,126.000000,121.000000,5.000000,15.000000,0.000000,0.000000,0.129285,0.183154,0.035913,0.107738,0.000000,126.000000,121.000000,5.000000,15.000000,0.000000,0.000000:
00000000
00000000
00000000
00000000
,
00000000
00000000
00000000
00000000
,
00000000
00000000
00000000
00000000
,
00001000
00000000
00001000
00000000
,
00010000
00000000
00010000
00000000
,
00001000
00000000
00010000
00000000
,
00001000
00000000
00010000
00000000
,
00000010
00000000
00000100
00000000
,
00001000
00000000
00010000
00000000
,
00100000
00000000
01000000
00000000
,
00200000
00000000
00000000
00300000
,
00100000
00000000
10000000
00010000
,
10000000
00010000
01000000
00100000
,
01000000
00000000
00000000
00001000
,
00002000
00003000
00020000
00030000
,
00010000
00000000
00000010
00000100
,
00000010
00000100
00000001
00001000
,
00000001
00000000
00000000
00000100
,
00000020
00000000
00000000
00000030
,
00000010
00000000
00001000
00000000
,
00000100
00010000
00001000
00100000
,
00010000
00000000
01000000
00001000
,
00010000
00000010
00001000
00000100
,
00000100
00000000
00000010
00000001
,
00000200
00000300
00002000
00003000
,
00020000
00000000
00000000
00030000
,
00100000
00000000
10000000
00000000
,
01000000
00000000
00010000
00000000
,
00002000
00000000
00000000
00000000
,
00020000
00000000
00000000
00000000
,
00033000
00000000
00000000
00000000
,
00011000
00000000
00011000
00000000
,
00001000
00010000
00000100
00001000
,
00000002
00000003
00001000
00000100
,
00010000
00000000
00001000
00010000
,
00011000
00000000
00011000
00000000
,
00010000
00001000
00100000
00010000
,
10000000
02000000
03000000
10000000
,
10000000
00000000
00100000
00010000
,
00001000
00000000
00010000
00001000
,
00000010
00000001
00001000
00001001
,
00000001
00000100
00001000
00000000
,
00000100
00001000
00010000
00000000
,
00001000
00010000
00100000
00000000
,
00010000
00100000
10000000
00000000
,
10000000
01000000
00010000
00000000
,
01000000
00010000
00001000
00000000
,
00010000
00001000
00000010
00000000
,
00001000
00000010
00000001
00001000
,
00000200
00000300
00020000
00030000
,
00002000
00003000
02000000
00000000
,
03000000
00000000
00000000
00000000
;

//---------------dance-single - ----------------
#NOTES:
     dance-single:
     :
     Medium:
     7:
     0.231893,0.274058,0.050278,0.280118,0.000000,226.000000,219.000000,7.000000,39.000000,0.000000,0.000000,0.231893,0.274058,0.050278,0.280118,0.000000,226.000000,219.000000,7.000000,39.000000,0.000000,0.000000:
0000
0000
0000
0000
,
0000
0000
0000
0000
,
0000
0000
0000
0000
,
1000
0001
0100
0001
,
1000
0001
0100
0001
,
1000
0010
1000
0001
,
1000
0000
0010
0000
1000
0000
0001
1000
,
0001
0100
0010
1000
,
0001
0010
0100
1000
,
0001
0100
0010
1000
,
0001
0010
0001
0010
0100
1000
0100
0000
,
2002
3003
1000
0010
,
0200
0301
0002
1003
,
2000
0000
0000
0000
3000
0010
0100
0010
,
0100
0000
0000
0100
0002
0000
0003
0000
,
2000
0000
3000
0001
0100
0010
0100
0001
,
0100
0010
1000
0100
,
0020
0000
0000
0000
0030
0000
0001
1000
,
0002
0203
0320
2030
,
3002
0000
0003
0010
0010
0000
0000
0010
,
0001
0100
0001
0100
0010
1000
0000
1000
,
0002
0000
0003
0000
1000
0100
1000
0100
,
0010
0000
0010
0001
0000
0000
0001
0100
,
0020
0000
0030
1000
1000
0010
0100
0001
,
0020
0230
2300
3002
,
0103
0000
0100
0010
0000
0010
0100
0000
,
0001
0010
0200
1300
,
1000
0000
0010
0000
0100
0001
0100
0000
,
0001
0000
0010
0000
0100
0000
1000
0001
,
2000
3020
0230
0000
,
0001
0000
0000
0000
0300
0000
0001
0010
,
0001
0000
1000
0100
1000
0000
0010
0100
,
0020
0000
2030
0000
3002
0000
0103
0010
,
0100
0000
0000
0001
0010
0100
0010
0100
,
1000
0000
1010
0000
0010
0100
0001
0100
,
0010
0000
1000
0100
0010
0000
0100
0010
,
0002
0000
2003
0000
3020
0000
0130
0001
,
1000
0000
1000
0020
0030
0000
0010
0100
,
0001
0000
0011
0000
1100
0000
1000
0010
,
0100
0000
0001
0000
1000
0000
0100
0010
,
0110
0110
2002
3003
,
0001
0000
0100
0010
0100
0000
0001
0000
,
0010
0000
0100
0010
0100
0000
1000
0000
,
0100
0000
0010
0100
0010
0000
0001
0000
,
0100
0000
0010
0100
0010
0000
1000
0000
,
0001
0000
0010
0100
1000
0000
0001
0000
,
1000
0000
0100
0010
0001
0000
0100
0000
,
0010
0000
1000
0001
0010
0000
0100
0000
,
2000
0000
3020
0000
0230
0000
0301
0001
,
2000
3000
0020
0030
,
0002
0000
0003
0000
0200
0000
0000
0300
;

//---------------dance-single - ----------------
#NOTES:
     dance-single:
     :
     Hard:
     11:
     0.363230,0.493304,0.265753,0.545871,0.082599,354.000000,317.000000,37.000000,76.000000,0.000000,0.000000,0.363230,0.493304,0.265753,0.545871,0.082599,354.000000,317.000000,37.000000,76.000000,0.000000,0.000000:
0000
0000
0000
0000
,
0000
0000
0000
0000
,
0000
0000
0000
0000
,
2000
0000
0000
0000
3002
0000
0000
0000
1003
0000
0010
0000
0100
0010
0100
0000
,
0002
0000
0000
0000
2003
0000
0000
0000
3001
0000
0100
0000
0010
0100
0010
0000
,
2000
0000
0000
0000
3200
0000
0000
0000
0310
0000
0001
0000
1000
0010
1000
0000
,
0002
0000
0000
0000
0023
0000
0000
0000
0130
0000
1000
0000
0001
0100
0001
0100
,
0020
0000
0000
0000
2030
0000
0000
0000
3100
0000
0001
0000
0100
1000
0100
0000
,
0020
0000
0000
0000
0032
0000
0000
0000
0103
0000
1000
0000
0100
0001
0100
0000
,
0020
0000
0000
0000
2030
0000
0000
0000
3001
0000
0010
0000
0100
0010
0100
0000
,
1000
0010
0001
1000
0100
0001
0010
0000
,
2002
3003
0000
1000
0010
0100
0001
0010
,
0200
2300
3002
0203
,
0320
0000
0030
0000
0000
1000
0100
0010
,
0002
0000
0000
0000
0000
0000
0103
0010
0200
0000
0000
0000
0300
0000
0000
0000
,
2002
3003
0000
0001
0100
0010
1000
0100
,
0020
0032
2003
3020
,
0230
0000
0000
0000
0300
0000
0100
0100
,
0001
0010
1000
0001
0100
1000
0010
0000
,
2002
0000
3003
0000
0000
0000
0001
0000
0200
0000
0000
0000
0000
0310
1000
0100
,
1000
0000
0010
0100
0010
0000
0100
0001
0100
0001
0020
0000
0000
0000
0130
1000
,
0002
0000
0000
0000
0003
0000
0000
0100
0100
0000
0001
0000
0010
0000
0100
0000
,
2100
0000
3001
0201
0000
0000
0010
0010
,
0020
0330
0000
0010
1000
0001
0100
0010
,
1010
0000
0000
1000
0100
0000
0000
0100
0001
0000
0000
0001
0100
0000
0000
0100
,
2000
0000
3010
0100
0001
0020
0030
0000
,
0010
0001
0010
0100
2000
0000
3010
0000
,
0010
1000
0010
0100
0001
0100
0020
0000
,
1030
0100
0001
0100
1000
0010
0001
0010
,
2000
3200
0320
0000
,
0001
0000
0000
0000
0030
0000
0001
0100
,
0020
1030
0001
0010
0200
1300
0001
0100
,
0020
1030
0002
0103
0020
1030
0200
0310
,
0011
0000
0000
0000
1100
0000
1000
0010
0100
0000
0010
0000
0001
0000
0010
0000
,
0200
0000
0301
0010
0100
1000
0100
0010
,
0002
0103
0010
1000
0002
0013
0100
1000
,
0002
0103
0020
1030
0200
0310
0002
1003
,
1010
0000
0000
0000
0101
0000
0001
0000
0020
0000
0000
0130
1000
0100
0010
0000
,
0110
0000
1000
0001
0020
0130
2000
3001
,
0100
0010
1000
0200
0310
0001
0100
0010
,
1010
0000
1100
0000
0101
0000
0011
0100
,
1100
1000
0010
0001
0010
1000
0100
0010
,
0011
0001
0100
1000
0100
0001
0010
0100
,
0120
0031
0010
0100
0210
1300
0100
0010
,
0012
0103
2100
3010
0110
0000
0200
0310
,
1010
1000
0010
0100
0101
0001
0100
0010
,
2010
3100
0102
0013
1001
0000
2000
3001
,
0101
1000
1100
0001
0011
1000
1010
0001
,
0201
0310
1200
0310
0011
1010
1100
0101
,
0001
0020
1000
0030
0001
0200
1000
0300
,
0001
0020
1000
0030
0002
0000
0000
1003
;

//---------------dance-double - ----------------
#NOTES:
     dance-double:
     :
     Hard:
     10:
     0.320135,0.401951,0.150833,0.272936,0.079008,312.000000,291.000000,21.000000,38.000000,0.000000,0.000000,0.320135,0.401951,0.150833,0.272936,0.079008,312.000000,291.000000,21.000000,38.000000,0.000000,0.000000:
00000000
00000000
00000000
00000000
,
00000000
00000000
00000000
00000000
,
00000000
00000000
00000000
00000000
,
00001000
00000000
00000000
00000000
00010000
00000000
00000000
00000000
01000000
00000000
00000000
00000000
10000000
01000000
10000000
00000000
,
00100000
00000000
00000000
00000000
00010000
00000000
00000000
00000000
00001000
00000000
00000000
00000000
00010000
00001000
00010000
00000000
,
00001000
00000000
00000000
00000000
00000100
00000000
00000000
00000000
00000001
00000000
00000000
00000000
00000010
00000001
00000010
00000000
,
00001000
00000000
00000000
00000000
00010000
00000000
00000000
00000000
00100000
00000000
00000000
00000000
10000000
00100000
10000000
00000000
,
01000000
00000000
00000000
00000000
00010000
00000000
00000000
00000000
00001000
00000000
00000000
00000000
00010000
00001000
00010000
00000000
,
00001000
00000000
00000000
00000000
00000010
00000000
00000000
00000000
00000001
00000000
00000000
00000000
00000100
00000001
00000100
00000000
,
00001000
00000000
00000000
00000000
00010000
00000000
00000000
00000000
00100000
00000000
00000000
00000000
10000000
00010000
10000000
00000000
,
20020000
00000000
00000000
30030000
,
02200000
03300000
00000000
10000000
01000000
00100000
00010000
00100000
,
00002000
00023000
00030020
00002030
,
00003200
00000000
00000300
00000000
00000000
00000100
00000010
00000001
,
00000200
00000000
00000000
00000000
00000000
00000000
00000310
00001000
00000020
00000000
00000000
00000000
00000030
00000000
00000000
00000000
,
00000220
00000330
00000000
00000001
00000100
00000010
00001000
00000010
,
00020000
00032000
02003000
03020000
,
00230000
00000000
00000000
00000000
00300000
00000000
00100000
00100000
,
01000000
10000000
00100000
00010000
00001000
00000100
00000001
00000000
,
00002002
00000000
00003003
00000000
00000000
00000000
00001000
00000000
00000020
00000000
00000000
00000000
00000000
00000130
00000001
00000100
,
00000001
00000000
00000010
00000100
00000010
00000000
00001000
00010000
00001000
00010000
00002000
00000000
00000000
00000000
00103000
00010000
,
00200000
00000000
00000000
00000000
00300000
00000000
00000000
00100000
01000000
00000000
10000000
00000000
01000000
00000000
00010000
00000000
,
00002000
00000000
00103000
02000000
00000000
00000000
03010000
00001000
,
00000020
00000000
00000000
00000031
00001000
00000010
00000100
00000001
,
00000011
00000000
00000000
00000010
00001000
00000000
00000000
00001000
00010000
00000000
00000000
00010000
00100000
00000000
00000000
00100000
,
20000000
32000000
03200000
00310000
,
00010000
01000000
00001000
00010000
00000010
00000000
00001010
00000000
,
00001000
00000100
00010000
00001000
00100000
00010000
01000000
00000000
,
00100000
00010000
00001000
00000010
00001000
00010000
00100000
00010000
,
00002000
00003200
00000302
00000000
,
00002000
00000000
00000000
00000000
00003003
00000000
00000001
00000100
,
00000110
00000000
00001000
00000100
00000110
00000000
00000001
00000100
,
00001000
01000000
00001000
00000100
00001000
01000000
00010000
00100000
,
01000000
00000000
00000000
00000000
11000000
00000000
10000000
00100000
10000000
00000000
00100000
00000000
00010000
00000000
00001000
00000000
,
00000020
00000000
00001030
00010000
00010000
00100000
10000000
01000000
,
01100000
00000000
00010000
01000000
01100000
00000000
10000000
01000000
,
00010000
00000100
00010000
01000000
00010000
00000100
00001000
00000010
,
00000200
00000000
00000000
00000000
00000301
00000000
00000020
00000000
00000000
00000000
00000000
00001030
00010000
00001000
00010000
00000000
,
00100000
00000000
10000000
00000000
01000000
00100000
00010000
01000000
,
00001000
00000000
00010000
00000010
00001000
00000000
00000100
00000010
,
00000011
00000000
00000101
00000000
00001100
00000000
00011000
00001000
,
00010000
01000000
10000000
00100000
00010000
00000000
00010000
00010000
,
00001000
00000100
00000001
00000010
00001000
00000000
00001000
00001000
,
00010000
01000000
10000000
00100000
00001000
00100000
10000000
01000000
,
00010000
00000100
00010000
01000000
10000000
00000000
00100000
00010000
,
00001000
00000100
00000001
00000010
00010000
00000010
00000001
00000100
,
00001000
01000000
00001000
00000100
00000001
00000000
00000010
00001000
,
00010000
00100000
00010000
00001000
00000100
00001000
00010000
01000000
,
11000000
00100000
00110000
00001000
00011000
00000010
00001010
00000101
,
00000001
00000010
00001000
00000000
00010000
01000000
10000000
00000000
,
00100000
00010000
00001000
00000000
00022000
00000000
00000000
00033000
;

//---------------dance-double - ----------------
#NOTES:
     dance-double:
     :
     Medium:
     7:
     0.226762,0.237517,0.028730,0.280118,0.000000,221.000000,217.000000,4.000000,39.000000,0.000000,0.000000,0.226762,0.237517,0.028730,0.280118,0.000000,221.000000,217.000000,4.000000,39.000000,0.000000,0.000000:
// measure 0
00000000
00000000
00000000
00000000
,  // measure 1
00000000
00000000
00000000
00000000
,  // measure 2
00000000
00000000
00000000
00000000
,  // measure 3
00001000
00010000
00000010
00010000
,  // measure 4
00001000
00010000
00000010
00010000
,  // measure 5
00001000
00100000
00001000
00010000
,  // measure 6
00001000
00000000
00100000
00000000
00001000
00000000
00010000
00001000
,  // measure 7
00010000
00000100
00001000
00000010
,  // measure 8
00010000
00001000
00100000
00010000
,  // measure 9
01000000
00001000
00010000
00000100
,  // measure 10
00001000
00000010
00001000
00000010
00000100
00000001
00000100
00000000
,  // measure 11
00002002
00003003
00000001
00000100
,  // measure 12
00000020
00010030
00020000
00031000
,  // measure 13
00002000
00000000
00000000
00000000
00003000
00100000
00010000
00100000
,  // measure 14
00010000
00000000
00000000
00010000
20000000
00000000
30000000
00000000
,  // measure 15
00200000
00000000
00300000
01000000
00010000
00100000
00010000
01000000
,  // measure 16
00010000
00100000
00001000
00010000
,  // measure 17
00000200
00000000
00000000
00000000
00000300
00000000
00001000
00000001
,  // measure 18
00002000
00003200
00000320
00000032
,  // measure 19
00000203
00000000
00000300
00001000
00001000
00000000
00000000
00010000
,  // measure 20
00001000
00100000
00001000
00100000
00010000
01000000
00000000
00100000
,  // measure 21
20000000
00000000
30000000
00000000
01000000
00100000
01000000
00100000
,  // measure 22
00010000
00000000
00100000
00001000
00000000
00000000
00001000
00010000
,  // measure 23
00000200
00000000
00000300
00001000
00001000
00000001
00000100
00000010
,  // measure 24
00002000
00003200
00020300
00032000
,  // measure 25
01003000
00000000
01000000
00100000
00000000
00100000
01000000
00000000
,  // measure 26
00010000
00100000
02000000
13000000
,  // measure 27
10000000
00000000
00100000
00000000
00010000
00001000
00010000
00000000
,  // measure 28
00001000
00000000
00000100
00000000
00000001
00000000
00000010
00000100
,  // measure 29
00000020
00002030
00020000
00000000
,  // measure 30
00000000
00000000
00000000
00000000
00033000
00000000
00010000
00001000
,  // measure 31
00100000
00000000
00001000
00010000
00000100
00000000
00010000
00001000
,  // measure 32
02000000
00000000
03020000
00000000
20030000
00000000
30100000
01000000
,  // measure 33
00010000
00000000
00000000
01000000
00100000
10000000
00100000
10000000
,  // measure 34
01000000
00000000
00010000
00000000
00001000
00000000
00000100
00000001
,  // measure 35
00000010
00000000
00000100
00001000
00000010
00000000
00000100
00000001
,  // measure 36
00002000
00000000
00003020
00000000
00020030
00000000
00031000
00100000
,  // measure 37
01000000
00000000
10000000
00200000
00300000
00000000
00100000
00010000
,  // measure 38
00001000
00000000
00011000
00000000
00010000
00000000
00000100
00001000
,  // measure 39
00000010
00000000
00010000
00000000
00001000
00000000
00000100
00000001
,  // measure 40
00000010
00001000
00022000
00033000
,  // measure 41
00011000
00000000
00001000
00100000
00010000
00000000
01000000
00000000
,  // measure 42
00100000
00000000
10000000
00010000
00100000
00000000
01000000
00000000
,  // measure 43
00010000
00000000
00001000
00010000
00000010
00000000
00001000
00000000
,  // measure 44
00000100
00000000
00000010
00000001
00000100
00000000
00000010
00000000
,  // measure 45
00001000
00000000
00000100
00000010
00001000
00000000
00010000
00000000
,  // measure 46
01000000
00000000
10000000
00100000
01000000
00000000
10000000
00000000
,  // measure 47
01000000
00000000
00010000
00100000
01000000
00000000
00010000
00000000
,  // measure 48
00002000
00000000
00003020
00000000
00000032
00000000
00000103
00000100
,  // measure 49
00002000
00003000
00020000
00030000
,  // measure 50
00200000
00000000
00300000
00000000
20000000
00000000
00000000
30000000
;
