#TITLE:Oracle;
#SUBTITLE:;
#ARTIST:Yooh vs. siromaru;
#TITLETRANSLIT:;
#SUBTITLETRANSLIT:;
#ARTISTTRANSLIT:;
#GENRE:WORLD MUSIC;
#CREDIT:MUINELIM;
#BANNER:Oracle.png;
#BACKGROUND:Oracle-bg.png;
#LYRICSPATH:;
#CDTITLE:;
#MUSIC:Oracle.mp3;
#OFFSET:0.239000;
#SAMPLESTART:72.144005;
#SAMPLELENGTH:15.000000;
#SELECTABLE:YES;
#DISPLAYBPM:160.000000;
#BPMS:0.000000=160.000000
;
#STOPS:34.000000=0.375,336.000000=0.375
;
#BGCHANGES:;
#KEYSOUNDS:;
#ATTACKS:;

//---------------dance-single - ----------------
#NOTES:
     dance-single:
     :
     Beginner:
     3:
     0.138073,0.250550,0.022304,0.044608,0.000000,130.000000,127.000000,3.000000,6.000000,0.000000,0.000000,0.138073,0.250550,0.022304,0.044608,0.000000,130.000000,127.000000,3.000000,6.000000,0.000000,0.000000:
0000
0000
0000
0000
,
0000
0000
0000
0000
,
0000
0000
0000
0000
,
0000
0000
0000
0000
,
0000
0000
0000
0000
,
1000
0000
0000
0000
,
1000
0000
0000
0000
,
0001
0000
0000
0000
,
0001
0000
0000
1000
,
0000
1000
0000
0100
,
0000
0000
0000
0001
,
0000
0001
0000
0100
,
0000
0000
0000
1000
,
0000
1000
0000
0010
,
0000
0000
0000
0001
,
0000
0001
0000
0010
,
0000
0000
0000
1000
,
0000
1000
0000
0100
,
0000
0100
0000
0010
,
0000
0010
0000
0001
,
0000
0001
0000
1000
,
0000
1000
0000
0010
,
0000
0010
0000
0100
,
0000
0100
0000
0001
,
0000
0001
0000
1000
,
0000
0000
0100
0100
,
0000
0000
0001
0000
,
0000
0100
0100
0000
,
0000
1000
0000
0000
,
0010
0010
0000
0000
,
0001
0000
0000
0010
,
0010
0000
0000
0000
,
1000
0000
0000
0000
,
0100
0000
0000
0000
,
0010
0000
0000
0000
,
0001
0000
0000
0000
,
0100
0000
0100
0000
,
0010
0000
0010
0000
,
1000
0000
1000
0000
,
0001
0000
0001
0000
,
2002
0000
0000
0000
,
0000
0000
0000
0000
,
3003
0000
0000
0000
,
0000
0000
0000
0000
,
1000
0000
0001
0000
,
1000
0000
0001
0000
,
1000
0000
0001
0000
,
1000
1000
2000
3000
,
0010
0000
0100
0000
,
0010
0000
0100
0000
,
0001
0000
1000
0000
,
0001
0000
1000
0000
,
0100
0000
0010
0000
,
0100
0000
0010
0000
,
0001
0000
1000
0000
,
0001
0000
1000
0000
,
2002
0000
0000
0000
,
0000
0000
0000
0000
,
3003
0000
0000
0000
,
0000
0000
0000
0000
,
0001
0000
0000
0000
,
1000
0000
0000
0000
,
0001
0000
0000
0000
,
1000
0000
0000
0000
,
0001
0000
0000
0100
,
0100
0000
0000
0000
,
1000
0000
0000
0010
,
0010
0000
0000
0000
,
0001
0000
0100
0000
,
1000
0000
0010
0000
,
0001
0000
0100
0000
,
1000
0000
0020
0030
,
0001
0000
0000
0000
,
1000
0000
0000
0000
,
0001
0000
0000
0000
,
1000
0000
0000
0000
,
0001
0000
1000
0000
,
0010
0000
0100
0000
,
0001
0000
1000
0000
,
0100
0000
0010
0000
,
0001
0001
0001
0000
,
0100
0100
0100
0000
,
1000
1000
1000
0000
,
0010
0010
0010
0010
,
0000
1001
0000
0000
;

//---------------dance-single - ----------------
#NOTES:
     dance-single:
     :
     Hard:
     16:
     0.804012,0.961867,0.475822,0.275085,0.810385,757.000000,693.000000,64.000000,37.000000,0.000000,0.000000,0.804012,0.961867,0.475822,0.275085,0.810385,757.000000,693.000000,64.000000,37.000000,0.000000,0.000000:
// measure 0
0000
0000
0000
0000
,  // measure 1
0000
0000
0000
0000
,  // measure 2
0000
0000
0000
0000
,  // measure 3
0000
0000
0000
0000
,  // measure 4
0000
0000
0000
0000
,  // measure 5
1000
0100
0010
0002
0003
0000
1000
0100
,  // measure 6
0010
0002
0003
1000
0100
0010
0002
1003
,  // measure 7
0001
0001
0010
0010
0100
0100
1000
1000
,  // measure 8
0010
0100
0010
0100
0010
0100
0010
0100
0020
0000
0030
0000
1000
0000
0100
0000
,  // measure 9
1000
0100
0001
0100
0001
0100
1000
0010
,  // measure 10
0001
0010
1000
0100
0010
0010
0001
0100
,  // measure 11
0001
0100
1000
0100
1000
0100
0001
0010
,  // measure 12
1000
0010
0001
0100
0010
0010
1000
0100
,  // measure 13
1000
0100
0001
1000
0001
1000
0010
0001
,  // measure 14
0100
1000
0100
0001
0010
0010
0001
0100
,  // measure 15
0001
0100
1000
0001
1000
0001
0010
1000
,  // measure 16
0100
0001
0100
2000
0002
3003
0101
0101
,  // measure 17
0100
0010
1010
1010
1000
0100
0100
0001
,  // measure 18
1000
0010
0001
0100
0010
1000
1100
1100
,  // measure 19
0100
0010
0011
0011
0001
0100
0100
1000
,  // measure 20
0001
0010
1000
0100
0010
0001
1001
1001
,  // measure 21
1000
0010
0110
0110
0100
0001
0001
0010
,  // measure 22
1000
0001
0100
1000
0010
0100
0101
0011
,  // measure 23
0010
0100
1100
1010
0010
0100
0100
0001
,  // measure 24
0010
0000
0100
0000
1000
0010
1000
0010
0100
0001
0100
0001
0020
0000
0000
0000
,  // measure 25
0130
0000
1100
0000
0000
0000
0010
0000
0011
0000
0000
0000
0001
0100
0001
0000
,  // measure 26
1000
0010
1000
0000
0001
0010
0001
0000
0200
0000
0000
0000
0310
0000
1010
0000
,  // measure 27
0000
0000
0100
0000
0101
0000
0000
0000
0001
0010
0001
0000
1000
0100
1000
0000
,  // measure 28
0010
0100
0010
0000
2000
0000
0000
0000
3001
0000
0101
0000
0000
0000
1000
0000
,  // measure 29
1100
0000
0000
0000
0100
0010
0100
0000
1000
0010
1000
0000
0001
0100
0001
0000
,  // measure 30
0020
0000
0130
1100
0000
0001
0011
0000
,  // measure 31
0010
0100
0010
0000
0001
0100
0001
0000
1000
0100
1000
0000
0001
0010
0100
1000
,  // measure 32
0020
0230
0302
2003
,  // measure 33
3100
0010
0001
0010
0000
0000
0100
1000
0100
0010
0000
0000
,  // measure 34
0001
0100
0010
0100
0010
1000
0100
0010
0001
1000
0010
0100
,  // measure 35
0001
0010
0100
0010
0100
1000
0020
0000
0000
0130
0001
1000
,  // measure 36
0100
0000
0000
0010
0001
1000
0010
0000
0000
0100
0001
0010
,  // measure 37
0100
0000
0000
1000
0100
0010
1000
0000
0000
0010
0100
1000
,  // measure 38
0010
0000
0000
0100
0001
0010
0100
0000
0000
0001
0100
1000
,  // measure 39
0100
0000
0000
0000
0010
0000
0000
0000
0001
0000
0000
0000
0010
0000
0000
0000
0100
0000
0000
0000
1000
0000
0000
0000
0010
0000
0000
0000
0100
0000
0000
0000
0001
0000
0000
0000
0010
0000
0000
0100
0000
0000
0010
0000
0000
0100
0000
0000
,  // measure 40
2000
0000
0000
0000
,  // measure 41
0000
0000
0000
3000
,  // measure 42
0002
0000
0000
0000
,  // measure 43
0000
0000
0000
0003
,  // measure 44
0011
0010
0001
0100
0110
0010
1000
0100
,  // measure 45
1100
1000
0010
0100
0110
0010
0100
0001
,  // measure 46
0010
0100
0010
0000
0100
1000
0100
0000
0010
0001
0010
0000
0001
1000
0001
0000
,  // measure 47
1000
0010
1000
0010
0100
0001
0100
0001
0010
0100
1000
0010
0200
0000
0000
0000
,  // measure 48
0301
0000
0001
0010
0000
0001
0010
0000
0100
0000
1000
0010
0000
1000
0010
0000
,  // measure 49
0100
0000
0001
1000
0000
0001
1000
0000
0100
0000
0010
0001
0000
0010
0001
0000
,  // measure 50
0100
0000
0010
1000
0000
0010
1000
0000
0001
0000
0010
0100
0000
0010
0100
0000
,  // measure 51
1000
0000
0001
0100
0000
0001
0100
0000
0010
0000
1000
0100
1000
0100
0010
0001
,  // measure 52
0010
0000
0001
0100
0001
0100
0000
0010
1000
0000
0100
0010
0100
0010
0000
0001
,  // measure 53
0100
0000
0010
1000
0010
1000
0000
0001
0010
0000
0100
1000
0100
1000
0000
0010
,  // measure 54
0100
0000
0001
1000
0001
1000
0000
0100
0010
0000
0001
0100
0001
0100
0000
0010
,  // measure 55
1000
0000
1000
0000
0001
0000
0001
0000
0010
0100
0010
0100
0010
0100
0010
0100
,  // measure 56
2000
0000
3020
0230
,  // measure 57
0302
0000
0000
2003
0000
0000
3200
0000
0000
0310
0001
1000
,  // measure 58
0001
0000
0000
0010
0001
0010
0100
1000
0010
0100
0001
1000
,  // measure 59
0100
0010
1000
0010
0001
0010
0100
0001
0100
1000
0100
0010
,  // measure 60
0001
0100
0010
2000
0000
0000
3001
0010
0100
1000
0010
0001
,  // measure 61
0020
0000
0000
1030
0100
0001
0200
0000
0000
1300
0010
0100
,  // measure 62
0002
0000
0000
1003
0100
0010
0001
1000
0010
0100
1000
0100
,  // measure 63
0001
0100
0010
0001
0010
1000
0010
0100
1000
0001
0010
0100
,  // measure 64
0010
0000
0000
1010
0000
0000
1100
0000
0000
0101
0000
0000
0011
0000
0010
0000
,  // measure 65
0100
0000
1000
0010
0100
0000
0001
1000
0100
0010
0001
0000
2002
0000
3003
0000
,  // measure 66
1100
0000
0000
1010
0000
0000
0011
0000
0000
0101
0000
0000
1100
0000
1000
0000
,  // measure 67
0010
0100
0001
1000
0100
0010
0001
1000
0010
0100
1000
0100
,  // measure 68
0001
0000
0000
0011
0000
0000
1010
0000
0000
1100
0000
0000
0101
0000
1000
0000
,  // measure 69
1100
0000
0000
1010
0000
0000
0011
0000
0000
0101
0000
0000
1100
0000
1000
0000
,  // measure 70
0010
0100
0010
0100
0010
0100
0010
0100
0001
1000
0001
1000
0001
1000
0001
1000
,  // measure 71
0010
0100
0001
1000
0100
0010
0001
1000
0002
0000
0000
0000
0003
0000
0000
0000
,  // measure 72
0101
0100
0100
1010
0010
0010
0000
0000
,  // measure 73
1100
0100
0100
0011
0010
0010
1001
0000
,  // measure 74
0101
0100
1000
1100
0100
0001
1001
0000
,  // measure 75
1010
0010
0001
0011
0010
2000
0001
3001
,  // measure 76
1000
0000
0010
0100
0001
0000
0010
0001
0100
0001
0010
0100
1000
0001
1000
0100
,  // measure 77
0010
0000
0100
1000
0010
0000
0100
0010
1000
0001
1000
0100
0010
0001
0100
0001
,  // measure 78
0010
0000
0100
0010
0001
0000
1000
0010
0100
0001
1000
0001
0010
0100
1000
0010
,  // measure 79
0100
0000
1000
0100
0010
0000
0100
0001
0010
0100
0010
0001
1000
0001
0010
0100
,  // measure 80
1000
0000
0000
1010
0000
0000
0011
0000
0001
0000
0100
0000
0220
0000
0330
0000
,  // measure 81
0101
0000
0000
0011
0000
0000
1010
0000
1000
0000
0100
0000
0020
0000
0000
0000
,  // measure 82
0031
0100
0010
0000
1000
0100
0010
0000
0001
0010
0100
0000
1000
0010
0100
0000
,  // measure 83
0001
1000
0100
0010
0001
1000
0010
0100
1000
0100
0010
0100
0001
0100
1000
0100
,  // measure 84
0001
2002
0000
0000
,  // measure 85
0000
0000
0000
0000
,  // measure 86
0000
3003
0000
0000
;

//---------------dance-double - ----------------
#NOTES:
     dance-double:
     :
     Hard:
     16:
     0.779584,0.929805,0.438649,0.289954,0.698864,734.000000,675.000000,59.000000,39.000000,0.000000,0.000000,0.779584,0.929805,0.438649,0.289954,0.698864,734.000000,675.000000,59.000000,39.000000,0.000000,0.000000:
00000000
00000000
00000000
00000000
,
00000000
00000000
00000000
00000000
,
00000000
00000000
00000000
00000000
,
00000000
00000000
00000000
00000000
,
00000000
00000000
00000000
00000000
,
01000000
00100000
00010000
00002000
00003000
00000000
00100000
00010000
,
00001000
00000200
00000300
00010000
00001000
00000100
00000002
00001003
,
00001000
00000010
00010000
00001000
01000000
00010000
10000000
00100000
,
00010000
00001000
00010000
00001000
00010000
00001000
00010000
00001000
00020000
00000000
00030000
00000000
00000100
00000000
00001000
00000000
,
00000100
00010000
00001000
00010000
00000100
00001000
00000100
00000010
,
00000001
00000100
00001000
00010000
01000000
01000000
00100000
00010000
,
00100000
00001000
00010000
00001000
00100000
00010000
00100000
01000000
,
10000000
00100000
00010000
00001000
00000010
00000010
00000100
00010000
,
00000100
00000010
00000001
00000010
00000100
00010000
00000100
00001000
,
00010000
01000000
00100000
10000000
00010000
00010000
00100000
00001000
,
00100000
01000000
10000000
01000000
00100000
00001000
00100000
00010000
,
00001000
00000010
00000100
00000002
00002000
00003003
00001001
00001000
,
00000010
00010000
00011000
00001000
01000000
00010000
00010000
00100000
,
10000000
00100000
00001000
00010000
01000000
10000000
10010000
00010000
,
00100000
00001000
00011000
00010000
00000100
00001000
00001000
00000010
,
00000001
00000010
00010000
00001000
00000100
00000001
00000011
00000010
,
00000100
00001000
00001100
00000100
00000010
00001000
00001000
00010000
,
01000000
00010000
00000100
00010000
01000000
10000000
10100000
00100000
,
01000000
00010000
01010000
01000000
00100000
00010000
00010000
00001000
,
00000100
00001000
01000000
00001000
00000100
00000001
00002002
00003003
,
00001000
00000000
00001010
00000000
00000000
00000000
00000001
00000000
00000101
00000000
00000000
00000000
00000100
00001000
00010000
00000000
,
00001000
00010000
00100000
00000000
00010000
00100000
10000000
00000000
20020000
00000000
30030000
00000000
00010000
00000000
00110000
00000000
,
00000000
00000000
10000000
00000000
11000000
00000000
00000000
00000000
01000000
00010000
00001000
00000000
00010000
00001000
00000100
00000000
,
00001000
00000100
00000001
00000000
00000020
00000000
00000000
00000000
00000130
00000000
00001100
00000000
00000000
00000000
00010000
00000000
,
00011000
00000000
00000000
00000000
00001000
00010000
00100000
00000000
00010000
00100000
01000000
00000000
00100000
10000000
01000000
00000000
,
00200000
00000000
01300000
01010000
00000000
00001000
00011000
00000000
,
00010000
00001000
00000010
00000000
00001000
00000010
00000100
00000000
00000010
00000001
00000100
00000000
00001000
00010000
00001000
00010000
,
00002000
02003000
03020000
00230000
,
01300000
10000000
01000000
10000000
00000000
00000000
00010000
00100000
00010000
00100000
00000000
00000000
,
01000000
00010000
00001000
00010000
00001000
00000010
00000001
00001000
00000100
00000010
00000001
00000100
,
00001000
00010000
00001000
00010000
00100000
10000000
00020000
00000000
00000000
00130000
01000000
00100000
,
01000000
00000000
00000000
00010000
00001000
00010000
00001000
00000000
00000000
00000010
00000100
00000010
,
00000100
00000000
00000000
00010000
00001000
00010000
00001000
00000000
00000000
00000010
00000001
00000100
,
00001000
00000000
00000000
00010000
00100000
10000000
01000000
00000000
00000000
00100000
00010000
01000000
,
00001000
00010000
00000100
00001000
00000010
00010000
00001000
00100000
00010000
02000000
00000000
00000000
,
03002000
00000000
00000000
00000000
,
00000000
00000000
00000000
00000000
,
00023000
00000000
00000000
00000000
,
00000000
00000000
00000000
00030000
,
00010010
00000010
00001000
00000100
00010100
00010000
00001000
01000000
,
01010000
00010000
00100000
00001000
00011000
00010000
00000100
00000010
,
00000001
00000100
00000001
00000000
00000100
00001000
00000100
00000000
00001000
00010000
00001000
00000000
00010000
00100000
00010000
00000000
,
00100000
10000000
00100000
10000000
01000000
00100000
01000000
00100000
00010000
01000000
00100000
00010000
00002000
00000000
00000000
00000000
,
00003100
00000000
00000100
00000001
00000100
00000000
00000010
00000000
00001000
00000000
00000100
00000010
00000100
00000000
00010000
00000000
,
00001000
00000000
00100000
01000000
00100000
00000000
00010000
00000000
01000000
00000000
00100000
10000000
00100000
00000000
00010000
00000000
,
00001000
00000000
00000010
00000001
00000010
00000000
00000100
00000000
00010000
00000000
00001000
00000100
00001000
00000000
00010000
00000000
,
01000000
00000000
10000000
00100000
10000000
00000000
00010000
00000000
00100000
00000000
01000000
00010000
00001000
00000000
00010000
00001000
,
00000100
00000000
00000100
00000001
00000010
00000000
00000100
00000000
00000010
00000000
00001000
00010000
01000000
00000000
10000000
00000000
,
00100000
00000000
01000000
00100000
00010000
00000000
00001000
00000000
00010000
00000000
00100000
00010000
00001000
00000000
00010000
00000000
,
00000100
00000000
00001000
00000100
00000010
00000000
00000001
00000000
00000100
00000000
00001000
00010000
00100000
00000000
10000000
00000000
,
01000000
00000000
00010000
00000000
00001000
00000000
00000010
00000000
00000001
00000100
00000001
00000100
00000001
00000100
00000001
00000100
,
00000020
00000000
00020030
00032000
,
00203000
00000000
00000000
00320000
00000000
00000000
02030000
00000000
00000000
03100000
10000000
00100000
,
10000000
00000000
00000000
01000000
00100000
00010000
01000000
00100000
00010000
00001000
00000100
00000010
,
00001000
00000100
00000010
00000001
00000100
00001000
00010000
00001000
00010000
01000000
10000000
00100000
,
00010000
00001000
00010000
00002000
00000000
00000000
00003010
00000100
00001000
00000100
00000010
00000001
,
00000200
00000000
00000000
00001300
00010000
01000000
20000000
00000000
00000000
30100000
00010000
00001000
,
00000200
00000000
00000000
00000301
00001000
00000100
00000010
00001000
00100000
00010000
01000000
00100000
,
00010000
00001000
00100000
01000000
10000000
00100000
01000000
00010000
00100000
01000000
00010000
00000100
,
00001000
00000000
00000000
00001010
00000000
00000000
00000011
00000000
00000000
00000101
00000000
00000000
00001100
00000000
00001000
00000000
,
00000010
00000000
00010000
00001000
00000100
00000000
00001000
00010000
00100000
00010000
00001000
00000000
00022000
00000000
00033000
00000000
,
00010000
00000000
00000000
01010000
00000000
00000000
11000000
00000000
00000000
10100000
00000000
00000000
00110000
00000000
00100000
00000000
,
00001000
00010000
00100000
00010000
00001000
00000010
00001000
00010000
01000000
00010000
00001000
00000100
,
00000001
00000000
00000000
00001001
00000000
00000000
00001010
00000000
00000000
00010010
00000000
00000000
00011000
00000000
00001000
00000000
,
00101000
00000000
00000000
00110000
00000000
00000000
01010000
00000000
00000000
01100000
00000000
00000000
10100000
00000000
10000000
00000000
,
01000000
00100000
00010000
00000000
00100000
00001000
00010000
00000000
00000100
00010000
00001000
00000000
00000100
00000010
00001000
00000000
,
00000001
00000100
00000010
00001000
00000100
00010000
00001000
00100000
00020000
00000000
00000000
00000000
00030000
00000000
00000000
00000000
,
10010000
00010000
01000000
00011000
00000010
00001000
00000000
00000000
,
00001001
00001000
00000100
00011000
00100000
00010000
10010000
00000000
,
01100000
00010000
00001000
00000110
00001000
00010000
00011000
00000000
,
01001000
00010000
00001000
00010010
00001000
00010000
00011000
00011000
,
00001000
00000000
00100000
00010000
01000000
00000000
00100000
10000000
00100000
01000000
00010000
01000000
00100000
10000000
01000000
00100000
,
00010000
00000000
00100000
00001000
00010000
00000000
00000100
00001000
00000010
00001000
00000001
00000100
00000001
00000010
00000100
00001000
,
00000010
00000000
00010000
00001000
00100000
00000000
00010000
01000000
00010000
00100000
01000000
00100000
00010000
10000000
01000000
00100000
,
00010000
00000000
00100000
00001000
00010000
00000000
00000100
00001000
00000001
00001000
00000100
00000010
00000100
00001000
00000010
00000100
,
00000001
00000000
00000000
00000011
00000000
00000000
00001010
00000000
00001000
00000000
00010000
00000000
00022000
00000000
00033000
00000000
,
00011000
00000000
00000000
01010000
00000000
00000000
11000000
00000000
10000000
00000000
00100000
00000000
00020000
00000000
00000000
00000000
,
00031000
00100000
00010000
00000000
01000000
00001000
00010000
00000000
00000010
00010000
00001000
00000000
00010000
00000100
00001000
00000000
,
00000001
00000100
00000010
00001000
00000100
00010000
00001000
00100000
00010000
01000000
00100000
10000000
01000000
00010000
00001000
00000010
,
00000001
00002002
00000000
00000000
,
00000000
00000000
00000000
00000000
,
00000000
00003003
00000000
00000000
;

//---------------dance-single - ----------------
#NOTES:
     dance-single:
     :
     Easy:
     8:
     0.301637,0.448871,0.178433,0.193303,0.000000,284.000000,260.000000,24.000000,26.000000,0.000000,0.000000,0.301637,0.448871,0.178433,0.193303,0.000000,284.000000,260.000000,24.000000,26.000000,0.000000,0.000000:
0000
0000
0000
0000
,
0000
0000
0000
0000
,
0000
0000
0000
0000
,
0000
0000
0000
0000
,
0000
0000
0000
0000
,
1000
1000
0000
0001
,
0001
0000
1000
0001
,
1000
1000
0001
0001
,
1000
0000
0001
0000
0200
0300
0010
0000
,
1000
0000
0010
0000
0100
0010
0000
0100
,
0010
0100
0010
0100
,
0001
0000
0100
0000
0010
0100
0000
0010
,
0100
0010
0100
0001
,
0010
0000
0001
0000
1000
0001
0000
1000
,
0001
1000
0001
1000
,
0100
0000
1000
0000
0001
1000
0000
0001
,
1000
2002
3003
0001
,
0100
0000
0010
0000
0100
0001
0000
0100
,
0001
0100
0010
1000
,
0010
0000
0100
0000
0010
1000
0000
0010
,
1000
0001
0010
0100
,
1000
0000
0010
0000
0100
0001
0000
1000
,
0010
0100
0001
1000
,
0100
0000
0010
0000
0001
0100
0000
0010
,
1000
0001
1000
0001
,
0000
0100
0000
0000
0001
0000
2002
0000
,
0000
0000
3003
0000
1000
0000
0000
0010
,
0000
1000
2002
0000
,
3003
0000
0001
0000
0000
0100
0000
0000
,
0010
0220
0000
0330
,
1000
0000
0000
0010
0000
0000
0100
0000
,
0220
0000
0330
0001
,
1001
0000
0000
0000
,
1000
0000
0001
0000
,
0100
0010
1000
0001
,
0100
0000
0010
0000
,
0110
0000
0000
0000
,
0100
0000
0010
0000
,
0100
0001
1000
0000
,
0010
0000
0100
0000
,
2002
0000
0000
0000
,
0000
0000
0000
0000
,
3003
0000
0000
0000
,
0000
0000
0000
0000
,
0001
0100
1000
0100
,
0001
0010
1000
0010
,
0001
0100
0010
1000
,
0100
0010
0100
0010
0200
0000
0300
0000
,
1000
1010
0001
0011
,
1000
1010
0001
0011
,
1000
1100
0001
0101
,
1000
1100
0001
0101
,
0010
1010
0100
1100
,
0010
0011
0100
0101
,
0010
0110
1000
1001
,
0001
0010
0100
1000
,
0002
0000
0000
0000
,
0000
0000
0000
0003
,
0200
0000
0000
0000
,
0000
0000
0000
0300
,
0020
0030
2000
3000
,
0200
0300
0020
0030
,
0001
0100
1000
0100
,
0001
0010
1000
0010
,
0001
0000
0000
0100
0000
0000
0010
0100
,
0010
0000
0000
0000
,
1000
0000
0000
0010
0000
0000
0100
0010
,
0100
0000
0000
0000
,
0001
0100
0010
1000
,
0100
0001
1000
0010
,
0001
0100
0010
1000
,
0001
0100
0220
0330
,
0010
0000
0000
1000
0000
1000
0000
0000
,
0100
0000
0000
0001
0000
0001
0000
0000
,
0010
0000
0000
0100
0000
0100
0000
0000
,
0010
0000
1000
0000
0001
0100
0001
0000
,
1000
0000
0010
0000
0100
0100
0100
0000
,
0001
0000
1000
0000
0010
0010
0010
0000
,
0100
0000
0001
0000
1000
1000
1000
0000
,
0100
0000
0010
0000
0001
0001
0001
0000
,
0010
0100
2000
3010
,
0001
0010
0200
1300
,
0010
0001
0100
1000
,
0010
0000
0100
0000
0001
1000
0001
1000
,
0000
2002
0000
0000
,
0000
0000
0000
0000
,
0000
3003
0000
0000
;

//---------------dance-single - ----------------
#NOTES:
     dance-single:
     :
     Medium:
     13:
     0.541673,0.641245,0.327128,0.304824,0.275085,510.000000,466.000000,44.000000,41.000000,0.000000,0.000000,0.541673,0.641245,0.327128,0.304824,0.275085,510.000000,466.000000,44.000000,41.000000,0.000000,0.000000:
0000
0000
0000
0000
,
0000
0000
0000
0000
,
0000
0000
0000
0000
,
0000
0000
0000
0000
,
0000
0000
0000
0000
,
1000
0001
1000
0001
0000
0000
0100
0010
,
0100
0010
0000
1000
0001
0100
0010
1000
,
0001
0010
0100
1000
0000
0000
1000
0100
,
0010
0001
0100
0010
0200
0300
0001
0010
,
0001
1000
0100
1000
0001
0010
0000
0010
,
0001
0000
0100
0000
0110
0000
1000
0010
,
1000
0001
0100
0001
1000
0010
0000
0010
,
1000
0000
0100
0000
0110
0000
0010
0001
,
0010
0100
1000
0100
0010
0001
0000
0001
,
0010
0000
0100
0000
1001
0000
0010
1000
,
0010
0100
0001
0100
0010
1000
0000
1000
,
0010
0000
2000
0000
3002
0000
1003
0100
,
0010
0001
1000
0010
0100
0001
0000
0001
,
0010
0010
0100
0100
1000
1000
0001
0100
,
0010
1000
0001
0010
0100
1000
0000
1000
,
0010
0010
0100
0100
0001
0001
1000
0100
,
0010
1000
0010
0001
0100
1000
0000
1000
,
0100
0100
0010
0010
1000
1000
0001
0010
,
0100
0001
0100
1000
0010
0001
0000
0001
,
0010
0010
0200
0000
0320
0000
1030
1000
,
0000
0001
0001
0000
1000
0000
1010
0000
,
0011
0000
1010
0000
0001
0001
0000
1000
,
1000
0001
0101
1100
,
0101
0000
0010
0010
0000
0100
0100
0000
,
0010
1010
1100
1010
,
0100
0100
0000
0010
0010
0000
0100
0000
,
0101
0011
0101
0110
,
2001
0000
0000
0000
,
3020
0000
0230
0000
,
0302
0023
0230
2300
,
3020
0000
0230
0000
,
0301
0000
0000
0001
0000
0001
0010
0000
0000
1000
0000
1000
,
0010
0000
0000
0001
0000
0001
0100
0000
0000
1000
0000
1000
,
0100
0000
0000
0001
0000
0001
1000
0000
0000
1000
0000
1000
,
0001
0000
0001
0100
0000
0100
0020
0000
0000
2030
0000
0000
,
3002
0000
0000
0000
,
0000
0000
0000
0003
,
2000
0000
0000
0000
,
0000
0000
0000
3000
,
0001
0100
0101
0000
1000
0100
1100
0000
,
0001
0010
0011
0000
1000
0010
1010
0000
,
0001
0010
0100
0001
0100
0010
1000
0010
,
0100
0000
1000
0000
0001
0000
0100
0000
0010
0100
0010
0100
0020
0000
0000
0000
,
1030
0000
0000
1000
0000
0000
1000
0000
0100
0000
0000
0100
0000
0000
0100
0000
,
0001
0000
0000
0001
0000
0000
0001
0000
0010
0000
0000
0010
0000
0000
0010
0000
,
0001
0000
0000
0001
0000
0000
0001
0000
0100
0000
0000
0100
0000
0000
0100
0000
,
1000
0000
0000
1000
0000
0000
1000
0000
1001
0000
0000
0000
0001
0000
0100
0000
,
0010
0000
0000
0010
1000
0000
0100
0000
0010
0000
0000
0010
0001
0000
0100
0000
,
0010
0000
0000
0010
0100
0000
0001
0000
0010
0000
0000
0010
0100
0000
1000
0000
,
0010
0000
0000
0010
0100
0000
0001
0000
1000
0000
0000
0100
0010
0000
1000
0000
,
0001
0000
0010
0000
0100
0000
1000
0000
0001
0100
0001
0000
1000
0010
1000
0000
,
0200
0000
0320
0032
,
2003
3020
0230
0302
,
0023
0000
2030
0000
,
3002
0000
0203
0000
,
1300
0010
1000
0010
0000
0000
0100
0000
0100
0001
0000
0001
,
1000
0000
1000
0010
0000
0010
0100
0000
0100
0001
0000
0001
,
0020
0000
0000
0130
1000
0100
1000
0000
1000
0010
0000
0010
,
0100
0000
0100
0001
0000
0001
0010
0000
0010
1000
0000
1000
,
0100
0000
0000
0110
0000
0000
0010
0000
0000
0011
0000
0000
0001
0000
1000
0000
,
2002
0000
0000
3003
,
0001
0000
0000
0101
0000
0000
0100
0000
0000
0110
0000
0000
0010
0000
1000
0000
,
1100
0000
0100
0010
0000
0100
0001
0000
0100
2000
0000
0000
,
3010
0000
0000
0110
0000
0000
0100
0000
0000
0101
0000
0000
0001
0000
0010
0000
,
0110
0000
0000
0100
0000
0000
1100
0000
0000
1000
0000
0000
1010
0000
0010
0000
,
0100
1000
0100
0010
0001
0010
0100
0001
,
1000
0100
1000
0000
0001
0010
0001
0000
2002
0000
0000
0000
3003
0000
0000
0000
,
1000
0010
0010
0001
0010
0010
0000
0000
,
0001
0100
0100
1000
0100
0100
0110
0000
,
1000
0010
0010
0001
1000
0010
0110
0000
,
0001
0100
0100
1000
0001
0200
0010
0310
,
0110
0000
0000
0010
1000
0000
0000
1000
0001
0000
0000
0001
0100
0000
0000
0100
,
0010
0000
0000
0010
0001
0000
0000
0001
0010
0000
0000
0010
1000
0000
0000
1000
,
0001
0000
0000
0001
0100
0000
0000
0100
1000
0000
0000
1000
0100
0000
0000
0100
,
0010
0000
0000
0010
1000
0000
0000
1000
0100
0000
0000
0100
0010
0000
0000
0010
,
0001
0000
0000
0101
0000
0000
1100
0000
1000
0000
0010
0000
0110
0000
0000
0000
,
1000
0000
0000
1010
0000
0000
0011
0000
0001
0000
0100
0000
0110
0000
0000
0000
,
0001
0010
0010
1000
0100
0100
0001
1000
,
0010
0100
0010
0000
1000
0001
1000
0000
0200
0000
0310
0000
0020
0000
0130
0000
,
0000
2002
0000
0000
,
0000
0000
0000
0000
,
0000
3003
0000
0000
;

//---------------dance-double - ----------------
#NOTES:
     dance-double:
     :
     Medium:
     13:
     0.529990,0.641245,0.304824,0.304824,0.271367,499.000000,458.000000,41.000000,41.000000,0.000000,0.000000,0.529990,0.641245,0.304824,0.304824,0.271367,499.000000,458.000000,41.000000,41.000000,0.000000,0.000000:
00000000
00000000
00000000
00000000
,
00000000
00000000
00000000
00000000
,
00000000
00000000
00000000
00000000
,
00000000
00000000
00000000
00000000
,
00000000
00000000
00000000
00000000
,
00001000
01000000
00001000
01000000
00000000
00000000
00001000
00010000
,
00001000
00010000
00000000
00001000
01000000
00010000
01000000
00001000
,
00010000
00000100
00010000
00000100
00000000
00000000
00010000
00001000
,
00010000
00001000
00010000
00000100
00002000
00003000
00000001
00000100
,
00000010
00001000
00000001
00000100
00001000
00010000
00000000
00010000
,
00100000
00000000
10000000
00000000
10010000
00000000
10000000
00100000
,
01000000
00010000
10000000
00100000
00010000
00001000
00000000
00001000
,
00000100
00000000
00000001
00000000
00001001
00000000
00000001
00000010
,
00000100
00001000
00000001
00000010
00001000
00010000
00000000
00010000
,
01000000
00000000
10000000
00000000
10010000
00000000
10000000
01000000
,
00100000
00010000
10000000
01000000
00010000
00001000
00000000
00001000
,
00000010
00000000
00000002
00000000
00002003
00000000
00003010
00000100
,
00000001
00001000
00000100
00000010
00001000
00010000
00000000
00001000
,
00010000
00010000
01000000
01000000
10000000
00010000
01000000
00100000
,
10000000
00010000
00100000
01000000
00010000
00001000
00000000
00010000
,
00001000
00001000
00000010
00000010
00000001
00001000
00000010
00000100
,
00001000
00010000
00100000
10000000
01000000
00010000
00000000
00001000
,
00010000
00010000
01000000
01000000
00010000
00001000
00100000
01000000
,
00010000
00001000
00000010
00000001
00000100
00001000
00000000
00010000
,
00001000
00001000
00020000
00000000
00230000
00000000
10300000
10000000
,
00000000
00010000
00010000
00000000
01000000
00000000
01001000
00000000
,
00011000
00000000
00001100
00000000
00000001
00000001
00000000
00001000
,
00001000
00000100
00010100
00011000
,
01010000
00000000
10000000
10000000
00000000
00100000
00100000
00000000
,
00010000
00011000
01001000
00010010
,
00000001
00000001
00000000
00000100
00000100
00000000
00001000
00000000
,
00011000
00101000
00010100
00011000
,
00002000
00000000
00000000
00000000
,
00203000
00000000
02300000
00000000
,
03020000
00032000
00003020
00000230
,
00002300
00000000
00003002
00000000
,
00000103
00000000
00000000
00000100
00000000
00000100
00001000
00000000
00000000
00001000
00000000
00001000
,
00010000
00000000
00000000
00010000
00000000
00010000
01000000
00000000
00000000
01000000
00000000
01000000
,
10000000
00000000
00000000
10000000
00000000
10000000
00100000
00000000
00000000
00100000
00000000
00100000
,
01000000
00000000
01000000
00010000
00000000
00010000
00200000
00000000
00000000
00302000
00000000
00000000
,
00023000
00000000
00000000
00000000
,
00000000
00000000
00000000
00000000
,
00030020
00000000
00000000
00000000
,
00000000
00000000
00000000
00000030
,
00010010
00010000
00001000
00000000
00101000
00001000
00010000
00000000
,
00010100
00010000
00001000
00000000
01001000
00001000
00010000
00000000
,
00100000
10000000
01000000
00010000
00001000
00000010
00000001
00000100
,
00001000
00010000
01000000
10000000
00100000
00010000
00022000
00033000
,
00001000
00000000
00000000
01000000
00000000
00000000
00001000
00000000
00010000
00000000
00000000
00000010
00000000
00000000
00010000
00000000
,
00001000
00000000
00000000
00100000
00000000
00000000
00001000
00000000
00010000
00000000
00000000
00000100
00000000
00000000
00010000
00000000
,
00001000
00000000
00000000
00000100
00000000
00000000
00001000
00000000
00010000
00000000
00000000
01000000
00000000
00000000
00010000
00000000
,
00001000
00000000
00000000
00000010
00000000
00000000
00001000
00000000
00010000
00000000
00000000
00100000
00000000
00000000
00010000
00000000
,
00001000
00000000
00000000
00000010
00000000
00000000
00000001
00000000
00001000
00000000
00000000
00000100
00000000
00000000
00010000
00000000
,
01000000
00000000
00000000
00001000
00000000
00000000
00000010
00000000
00010000
00000000
00000000
00100000
00000000
00000000
00001000
00000000
,
00010000
00000000
00000000
00100000
00000000
00000000
10000000
00000000
01000000
00000000
00000000
00010000
00000000
00000000
00001000
00000000
,
00000010
00000000
00000001
00000000
00001000
00000000
00000100
00000000
00000010
00000000
00001000
00000000
00010000
00001000
00010000
00001000
,
00020000
00000000
00230000
20300000
,
32000000
03200000
00302000
00023000
,
00030200
00000000
00000320
00000000
,
00000032
00000000
00002003
00000000
,
00003010
00000100
00000010
00000100
00000000
00000000
00000010
00000000
00000010
00010000
00000000
00010000
,
00001000
00000000
00001000
01000000
00000000
01000000
00010000
00000000
00010000
00100000
00000000
00100000
,
02000000
00000000
00000000
13000000
00100000
10000000
00100000
00000000
00100000
01000000
00000000
01000000
,
00001000
00000000
00001000
00010000
00000000
00010000
00000100
00000000
00000100
00000010
00000000
00000010
,
00000001
00000000
00000000
00000101
00000000
00000000
00001000
00000000
00000000
00001100
00000000
00000000
00000100
00000000
00010000
00000000
,
00022000
00000000
00000000
00033000
,
00001000
00000000
00000000
01001000
00000000
00000000
00010000
00000000
00000000
00010100
00000000
00000000
00000100
00000000
00000010
00000000
,
00001000
00000000
00001000
00010000
00000000
00010000
01000000
00000000
01000000
20000000
00000000
00000000
,
30100000
00000000
00000000
01100000
00000000
00000000
01000000
00000000
00000000
01010000
00000000
00000000
00010000
00000000
00100000
00000000
,
00001000
00000000
00000000
00011000
00000000
00000000
00010000
00000000
00000000
00010010
00000000
00000000
00000010
00000000
00001000
00000000
,
00000100
00000010
00000001
00000100
00001000
00010000
00100000
10000000
,
01000000
00000000
00010000
00000000
00001000
00010000
00001000
00010000
00002000
00000000
00000000
00000000
00003000
00000000
00000000
00000000
,
00000010
00000001
00000100
00001000
00010000
00011000
00000000
00000000
,
00001000
00010000
00100000
10000000
01000000
00010000
00011000
00000000
,
00001000
00000100
00000001
00000010
00001000
00010000
00011000
00000000
,
00001000
00010000
01000000
10000000
00100000
00020000
00001000
00031000
,
00011000
00000000
00000000
00010000
00000100
00000000
00000000
00000100
00001000
00000000
00000000
00001000
00000001
00000000
00000000
00000001
,
00000100
00000000
00000000
00000100
00000010
00000000
00000000
00000010
00010000
00000000
00000000
00010000
00001000
00000000
00000000
00001000
,
00100000
00000000
00000000
00100000
01000000
00000000
00000000
01000000
10000000
00000000
00000000
10000000
00100000
00000000
00000000
00100000
,
00010000
00000000
00000000
00010000
00001000
00000000
00000000
00001000
00000010
00000000
00000000
00000010
00000001
00000000
00000000
00000001
,
00001000
00000000
00000000
00001010
00000000
00000000
00010010
00000000
00010000
00000000
00001000
00000000
01001000
00000000
00000000
00000000
,
01000000
00000000
00000000
01010000
00000000
00000000
00110000
00000000
00100000
00000000
00001000
00000000
00011000
00000000
00000000
00000000
,
00010000
00000010
00000010
00001000
00100000
00100000
00010000
00001000
,
00000100
00000001
00000100
00000000
00001000
00010000
00001000
00000000
00200000
00000000
01300000
00000000
10000000
00000000
00200000
00000000
,
00300000
00022000
00000000
00000000
,
00000000
00000000
00000000
00000000
,
00000000
00033000
00000000
00000000
;

//---------------dance-double - ----------------
#NOTES:
     dance-double:
     :
     Easy:
     8:
     0.291016,0.448871,0.178433,0.193303,0.000000,274.000000,250.000000,24.000000,26.000000,0.000000,0.000000,0.291016,0.448871,0.178433,0.193303,0.000000,274.000000,250.000000,24.000000,26.000000,0.000000,0.000000:
00000000
00000000
00000000
00000000
,
00000000
00000000
00000000
00000000
,
00000000
00000000
00000000
00000000
,
00000000
00000000
00000000
00000000
,
00000000
00000000
00000000
00000000
,
00001000
00001000
00000000
00010000
,
00010000
00000000
00001000
00010000
,
00001000
00001000
00010000
00010000
,
00001000
00000000
00010000
00000000
00002000
00003000
00100000
00000000
,
00010000
00100000
01000000
10000000
,
01000000
00010000
00010000
00000100
,
00001000
00000100
00000010
00000001
,
00000010
00001000
00001000
01000000
,
00010000
01000000
00100000
10000000
,
00100000
00010000
00001000
00000100
,
00000001
00000100
00000010
00001000
,
00000010
00020000
00031000
00010000
,
01000000
10000000
01000000
00010000
,
01000000
10000000
00100000
00010000
,
00001000
00010000
00100000
00010000
,
00001000
00010000
00100000
00010000
,
00001000
00000010
00001000
00010000
,
00001000
00000010
00000001
00000100
,
00001000
00000100
00000001
00000100
,
00001000
00000100
00000001
00001000
,
00000000
00000100
00000000
00000000
00010000
00000000
00022000
00000000
,
00000000
00000000
00033000
00000000
00001000
00000000
00000000
00100000
,
00000000
00010000
20020000
00000000
,
30030000
00000000
10000000
00000000
00000000
00100000
00000000
00000000
,
00010000
00022000
00000000
00033000
,
00001000
00000000
00000000
00000100
00000000
00000000
00000001
00000000
,
00002002
00000000
00003003
00000100
,
00000110
00000000
00000000
00000000
,
00000010
00000000
00000100
00000000
,
00001000
00010000
00100000
10000000
,
01000000
00000000
00100000
00000000
,
01100000
00000000
00000000
00000000
,
01000000
00000000
00010000
00000000
,
00001000
00000010
00000001
00000000
,
00000100
00000000
00001000
00000000
,
00022000
00000000
00000000
00000000
,
00000000
00000000
00000000
00000000
,
00033000
00000000
00000000
00000000
,
00000000
00000000
00000000
00000000
,
00010000
00001000
00000010
00001000
,
00010000
00100000
00010000
00001000
,
00000100
00001000
00010000
01000000
,
00010000
00001000
00022000
00033000
,
00010000
00010100
00000100
00001100
,
00001000
00001001
00000001
00000101
,
00000100
00000110
00000010
00010010
,
00010000
00011000
00001000
00101000
,
00100000
01100000
01000000
11000000
,
10000000
10100000
00100000
01100000
,
01000000
01001000
00001000
00011000
,
00010000
00001000
00000100
00000001
,
00000020
00000000
00000000
00000000
,
00000000
00000000
00000000
00000030
,
00002000
00000000
00000000
00000000
,
00000000
00000000
00000000
00003000
,
00020000
00030000
02000000
03000000
,
20000000
30000000
00200000
00300000
,
00010000
00001000
00000100
00000001
,
00000010
00001000
00010000
01000000
,
10000000
00000000
00000000
00100000
00000000
00000000
00010000
00001000
,
00010000
00000000
00000000
00000000
,
00000001
00000000
00000000
00000100
00000000
00000000
00001000
00010000
,
00001000
00000000
00000000
00000000
,
10000000
01000000
00100000
00010000
,
01000000
00100000
00010000
00001000
,
00000100
00000010
00001000
00000100
,
00000010
00000001
00002002
00003003
,
00001000
00000000
00000000
00000010
00000000
00000010
00000000
00000000
,
00010000
00000000
00000000
00001000
00000000
00001000
00000000
00000000
,
01000000
00000000
00000000
00010000
00000000
00010000
00000000
00000000
,
10000000
00000000
01000000
00000000
00010000
00001000
00010000
00000000
,
00000100
00000000
00001000
00000000
00000001
00000010
00000001
00000000
,
00000100
00000000
00000010
00000000
00001000
00000100
00001000
00000000
,
00000010
00000000
00010000
00000000
00001000
00100000
00001000
00000000
,
00010000
00000000
01000000
00000000
10000000
00100000
10000000
00000000
,
00010000
00100000
02000000
03010000
,
00001000
00000100
00000020
00001030
,
00000001
00000100
00001000
00010000
,
00100000
00000000
10000000
00000000
01000000
00000000
00010000
00001000
,
00000000
00022000
00000000
00000000
,
00000000
00000000
00000000
00000000
,
00000000
00033000
00000000
00000000
;
