#VERSION:0.83;
#TITLE:Nonstop;
#SUBTITLE:;
#ARTIST:Oh My Girl!;
#TITLETRANSLIT:;
#SUBTITLETRANSLIT:;
#ARTISTTRANSLIT:;
#GENRE:XROSS;
#ORIGIN:;
#CREDIT:MILEN;
#BANNER:Nonstop.png;
#BACKGROUND:Nonstop-bg.png;
#PREVIEWVID:;
#JACKET:Nonstop-jacket.png;
#CDIMAGE:;
#DISCIMAGE:;
#LYRICSPATH:;
#CDTITLE:;
#MUSIC:Nonstop.ogg;
#OFFSET:0.000000;
#SAMPLESTART:62.176998;
#SAMPLELENGTH:10.899998;
#SELECTABLE:YES;
#DISPLAYBPM:124.000000;
#BPMS:0.000=124.000;
#STOPS:129.000=1.452,
226.000=1.452,
271.000=1.452;
#DELAYS:;
#WARPS:;
#TIMESIGNATURES:0.000=4=4;
#TICKCOUNTS:0.000=4;
#COMBOS:0.000=1;
#SPEEDS:0.000=1.000=0.000=0;
#SCROLLS:0.000=1.000;
#FAKES:;
#LABELS:0.000=Song Start;
#BGCHANGES:0.000=Nonstop.avi=1.000=0=0=1=Centered====,
99999=-nosongbg-=1.000=0=0=0 // don't automatically add -songbackground-
;
#KEYSOUNDS:;
#ATTACKS:
;

//---------------dance-single - ----------------
#NOTEDATA:;
#CHARTNAME:;
#STEPSTYPE:dance-single;
#DESCRIPTION:;
#CHARTSTYLE:;
#DIFFICULTY:Beginner;
#METER:3;
#RADARVALUES:0.113029,0.171285,0.034104,0.034104,0.000000,116.000000,111.000000,5.000000,5.000000,0.000000,0.000000,0.000000,0.000000,0.000000,0.113029,0.171285,0.034104,0.034104,0.000000,116.000000,111.000000,5.000000,5.000000,0.000000,0.000000,0.000000,0.000000,0.000000;
#CREDIT:MILEN;
#DISPLAYBPM:124.000000;
#NOTES:
0000
0000
0000
0000
,
0000
0000
0000
0000
,
0000
0000
0000
0000
,
0000
0000
0000
0000
,
0000
0100
0000
0000
,
0000
0010
0000
0000
,
0000
1000
0000
0000
,
0000
0001
0000
0000
,
0000
0100
0000
0100
,
0000
0100
0000
0000
,
0000
0001
0000
0001
,
0000
0001
0000
0000
,
0000
1000
0000
1000
,
0000
1000
0000
0000
,
0000
0010
0000
0010
,
0000
0010
0000
0100
,
0000
0010
0000
0000
,
0000
1000
0000
0000
,
0000
0001
0000
0000
,
0000
0100
0000
0010
,
0000
0100
0000
0100
,
0000
0100
0000
0001
,
0000
1000
0000
0000
,
0000
0010
0000
1000
,
0000
0001
0000
0000
,
0000
0000
0000
0002
,
0003
1000
0000
0000
,
0000
0000
0000
2000
,
3000
0010
0000
0100
,
0000
0010
0000
0100
,
0000
0010
0000
0010
,
0010
0020
0000
0030
,
0000
1001
1000
0000
,
0001
0000
1000
0000
,
0000
0000
0001
0000
,
1000
0000
0001
0000
,
0000
0000
0100
0000
,
0010
0000
0100
0000
,
0000
0000
0010
0000
,
0100
0000
0010
0000
,
0010
0000
1000
0000
,
0000
0000
0100
0000
,
0000
0000
0001
0000
,
0000
0000
0010
0000
,
0000
0000
1000
1000
,
1000
0000
0001
0001
,
0001
0000
0000
0100
,
0100
0000
0020
0000
,
0030
0000
1000
0000
,
1000
0000
0001
0000
,
0001
0000
0000
0000
,
1000
0000
0001
0000
,
1000
0000
0001
0000
,
0001
0000
1000
0000
,
1000
0000
0001
0000
,
1000
0000
0020
0000
,
0030
0000
0110
0100
,
0000
0001
0000
0100
,
0000
0100
0000
0010
,
0000
1000
0000
0010
,
0000
0000
0000
1000
,
0000
0100
0000
1000
,
0000
1000
0000
0001
,
0000
0010
0000
0001
,
0000
0000
0000
1001
,
0000
0000
0000
1001
,
0000
0000
0000
0000
,
0100
0100
0000
0110
,
1000
0000
0100
0000
,
0001
0000
0010
0000
,
1000
0000
0100
0000
,
0010
0000
0001
0001
;

//---------------dance-single - ----------------
#NOTEDATA:;
#CHARTNAME:;
#STEPSTYPE:dance-single;
#DESCRIPTION:;
#CHARTSTYLE:;
#DIFFICULTY:Easy;
#METER:5;
#RADARVALUES:0.222161,0.293632,0.129594,0.061387,0.000000,228.000000,209.000000,19.000000,9.000000,0.000000,0.000000,0.000000,0.000000,0.000000,0.222161,0.293632,0.129594,0.061387,0.000000,228.000000,209.000000,19.000000,9.000000,0.000000,0.000000,0.000000,0.000000,0.000000;
#CREDIT:MILEN;
#DISPLAYBPM:124.000000;
#NOTES:
0000
0000
0000
0000
,
0000
0000
0000
0000
,
0000
0000
0000
0000
,
0000
0000
0000
0000
,
0000
1000
0000
1000
,
0000
0001
0000
0001
,
0000
1000
1000
0001
,
0001
1000
0001
1001
,
0000
1000
0100
0000
,
1000
0100
0000
1000
,
0001
0010
0000
0001
,
0010
0100
0000
1000
,
0100
0110
0001
0100
,
0000
0110
1000
0100
,
0000
1000
1000
0001
,
0001
0100
0000
0010
,
0100
0010
0010
1000
,
0010
0010
0001
0010
,
0000
0100
0010
0100
,
0001
0100
1000
0100
,
0110
0001
0000
1000
,
0000
0001
1000
0002
,
0003
1000
1000
0001
,
1000
1001
0010
0100
,
0000
0001
0000
0001
,
0000
0001
0000
0002
,
0003
1000
0000
1000
,
0000
1000
0000
2000
,
3000
0010
0100
0001
,
0000
0100
0010
1000
,
0000
0010
0100
0001
,
1000
0010
0010
0010
,
0010
1001
1000
0100
,
1000
0000
0100
1000
,
0100
0010
0001
0010
,
0001
0000
0001
0010
,
0001
1001
0010
0001
,
0010
0000
0001
0010
,
0100
1000
0100
0100
,
1000
1001
0020
0030
,
0100
0010
2000
0000
,
3000
0000
0200
0000
,
0300
0000
0002
0000
,
0003
0000
0020
0000
,
0030
0000
1000
1000
,
1001
0000
0001
0001
,
1001
0000
0010
0100
,
0010
0110
1000
0100
,
0010
0001
0100
0000
,
0100
0000
0100
1000
,
0010
1000
0100
0000
,
0100
0000
0100
0001
,
0010
0100
1000
0000
,
0010
0000
0001
0000
,
0100
0000
1000
0001
,
0100
0010
1000
1000
,
0001
0001
1001
0001
,
0100
0001
0000
0100
,
0001
0100
0010
1000
,
0010
1000
0000
1000
,
0010
1000
1001
0010
,
1000
0010
0000
1000
,
0010
0100
0001
0100
,
0100
0001
1001
0020
,
0030
0100
0010
1000
,
0000
1100
0000
0001
,
0000
0011
0000
0000
,
1000
0001
1000
0110
,
0001
0100
0001
0101
,
1000
0010
1000
1010
,
0001
0010
0100
1000
,
0010
0100
0010
0010
;

//---------------dance-double - ----------------
#NOTEDATA:;
#CHARTNAME:;
#STEPSTYPE:dance-double;
#DESCRIPTION:;
#CHARTSTYLE:;
#DIFFICULTY:Easy;
#METER:5;
#RADARVALUES:0.213391,0.244693,0.095490,0.061387,0.000000,219.000000,205.000000,14.000000,9.000000,0.000000,0.000000,0.000000,0.000000,0.000000,0.213391,0.244693,0.095490,0.061387,0.000000,219.000000,205.000000,14.000000,9.000000,0.000000,0.000000,0.000000,0.000000,0.000000;
#CREDIT:MILEN;
#DISPLAYBPM:124.000000;
#NOTES:
00000000
00000000
00000000
00000000
,
00000000
00000000
00000000
00000000
,
00000000
00000000
00000000
00000000
,
00000000
00000000
00000000
00000000
,
00000000
00001000
00000000
00001000
,
00000000
00010000
00000000
00010000
,
00000000
00001000
00001000
00010000
,
00010000
00001000
00010000
00011000
,
00000000
00001000
00000010
00000000
,
00001000
00000010
00000000
00001000
,
00010000
00100000
00000000
00010000
,
00100000
01000000
00000000
00100000
,
10000000
01000000
00010000
00001000
,
00000000
00000100
00001000
00010000
,
00000000
00001000
00001000
00000100
,
00000100
00000001
00000000
00000010
,
00001000
00010000
00001000
00011000
,
00000000
00001000
00010000
00011000
,
00000000
00001000
00100000
00001000
,
00010000
00000010
00010000
00001000
,
00011000
00100000
00000000
01000000
,
00000000
10000000
00100000
00020000
,
00030000
00001000
00001000
00000100
,
00000001
00001001
00000010
00000100
,
00000000
00000010
00000000
00000010
,
00000000
00000010
00000000
00000020
,
00000030
00010000
00000000
00010000
,
00000000
00010000
00000000
00020000
,
00030000
00001000
00100000
00010000
,
00000000
00100000
00001000
00010000
,
00000000
00001000
00010000
00000010
,
00010000
00001000
00010000
00000100
,
00010000
00011000
00001000
00100000
,
00001000
00000000
00100000
00001000
,
00100000
00010000
01000000
00010000
,
10000000
00000000
00010000
10000000
,
01000000
11000000
10000000
00100000
,
01000000
00000000
00100000
10000000
,
01000000
00010000
00000000
00001000
,
00000100
00000001
00000020
00000030
,
00001000
00010000
00000200
00000000
,
00000300
00000000
02000000
00000000
,
03000000
00000000
00000020
00000000
,
00000030
00000000
00200000
00000000
,
00300000
00000000
00001000
00001000
,
00011000
00000000
00010000
00010000
,
00011000
00000000
00001000
00100000
,
01000000
10000000
00100000
00010000
,
00001000
00000010
00000001
00000000
,
00000001
00000000
00001000
00000000
,
00001000
00000000
00010000
00000000
,
00010000
00000000
10000000
00000000
,
10000000
00100000
01000000
00010000
,
10000000
00000000
00100000
10000000
,
00010000
00000000
01000000
00001000
,
00010000
00000100
00001000
00000010
,
00010000
00001000
00011000
00010000
,
00000010
00010000
00000000
00000010
,
00010000
00000010
00001000
00000100
,
00001000
00000001
00000000
00001000
,
00000001
00000100
00000101
00000001
,
00000010
00000100
00000000
00000010
,
00000001
00000100
00001000
00000000
,
00010000
01000000
10000000
00200000
,
00300000
00010000
00010000
00010000
,
00000000
00010010
00000000
00001000
,
00000000
01001000
00000000
00000000
,
00010000
00001000
00010000
00011000
,
00000100
00001000
00000010
00010000
,
00001000
00100000
00010000
01000000
,
00001000
00010000
00000100
00001000
,
00000100
00000010
00001000
00010000
;

//---------------dance-single - ----------------
#NOTEDATA:;
#CHARTNAME:;
#STEPSTYPE:dance-single;
#DESCRIPTION:;
#CHARTSTYLE:;
#DIFFICULTY:Medium;
#METER:10;
#RADARVALUES:0.369293,0.391510,0.190980,0.238725,0.071618,379.000000,351.000000,28.000000,35.000000,0.000000,0.000000,0.000000,0.000000,0.000000,0.369293,0.391510,0.190980,0.238725,0.071618,379.000000,351.000000,28.000000,35.000000,0.000000,0.000000,0.000000,0.000000,0.000000;
#CREDIT:MILEN;
#DISPLAYBPM:124.000000;
#NOTES:
0000
0000
0000
0000
,
0000
0000
0000
0000
,
0000
0000
0000
0000
,
0000
0000
0000
0000
,
0000
1000
1000
0010
,
0010
0100
0100
0001
,
0001
0000
1000
0010
1000
0000
0001
0010
,
0001
0000
0100
0010
0100
0010
2000
0000
,
3002
0000
0000
0000
0103
0000
0000
0100
0000
0000
0000
0000
0000
0000
0010
0000
,
1000
0100
1100
0000
1000
0000
0001
0000
,
0011
0000
0000
0000
0010
0000
0000
0010
0000
0000
0001
0000
0100
0000
0010
0000
,
1000
0000
1001
0000
0000
0001
0010
0000
,
0001
0000
0000
0000
1000
0000
0000
1000
0000
0000
1000
0000
0100
0000
0000
0000
,
1100
0000
0000
0000
0001
0000
0000
0001
0000
0000
0001
0000
0100
0000
0000
0000
,
0101
0000
0001
0000
1000
0000
0001
0100
,
0010
1000
0001
0000
0000
1000
0002
0000
,
0203
0000
0000
0000
0310
0000
0000
0010
0000
0000
0010
0000
1000
0000
0000
0000
,
0000
0000
0000
0000
0100
0000
0000
0100
0000
0000
0100
0000
0001
0000
0000
0000
,
0000
0000
0000
0000
0010
0000
0000
1000
0000
0000
0010
0000
0100
0000
0000
0001
,
0000
0100
0002
0000
0023
0000
0230
0000
,
2300
3010
0100
0001
,
1000
0000
0100
0010
0100
0010
0002
0000
,
0000
0000
0100
0000
0003
0000
1000
0000
0010
0000
0100
0000
0010
0000
0000
0200
,
0000
0001
0300
0010
1000
0010
0110
0000
,
0100
0001
0010
0001
,
0100
0000
0001
0000
0010
0000
0001
0100
,
0010
1000
0010
1000
,
0100
0000
1000
0000
0010
0000
1000
0100
,
0010
0001
0100
0010
,
1001
1000
0010
0100
,
1001
0000
0001
0010
0001
0000
1000
0010
,
1000
0000
0001
0100
0001
1000
0100
1000
,
0001
0000
0000
0000
1001
0000
0000
0000
1000
0000
0000
1000
0000
0000
1000
0000
,
0010
0100
0001
0000
0021
0000
0230
0000
,
2300
0000
0000
0000
3002
0000
0000
0000
0103
0000
0000
0100
0000
0000
0010
0000
,
1000
0000
0001
0000
0100
0000
0000
0000
0010
0000
0000
1000
0000
0000
0100
0000
,
0010
0000
0001
0000
0011
0000
0000
0000
0010
0000
0000
0010
0000
0000
0010
0000
,
0001
0100
0010
0000
2010
0000
3002
0000
,
0023
0000
0230
0000
1300
0010
0100
0001
,
1000
0000
0010
0000
0100
0000
0000
0000
0001
0000
0000
1000
0000
0000
0100
0000
,
0010
0010
0001
0000
0101
0000
0000
0010
,
1000
0000
0100
0000
1100
0000
0000
0100
,
0001
0000
0010
0000
0011
0000
0000
0100
,
1000
0000
1010
0010
0000
0100
0001
0010
,
0001
1000
0100
0000
2000
0000
3020
0000
,
0032
0103
0002
0023
,
2030
0000
3100
0000
0000
0100
0010
0001
,
1000
0100
0100
0000
1000
0010
0100
0001
,
2000
0000
0001
0001
3001
0000
0100
0000
,
1000
0000
0010
0000
0001
0100
1000
0000
,
1000
0100
0001
0000
0010
0000
1000
0000
,
0100
0000
0001
0000
0010
0000
0100
0010
,
0100
0010
0001
1000
0100
0000
1000
0000
,
0010
0100
0001
0010
,
0100
0000
1000
0000
0010
0100
0001
0000
,
0100
0010
1000
0000
0010
0100
0001
0010
,
0100
0000
1000
0000
0010
0000
0000
0000
1001
0000
0000
0000
0001
0000
0000
0001
,
0000
0001
0010
0100
1000
0000
1020
0000
,
0230
0000
0000
0000
0302
0000
0000
0000
2003
0000
0000
0000
3100
0000
0000
0100
,
0000
0000
0010
0000
0001
0000
1000
0000
0100
0000
0000
0000
0010
0000
0000
0001
,
0000
0000
0100
0000
0010
0000
1000
0000
1010
0000
0000
0000
0010
0000
0000
0010
,
0000
0010
1000
0100
0010
0000
0012
0000
,
2003
0000
3020
0000
0230
0000
0301
0010
,
0100
0000
1000
0000
0001
0000
0010
0000
0100
0000
0000
0000
1000
0000
0000
0001
,
0000
0100
0010
0010
1000
0000
1100
0000
,
0000
0001
0011
0000
0000
1000
1010
0000
,
0011
0000
0000
0000
0101
0000
0000
0110
0000
0000
0000
0000
0000
0000
0010
0000
,
1000
0001
0100
0010
0010
0000
0110
0000
,
1000
0100
0001
0000
0001
0010
1000
0000
,
1000
0100
0001
0100
0010
0001
2000
0000
,
3020
0000
0130
0001
0010
0100
1000
0000
,
0010
0000
0000
0001
0000
0000
0100
0000
1000
0000
0001
0000
1001
0000
0000
0000
;

//---------------dance-double - ----------------
#NOTEDATA:;
#CHARTNAME:;
#STEPSTYPE:dance-double;
#DESCRIPTION:;
#CHARTSTYLE:;
#DIFFICULTY:Medium;
#METER:9;
#RADARVALUES:0.336164,0.367040,0.150056,0.238725,0.071618,345.000000,323.000000,22.000000,35.000000,0.000000,0.000000,0.000000,0.000000,0.000000,0.336164,0.367040,0.150056,0.238725,0.071618,345.000000,323.000000,22.000000,35.000000,0.000000,0.000000,0.000000,0.000000,0.000000;
#CREDIT:MILEN;
#DISPLAYBPM:124.000000;
#NOTES:
// measure 0
00000000
00000000
00000000
00000000
,  // measure 1
00000000
00000000
00000000
00000000
,  // measure 2
00000000
00000000
00000000
00000000
,  // measure 3
00000000
00000000
00000000
00000000
,  // measure 4
00000000
10000000
10000000
01000000
,  // measure 5
01000000
00010000
00010000
00001000
,  // measure 6
00001000
00000010
00000001
00000100
,  // measure 7
00001000
00000000
00010000
00001000
00010000
00001000
00020000
00000000
,  // measure 8
00030200
00000000
00000000
00000000
00000310
00000000
00000000
00000010
00000000
00000000
00000000
00000000
00000000
00000000
00000001
00000000
,  // measure 9
00000100
00001000
00010000
00001000
,  // measure 10
00011000
00000000
00000000
00000000
00010000
00000000
00000000
00010000
00000000
00000000
00010000
00000000
00100000
00000000
00000000
00000000
,  // measure 11
10000000
00000000
11000000
00000000
00000000
01000000
00100000
00000000
,  // measure 12
01000000
00000000
00000000
00000000
00010000
00000000
00000000
00010000
00000000
00000000
00010000
00000000
00001000
00000000
00000000
00000000
,  // measure 13
00000010
00000000
00000000
00000000
00001000
00000000
00000000
00001000
00000000
00000000
00001000
00000000
00010000
00000000
00000000
00000000
,  // measure 14
00100000
00000000
00010000
00000000
00001000
00000000
00000100
00000001
,  // measure 15
00000100
00000000
00000110
00000000
00000000
00000010
00020000
00000000
,  // measure 16
00032000
00000000
00000000
00000000
00103000
00000000
00000000
00100000
00000000
00000000
00100000
00000000
00010000
00000000
00000000
00000000
,  // measure 17
01000000
00000000
00000000
00000000
00001000
00000000
00000000
00001000
00000000
00000000
00001000
00000000
00010000
00000000
00000000
00000000
,  // measure 18
00000100
00000000
00000000
00000000
00000010
00000000
00000000
00000001
00000000
00000000
00000010
00000000
00000100
00000000
00000000
00001000
,  // measure 19
00000000
00000100
00020000
00000000
00032000
00000000
00203000
00000000
,  // measure 20
02300000
13000000
01000000
00010000
,  // measure 21
00001000
00000000
00000010
00000001
00000010
00000000
00000200
00000000
,  // measure 22
00000000
00000000
00000010
00000000
00000300
00000000
00001000
00000000
00010000
00000000
00000000
00000000
00100000
00000000
00000000
02000000
,  // measure 23
00000000
00100000
03000000
00010000
10000000
00000000
11000000
00000000
,  // measure 24
01000000
00010000
00001000
00010000
,  // measure 25
00100000
00010000
00001000
00010000
,  // measure 26
00011000
00001000
00010000
00001000
,  // measure 27
00000010
00001000
00010000
00001000
,  // measure 28
00011000
00010000
01000000
10000000
,  // measure 29
00100000
00010000
00001000
00000100
,  // measure 30
00000001
00000010
00001000
00010000
,  // measure 31
00100000
00000000
10000000
01000000
00100000
00000000
01000000
00010000
,  // measure 32
00001000
00000000
00000000
00000000
00011000
00000000
00000000
00000000
00010000
00000000
00000000
00010000
00000000
00000000
00010000
00000000
,  // measure 33
00000100
00001000
00001002
00000203
,  // measure 34
00000320
00000000
00000000
00000000
00002030
00000000
00000000
00000000
00003001
00000000
00000000
00000001
00000000
00000000
00000100
00000000
,  // measure 35
00001000
00000000
00000000
00000000
00010000
00000000
00000000
00000000
00001000
00000000
00000000
00100000
00000000
00000000
00010000
00000000
,  // measure 36
00100000
00000000
01000000
00000000
10000000
00000000
00000000
00000000
00100000
00000000
00000000
00100000
00000000
00000000
00100000
00000000
,  // measure 37
01000000
00010000
20010000
32000000
,  // measure 38
03200000
00000000
00320000
00000000
00130000
00001000
00010000
00000000
,  // measure 39
00000010
00000000
00010000
00000000
00001000
00000000
00000000
00000000
00000100
00000000
00000000
00000001
00000000
00000000
00000010
00000000
,  // measure 40
00000100
00000100
00001000
00000000
00001001
00000000
00000000
00000000
,  // measure 41
00000100
00010000
00011000
00000000
,  // measure 42
01000000
00001000
00011000
00000000
,  // measure 43
00100000
00000000
10010000
10000000
00000000
01000000
00010000
00000000
,  // measure 44
00001000
00010000
00000100
00000000
00002000
00000000
00003020
00000000
,  // measure 45
00020030
00031000
00002000
02003000
,  // measure 46
03020000
00000000
00130000
00000000
00000000
00100000
01000000
00000000
,  // measure 47
10000000
00100000
00010000
00000000
00001000
00000100
00000001
00000010
,  // measure 48
00000200
00000000
00000000
00000010
00000310
00000000
00000001
00000000
,  // measure 49
00000100
00000000
00001000
00000000
00010000
00001000
01000000
00000000
,  // measure 50
00001000
00010000
00000100
00000000
00010000
00000000
01000000
00000000
,  // measure 51
10000000
00000000
00100000
00000000
00010000
00000000
00001000
00010000
,  // measure 52
00000010
00000000
00010000
00001000
00100000
00000000
01000000
00000000
,  // measure 53
00010000
00001000
00000010
00000100
,  // measure 54
00010000
00001000
00000010
00000001
,  // measure 55
00000100
00000000
00000010
00000000
00001000
00000001
00000100
00000010
,  // measure 56
00001000
00000000
00000100
00000000
00010000
00000000
00000000
00000000
00011000
00000000
00000000
00000000
00001000
00000000
00000000
00001000
,  // measure 57
00000000
00001000
01000000
00000000
00010000
00000000
20100000
00000000
,  // measure 58
32000000
00000000
00000000
00000000
03200000
00000000
00000000
00000000
00320000
00000000
00000000
00000000
10030000
00000000
00000000
10000000
,  // measure 59
00000000
00000000
01000000
00000000
00010000
00000000
00000000
00000000
00001000
00000000
00000000
00000000
00010000
00000000
00000000
00000010
,  // measure 60
00000000
00000000
00001000
00000000
00000010
00000000
00000100
00000000
00000001
00000000
00000000
00000000
00000010
00000000
00000000
00000010
,  // measure 61
00000000
00000010
00000100
00000000
00001000
00000000
00001002
00000000
,  // measure 62
00000203
00000000
00000320
00000000
00002030
00000000
00003010
00010000
,  // measure 63
00001000
00000000
00000000
00000000
00100000
00000000
00001000
00000000
00010000
00000000
00000000
00000000
01000000
00000000
00000000
10000000
,  // measure 64
00000000
00100000
01000000
01000000
00010000
00000000
10010000
00000000
,  // measure 65
00000000
01000000
01001000
00000000
00000000
00010000
00010100
00000000
,  // measure 66
00001100
00000000
00000000
00000000
00001000
00000000
00000000
00000001
00000000
00000000
00000100
00000000
00000001
00000000
00000010
00000000
,  // measure 67
00000100
00000000
00000010
00001000
00010000
00000000
00011000
00000000
,  // measure 68
00001000
00010000
01000000
00000000
00010000
00001000
00000100
00000000
,  // measure 69
00001000
00010000
00100000
00000000
00010000
00001000
00000020
00000000
,  // measure 70
00000032
00000000
00001003
00000100
00000010
00001000
00010000
00000000
,  // measure 71
00000100
00000000
00000000
00001000
00000000
00000000
00010000
00000000
01000000
00000000
00100000
00000000
10010000
00000000
00000000
00000000
;

//---------------dance-single - ----------------
#NOTEDATA:;
#CHARTNAME:;
#STEPSTYPE:dance-single;
#DESCRIPTION:;
#CHARTSTYLE:;
#DIFFICULTY:Hard;
#METER:12;
#RADARVALUES:0.502785,0.489387,0.347857,0.136414,0.317164,516.000000,465.000000,51.000000,20.000000,0.000000,0.000000,0.000000,0.000000,0.000000,0.502785,0.489387,0.347857,0.136414,0.317164,516.000000,465.000000,51.000000,20.000000,0.000000,0.000000,0.000000,0.000000,0.000000;
#CREDIT:MILEN;
#DISPLAYBPM:124.000000;
#NOTES:
0000
0000
0000
0000
,
0000
0000
0000
0000
,
0000
0000
0000
0000
,
0000
0000
0000
0000
,
0000
1000
1000
0010
,
0010
0001
0001
0100
,
0100
0000
1000
0010
0100
0001
1000
0010
,
0100
0001
1000
0100
0010
0001
0100
0100
,
0010
0000
0010
0000
1001
0000
0000
1000
0000
0000
0010
0000
1000
0000
0100
0000
,
0010
0000
0001
0000
0010
0000
0000
0000
0001
0100
0001
0000
1000
0000
0000
0010
,
0000
0000
0100
0000
0001
0000
0000
0010
0000
0000
0100
0000
1000
0000
0100
0000
,
0010
0000
0100
1000
0000
0000
0000
0000
0000
0000
0010
0000
0100
0000
0001
0000
,
0100
0000
0010
0000
1000
0000
0001
0010
0000
0001
0100
0000
0110
0000
0000
0000
,
0000
0000
0010
0000
1000
0000
0100
1000
0000
0001
1000
0000
0010
0000
0100
0001
,
0100
0000
0010
0000
1000
0000
0000
0100
0000
0000
0010
0000
0001
0000
0100
0000
,
0010
0000
1000
0010
0000
0000
0000
0000
0000
0000
0110
0000
0100
0001
0000
0000
,
1000
0010
0000
0000
0110
0000
0000
0110
0000
0000
0010
0000
1000
0001
0000
0000
,
1000
0000
0100
0000
1000
0010
0000
0100
0010
0000
0100
0000
0001
0000
0000
0000
,
0010
0000
0100
0000
1000
0010
0000
0010
0100
0000
0010
0000
0100
0001
0000
0001
,
0010
0001
2001
0000
3020
0000
0230
0000
,
0302
0000
0000
0000
1003
0000
0000
0100
0000
0000
0010
0000
0000
0001
0000
0000
,
0100
0000
0010
0000
1000
0000
0010
0000
0100
0000
0001
0010
0000
0000
0000
0000
,
0000
0000
0011
0000
0000
0000
0010
0100
0010
0000
0100
0000
1000
0000
0010
0100
,
0000
0000
0001
1000
0000
0000
0100
0000
0010
0000
0001
0000
0100
0000
0010
0000
,
1000
0001
0021
0000
0100
0000
0001
0000
,
0100
0000
0000
0000
1000
0000
0000
0000
0031
0000
0000
0000
0001
0100
0000
0100
,
0010
1000
1020
0000
0100
0000
1000
0000
,
0100
0000
0000
0000
0001
0000
0000
0000
1030
0000
0000
0000
1000
0100
0000
0100
,
0010
0000
0000
0001
0000
0000
0100
0000
0010
0000
0100
0000
0010
0000
1000
0000
0010
0000
2000
0000
0000
0000
0100
0000
,
0000
3000
0000
0010
0100
0010
0100
0001
0100
0002
0000
1000
,
0003
1000
0010
0100
0001
0010
0100
1000
,
0001
0100
0010
1000
0100
0010
0001
0100
,
0110
0000
0000
0000
1001
0000
0000
0000
0001
0000
0000
0100
0000
0001
0010
0000
,
0001
0000
0100
0000
1000
0000
0100
0000
0001
0000
0000
0011
0000
0000
1000
0000
,
0000
1010
0000
0000
0101
0000
0000
0000
0001
0000
0000
0010
0000
0100
0010
0000
,
0001
0000
0100
0000
1000
0000
0100
0000
0110
0000
0000
1010
0000
0000
0101
0000
,
0001
0000
1000
0000
0010
0000
0000
0000
0100
0000
0000
0010
0000
1000
0010
0000
,
0100
0000
0001
0000
0010
0000
0100
0000
1100
0000
0000
1000
0000
0000
0110
0000
,
0000
0010
0000
0000
0202
0000
0000
0000
0303
0000
0001
0000
0010
0000
1000
0000
,
0010
0000
0100
0000
1000
0000
0000
0000
1010
0000
0000
0011
0000
0000
0001
0000
,
0100
0000
0010
0000
2000
0000
0000
0000
3002
0000
0000
0000
0003
0000
1000
0100
,
1000
0000
0100
1000
0100
0000
0010
0000
0200
0000
0000
0000
0300
0000
0010
0001
,
0010
0000
0001
0010
0001
0000
0100
0000
0020
0000
0000
0000
0030
0000
1000
0001
,
1000
0000
0010
0000
0100
0000
0110
0000
0000
0000
0001
1000
0001
0000
0100
0000
,
0010
0000
1000
0000
0001
0000
0010
0000
0100
1000
0000
0010
1000
0000
0100
0000
,
0101
0000
0000
0000
0010
0001
0000
0000
0100
0001
0000
0010
0001
0000
0100
0000
,
1100
0000
0000
0000
0001
1000
0000
0000
0000
0000
0001
0000
0010
0000
0100
0000
,
1000
0000
0010
0100
0010
0000
0000
0000
0100
0001
0100
0000
0010
0000
1000
0000
,
0200
0000
0000
0000
0310
0000
0010
0000
0001
0000
0000
0100
0000
0000
1000
0000
,
0100
0000
0000
0010
0000
0000
0100
0000
0001
0010
0000
0001
1000
0000
0100
0000
,
1000
0010
0000
1000
0001
0000
0020
0000
0000
0000
0130
0000
1000
0000
0100
0000
,
0010
0000
0001
0000
1000
0000
0010
0000
0100
0000
0000
0100
0000
0000
0100
0000
,
0001
0000
1000
0000
0100
0000
0010
0000
0001
0000
0100
1000
0000
0000
0100
0000
,
0120
0000
1030
0100
0010
0001
0100
0010
,
1000
0000
0001
0010
0100
1000
0010
0100
,
0001
0000
1000
0000
0100
0000
0010
0000
0001
0000
0000
0100
0000
0000
1000
0000
,
0010
0000
0100
0000
0110
0000
0000
0000
1001
0000
0000
0000
1000
0000
0000
0100
,
0000
1000
0010
0000
1000
0000
0100
0000
0001
0000
0100
0000
1000
0000
0000
1010
,
0000
0000
0001
0000
0000
0011
0000
0000
1100
0000
0000
0000
1000
0000
0000
0010
,
0000
0100
0010
0000
1000
0000
0100
0000
0001
0000
0100
0000
0110
0000
0000
0011
,
0000
0000
1100
0000
1000
0000
0001
0000
0010
0000
0000
0000
0100
0000
0000
0010
,
0000
0001
0010
0000
0100
0000
1000
0000
0010
0000
0100
0000
0101
0000
0000
0001
,
0000
0000
0110
0000
0000
0010
0000
0000
2200
0000
0000
0000
3300
0000
1000
0000
,
0010
0000
0001
0000
0010
0000
0100
0000
0001
0000
0000
0000
0011
0000
0000
1010
,
0000
1000
0100
0010
0001
1000
1100
0000
,
0000
0001
0101
0000
0000
1000
1010
0010
,
0110
0000
0100
0000
0101
0000
0000
1001
0000
0000
0000
0000
0000
0000
1000
0000
,
0010
0001
0100
1000
0010
0000
0110
0001
,
1000
0000
0000
0100
1000
0000
0010
0000
1000
0000
0000
0010
0001
0000
0100
0000
,
0001
0010
0100
0001
0100
1000
0020
0000
,
0130
0001
0010
1000
0010
0100
1100
0000
,
1010
0000
0000
0011
0000
0000
0101
0000
0100
0000
1000
0000
1001
0000
0000
0000
;

//---------------dance-double - ----------------
#NOTEDATA:;
#CHARTNAME:;
#STEPSTYPE:dance-double;
#DESCRIPTION:;
#CHARTSTYLE:;
#DIFFICULTY:Hard;
#METER:12;
#RADARVALUES:0.483297,0.489387,0.272829,0.163697,0.286470,496.000000,456.000000,40.000000,24.000000,0.000000,0.000000,0.000000,0.000000,0.000000,0.483297,0.489387,0.272829,0.163697,0.286470,496.000000,456.000000,40.000000,24.000000,0.000000,0.000000,0.000000,0.000000,0.000000;
#CREDIT:MILEN;
#DISPLAYBPM:124.000000;
#NOTES:
// measure 0
00000000
00000000
00000000
00000000
,  // measure 1
00000000
00000000
00000000
00000000
,  // measure 2
00000000
00000000
00000000
00000000
,  // measure 3
00000000
00000000
00000000
00000000
,  // measure 4
00000000
00000001
00000001
00000100
,  // measure 5
00000100
00001000
00001000
00010000
,  // measure 6
00010000
00000000
00001000
00100000
00010000
01000000
00001000
00010000
,  // measure 7
00000100
00001000
00000010
00010000
00001000
00100000
01000000
01000000
,  // measure 8
00100000
00000000
00100000
00000000
10010000
00000000
00000000
10000000
00000000
00000000
00100000
00000000
01000000
00000000
00010000
00000000
,  // measure 9
00100000
00000000
00001000
00000000
00010000
00000000
00000000
00000000
00001000
00010000
00001000
00000000
00000100
00000000
00000000
00000100
,  // measure 10
00000000
00000000
00000001
00000000
00000010
00000000
00000000
00001000
00000000
00000000
00010000
00000000
00001000
00000000
00010000
00000000
,  // measure 11
00100000
00000000
01000000
00100000
00000000
00000000
00000000
00000000
00000000
00000000
10000000
00000000
01000000
00000000
00010000
00000000
,  // measure 12
00001000
00000000
00010000
00000000
00000100
00000000
00000010
00000001
00000000
00001000
00000001
00000000
00000101
00000000
00000000
00000000
,  // measure 13
00000000
00000000
00000100
00000000
00001000
00000000
00010000
00001000
00000000
00010000
00000100
00000000
00001000
00000000
00000010
00000100
,  // measure 14
00000010
00000000
00010000
00000000
00001000
00000000
00000000
00100000
00000000
00000000
01000000
00000000
10000000
00000000
00100000
00000000
,  // measure 15
00010000
00000000
00001000
00010000
00000000
00000000
00000000
00000000
00000000
00000000
00011000
00000000
00001000
01000000
00000000
00000000
,  // measure 16
00001000
00010000
00000000
00000000
00011000
00000000
00000000
00001100
00000000
00000000
00000100
00000000
00000001
00000010
00000000
00000000
,  // measure 17
00000001
00000000
00000100
00000000
00001000
00010000
00000000
00001000
00100000
00000000
01000000
00000000
00100000
00000000
00000000
00000000
,  // measure 18
00010000
00000000
01000000
00000000
10000000
01000000
00000000
01000000
00100000
00000000
01000000
00000000
00001000
00010000
00000000
00010000
,  // measure 19
00000100
00001000
00001002
00000000
00000203
00000000
00000320
00000000
,  // measure 20
00002030
00000000
00000000
00000000
00003100
00000000
00000000
00000010
00000000
00000000
00000001
00000000
00000000
00000100
00000000
00000000
,  // measure 21
00001000
00000000
00010000
00000000
00100000
00000000
01000000
00000000
00100000
00000000
10000000
01000000
00000000
00000000
00000000
00000000
,  // measure 22
00000000
00000000
01100000
00000000
00000000
00000000
00010000
10000000
00010000
00000000
01000000
00000000
00001000
00000000
00010000
00000100
,  // measure 23
00000000
00000000
00001000
00000100
00000000
00000000
00000010
00000000
00000100
00000000
00000010
00000000
00000001
00000000
00000100
00000000
,  // measure 24
00001000
00010000
00012000
00000000
00003010
00000000
00002000
00000000
,  // measure 25
00013000
00000000
00000000
00000000
00002000
00000000
00000000
00000000
00003010
00000000
00000000
00000000
00001000
00000000
00000000
00010000
,  // measure 26
00000000
00001000
00021000
00000000
00130000
00000000
00020000
00000000
,  // measure 27
00031000
00000000
00000000
00000000
00020000
00000000
00000000
00000000
00130000
00000000
00000000
00000000
00010000
00000000
00000000
00001000
,  // measure 28
00000000
00000000
00000000
00010000
00000000
00000000
00000010
00000000
00001000
00000000
00000010
00000000
00001000
00000000
00000001
00000000
00000100
00000000
00000020
00000000
00000000
00000000
00001000
00000000
,  // measure 29
00000000
00000030
00000000
00010000
00001000
00010000
00001000
00100000
00010000
00200000
00000000
01000000
,  // measure 30
00300000
10000000
01000000
00010000
00001000
00000010
00000001
00000100
,  // measure 31
00001000
00010000
01000000
00010000
00001000
00000100
00001000
00010000
,  // measure 32
00001000
00000000
00000000
00000000
00011000
00000000
00000000
00000000
00010000
00000000
00000000
01000000
00000000
10000000
01000000
00000000
,  // measure 33
00010000
00000000
00001000
00000000
00010000
00000000
00000100
00000000
00001000
00000000
00000000
00001010
00000000
00000000
00000001
00000000
,  // measure 34
00000000
00000101
00000000
00000000
00001000
00000000
00000000
00000000
00010000
00000000
00000000
00100000
00000000
01000000
00100000
00000000
,  // measure 35
00010000
00000000
00001000
00000000
00000010
00000000
00000100
00000000
00001000
00000000
00000000
00001010
00000000
00000000
00000011
00000000
,  // measure 36
00000001
00000000
00000100
00000000
00001000
00000000
00000000
00000000
00010000
00000000
00000000
00001000
00000000
00010000
00100000
00000000
,  // measure 37
00010000
00000000
00001000
00000000
00100000
00000000
01000000
00000000
11000000
00000000
00000000
10000000
00000000
00000000
01100000
00000000
,  // measure 38
00000000
00100000
00000000
00000000
02020000
00000000
00000000
00000000
03030000
00000000
00010000
00000000
10000000
00000000
01000000
00000000
,  // measure 39
00100000
00000000
00010000
00000000
01000000
00000000
00000000
00000000
01001000
00000000
00000000
00011000
00000000
00000000
00010000
00000000
,  // measure 40
00000100
00000000
00000010
00000000
00000002
00000000
00000000
00000000
00002003
00000000
00000000
00000000
00003000
00000000
00000001
00000010
,  // measure 41
00000001
00000000
00000100
00000000
00001000
00000000
00010000
00000000
00200000
00000000
00000000
00000000
00300000
00000000
10000000
00100000
,  // measure 42
10000000
00000000
01000000
00000000
00010000
00000000
00001000
00000000
00000020
00000000
00000000
00000000
00000030
00000000
00000100
00000010
,  // measure 43
00000100
00000000
00000010
00000000
00000001
00000000
00000100
00000000
00000000
00000000
00001000
00010000
00001000
00000000
00010000
00000000
,  // measure 44
01000000
10000000
00100000
01000000
00010000
00001000
00000010
00000100
,  // measure 45
00000101
00000000
00000000
00000000
00001000
00000100
00000000
00000000
00001000
00000000
00010000
00000000
00100000
00000000
01000000
00000000
,  // measure 46
11000000
00000000
00000000
00000000
00010000
01000000
00000000
00000000
00000000
00000000
00010000
00000000
00100000
00000000
01000000
00000000
,  // measure 47
00010000
00000000
00001000
00000000
00000010
00000000
00000000
00000000
00000001
00000100
00000001
00000100
00000001
00000000
00001000
00000000
,  // measure 48
00000200
00000000
00000000
00000000
00010300
00000000
00001000
00000000
00100000
00000000
00000000
01000000
00000000
00000000
10000000
00000000
,  // measure 49
00100000
00000000
00000000
00010000
00000000
00000000
00001000
00000000
00010000
00000100
00000000
00010000
00000000
00000000
00001000
00000000
,  // measure 50
01000000
00001000
00000000
00010000
00000000
00000000
00002000
00000000
00000000
00000000
00013000
00000000
00000100
00000000
00001000
00000000
,  // measure 51
00000010
00000000
00000100
00000000
00000001
00000000
00001000
00000000
00000100
00000000
00000000
00000100
00000000
00000000
00000100
00000000
,  // measure 52
00000010
00000000
00000001
00000000
00000100
00000000
00001000
00000000
00010000
00000000
00100000
01000000
00000000
00000000
00100000
00000000
,  // measure 53
20100000
00000000
30010000
01000000
00001000
00010000
00000100
00001000
,  // measure 54
00000010
00000000
00010000
00001000
00100000
00010000
01000000
00100000
,  // measure 55
00010000
00001000
00000100
00000010
00001000
00000100
00000010
00000001
,  // measure 56
00000100
00000000
00001000
00000000
00010000
00000000
00000000
00000000
00011000
00000000
00000000
00000000
00001000
00000000
00000000
00000100
,  // measure 57
00000000
00000001
00000100
00000000
00001000
00000000
00010000
00000000
00001000
00000000
01000000
00000000
00010000
00000000
00000000
00110000
,  // measure 58
00000000
00000000
10000000
00000000
00000000
11000000
00000000
00000000
00010000
00000000
00000000
00000000
00001000
00000000
00000000
00000010
,  // measure 59
00000000
00000100
00000010
00000000
00001000
00000000
00010000
00000000
00100000
00000000
01000000
00000000
00010000
00000000
00000000
00110000
,  // measure 60
00000000
00000000
10100000
00000000
10000000
00000000
01000000
00000000
00010000
00000000
00000000
00000000
00001000
00000000
00000000
00010000
,  // measure 61
00000000
00001000
00000010
00000000
00001000
00000000
00010000
00000000
00000010
00000000
00000100
00000000
00000101
00000000
00000000
00000001
,  // measure 62
00000000
00000000
00000110
00000000
00000000
00000010
00000000
00000000
00002200
00000000
00000000
00000000
00003300
00000000
00001000
00000000
,  // measure 63
00000001
00000000
00000100
00000000
00000010
00000000
00001000
00000000
00000100
00000000
00000000
00000000
00010100
00000000
00000000
00011000
,  // measure 64
00000000
00001000
01000000
00100000
10000000
00010000
01010000
00000000
,  // measure 65
00000000
00001000
00011000
00000000
00000000
00000100
00001100
00000001
,  // measure 66
00000010
00000000
00000100
00000000
00001000
00000000
00000000
00011000
00000000
00000000
00000000
00000000
00000000
00000000
00100000
00000000
,  // measure 67
00010000
01000000
00001000
00010000
00000100
00000000
00000110
00000001
,  // measure 68
00000100
00000000
00000000
00001000
00010000
00000000
00001000
00000000
00100000
00000000
00000000
00010000
01000000
00000000
00100000
00000000
,  // measure 69
10000000
01000000
00100000
00010000
01000000
00100000
20000000
00000000
,  // measure 70
30010000
00100000
01000000
00010000
00001000
00000010
00000011
00000000
,  // measure 71
00001010
00000000
00000000
00010000
00000000
00000000
00100000
00000000
01000000
00000000
10000000
00000000
10010000
00000000
00000000
00000000
;
