#VERSION:0.83;
#TITLE:No title (Prod. GIGA);
#SUBTITLE:;
#ARTIST:REOL;
#TITLETRANSLIT:;
#SUBTITLETRANSLIT:;
#ARTISTTRANSLIT:;
#GENRE:J-MUSIC;
#ORIGIN:;
#CREDIT:MUINELIM;
#BANNER:No title (Prod. GIGA).png;
#BACKGROUND:No title (Prod. GIGA)-bg.png;
#PREVIEWVID:;
#JACKET:No title (Prod. GIGA)-jacket.png;
#CDIMAGE:;
#DISCIMAGE:;
#LYRICSPATH:;
#CDTITLE:;
#MUSIC:No title (Prod. GIGA).ogg;
#OFFSET:0.000000;
#SAMPLESTART:47.708000;
#SAMPLELENGTH:14.400002;
#SELECTABLE:YES;
#DISPLAYBPM:200.000000;
#BPMS:0.000=200.000;
#STOPS:;
#DELAYS:;
#WARPS:;
#TIMESIGNATURES:0.000=4=4;
#TICKCOUNTS:0.000=4;
#COMBOS:0.000=1;
#SPEEDS:0.000=1.000=0.000=0;
#SCROLLS:0.000=1.000;
#FAKES:;
#LABELS:0.000=Song Start;
#BGCHANGES:0.000=No title (Prod. GIGA).avi=0.000=1=0=0=StretchNoLoop==CrossFade==,
99999=-nosongbg-=1.000=0=0=0 // don't automatically add -songbackground-
;
#KEYSOUNDS:;
#ATTACKS:
;

//---------------dance-single - ----------------
#NOTEDATA:;
#CHARTNAME:;
#STEPSTYPE:dance-single;
#DESCRIPTION:;
#CHARTSTYLE:;
#DIFFICULTY:Beginner;
#METER:2;
#RADARVALUES:0.089592,0.152549,0.008475,0.084749,0.000000,74.000000,73.000000,1.000000,10.000000,0.000000,0.000000,0.000000,0.000000,0.000000,0.089592,0.152549,0.008475,0.084749,0.000000,74.000000,73.000000,1.000000,10.000000,0.000000,0.000000,0.000000,0.000000,0.000000;
#CREDIT:MILEN;
#DISPLAYBPM:200.000000;
#NOTES:
0000
0000
0000
0000
,
0000
0000
0000
0000
,
0000
0000
0000
0000
,
0000
0000
0000
0000
,
0000
0000
0000
0000
,
0000
0000
0000
0000
,
0000
0000
0000
0000
,
0000
0000
0000
0000
,
1000
0000
0000
0000
,
1000
0000
0000
0000
,
1000
0000
0000
0000
,
1000
0000
0000
0000
,
0001
0000
0000
0000
,
0001
0000
0000
0000
,
0001
0000
0000
0000
,
0001
0000
0000
0000
,
1000
0000
0000
0000
,
1000
0000
0000
0000
,
0001
0000
0000
0000
,
0001
0000
0000
0000
,
1000
0000
0000
0000
,
0001
0000
0000
0000
,
1000
0000
0000
0000
,
0001
0000
0000
0000
,
1000
0000
0000
0000
,
1000
0000
0000
0000
,
0100
0000
0000
0000
,
0100
0000
0000
0000
,
0010
0000
0000
0000
,
0010
0000
0000
0000
,
0001
0000
0000
0000
,
0001
0000
0000
0000
,
1000
0000
0000
0000
,
1000
0000
0000
0000
,
0010
0000
0000
0000
,
0010
0000
0000
0000
,
0100
0000
0000
0000
,
0100
0000
0000
0000
,
0001
0000
0000
0000
,
0001
0000
0000
0000
,
2000
0000
0000
0000
,
3000
0000
0000
0000
,
0002
0000
0000
0000
,
0003
0000
0000
0000
,
1000
0000
0000
0000
,
0001
0000
0000
0000
,
1000
0000
0000
0000
,
0001
0000
0000
0000
,
0200
0000
0000
0000
,
0300
0000
0000
0000
,
0020
0000
0000
0000
,
0030
0000
0000
0000
,
0100
0000
0000
0000
,
0010
0000
0000
0000
,
0100
0000
0000
0000
,
0010
0000
0000
0000
,
2000
0000
0000
0000
,
3000
0000
0000
0000
,
0002
0000
0000
0000
,
0003
0000
0000
0000
,
1000
0000
0000
0000
,
0001
0000
0000
0000
,
1000
0000
0000
0000
,
0001
0000
0000
0000
,
0020
0000
0000
0000
,
0030
0000
0000
0000
,
0200
0000
0000
0000
,
0300
0000
0000
0000
,
0010
0000
0000
0000
,
0100
0000
0000
0000
,
0010
0000
0000
0000
,
0100
0000
0000
0000
,
1000
0000
0000
0000
,
1000
0000
0000
0000
,
0010
0000
0000
0000
,
0010
0000
0000
0000
,
0001
0000
0000
0000
,
0001
0000
0000
0000
,
0100
0000
0000
0000
,
0100
0000
0000
0000
,
1000
0000
0000
0000
,
1000
0000
0000
0000
,
0010
0000
0000
0000
,
0010
0000
0000
0000
,
0001
0000
0000
0000
,
0001
0000
0000
0000
,
0100
0000
0000
0000
,
0100
0000
0000
0000
,
2002
0000
0000
0000
,
0000
0000
0000
0000
,
3003
0000
0000
0000
;

//---------------dance-single - ----------------
#NOTEDATA:;
#CHARTNAME:;
#STEPSTYPE:dance-single;
#DESCRIPTION:;
#CHARTSTYLE:;
#DIFFICULTY:Easy;
#METER:6;
#RADARVALUES:0.236087,0.381372,0.084749,0.144074,0.000000,195.000000,185.000000,10.000000,17.000000,0.000000,0.000000,0.000000,0.000000,0.000000,0.236087,0.381372,0.084749,0.144074,0.000000,195.000000,185.000000,10.000000,17.000000,0.000000,0.000000,0.000000,0.000000,0.000000;
#CREDIT:MILEN;
#DISPLAYBPM:200.000000;
#NOTES:
0000
0000
0000
0000
,
0000
0000
0000
0000
,
0000
0000
0000
0000
,
0000
0000
0000
0000
,
0000
0000
0000
0000
,
0000
0000
0000
0000
,
0000
0000
0000
0000
,
0000
0000
0000
0000
,
1000
0000
1000
0000
,
0001
0000
0001
0000
,
1000
0000
0001
0000
,
1000
0000
0001
0000
,
0100
0000
0100
0000
,
0010
0000
0010
0000
,
0100
0000
0010
0000
,
0100
0000
0010
0000
,
0000
1000
0000
1000
,
0001
0000
1000
1000
,
0000
0001
0000
0001
,
1000
0000
0001
0001
,
0000
1000
0100
0000
,
1000
0000
0001
0100
,
0000
0001
0010
0000
,
0001
0000
1000
0010
,
1000
0000
0100
0000
,
0010
0000
0001
0000
,
1000
0000
0100
0000
,
0010
0100
0010
0000
,
0001
0000
0010
0000
,
0100
0000
1000
0000
,
0001
0000
0010
0000
,
0100
0010
0100
0000
,
1000
0000
0010
0000
,
0100
0000
0001
0000
,
1000
0000
0010
0000
,
0100
0010
0100
0000
,
0001
0000
1000
0000
,
0010
0100
0010
0000
,
1000
0000
0001
0000
,
0100
0010
0100
0000
,
0002
0000
0003
1000
,
0001
0000
1000
0001
,
2000
0000
3000
0001
,
1000
0000
0000
0010
,
0010
0100
0001
0000
,
0100
0010
1000
0000
,
0010
0100
0001
1000
,
0010
0100
0110
0000
,
2000
0000
3000
0001
,
1000
0000
0001
1000
,
0002
0000
0003
1000
,
0001
0000
0000
0000
,
1001
0000
1000
0100
,
1000
0001
0010
0001
,
0100
0010
0100
0010
,
0200
0300
0020
0030
,
2000
0000
3000
0001
,
0200
0000
0300
0001
,
0020
0000
0030
0001
,
0200
0000
0300
0001
,
0010
0100
1000
0000
,
0100
0010
0001
0000
,
1000
0010
0100
0001
,
1000
0010
0110
0000
,
0002
0000
0003
1000
,
0020
0000
0030
1000
,
0200
0000
0300
1000
,
0020
0000
0030
1000
,
0001
0100
0001
1000
,
0010
1000
0001
0100
,
0010
1000
0001
0100
,
0020
0000
0000
0030
,
1000
0000
0000
0000
,
1100
0000
0000
0000
,
0001
0000
0000
0000
,
0011
0000
0000
0000
,
1000
0000
0000
0000
,
1010
0000
0000
0000
,
0001
0000
0000
0000
,
0101
0000
0000
0000
,
1000
0000
0000
0000
,
1001
0000
0000
0000
,
0010
0000
0000
0000
,
0110
0000
0000
0000
,
1000
0001
0100
0000
,
0001
1000
0010
0000
,
1000
0001
0100
0001
,
1000
0010
1000
0001
,
2002
0000
0000
0000
,
0000
0000
0000
0000
,
3003
0000
0000
0000
;

//---------------dance-single - ----------------
#NOTEDATA:;
#CHARTNAME:;
#STEPSTYPE:dance-single;
#DESCRIPTION:;
#CHARTSTYLE:;
#DIFFICULTY:Medium;
#METER:10;
#RADARVALUES:0.416483,0.533921,0.228823,0.084749,0.000000,344.000000,317.000000,27.000000,10.000000,0.000000,0.000000,0.000000,0.000000,0.000000,0.416483,0.533921,0.228823,0.084749,0.000000,344.000000,317.000000,27.000000,10.000000,0.000000,0.000000,0.000000,0.000000,0.000000;
#CREDIT:MILEN;
#DISPLAYBPM:200.000000;
#NOTES:
0000
0000
0000
0000
,
0000
0000
0000
0000
,
0000
0000
0000
0000
,
0000
0000
0000
0000
,
0000
0000
0000
0000
,
0000
0000
0000
0000
,
0000
0000
0000
0000
,
0000
0000
0000
1000
,
0001
0100
0010
1000
,
0001
0000
0100
0100
0000
0000
0001
0000
,
1000
0010
0100
0001
,
1000
0000
0010
0010
0100
0000
0000
0000
,
0001
0010
0100
1000
,
0001
0010
0100
1000
,
0100
0010
0001
1000
,
0100
0000
0010
0000
0001
0001
1000
0000
,
0000
1010
0000
1010
,
1000
0100
1000
0000
0001
0000
0010
0000
,
0000
0011
0000
0011
,
0001
0100
0001
0000
1000
0000
0010
0000
,
0000
1000
0100
0010
,
0001
0000
0010
0000
0100
1000
0100
0000
,
0000
1000
0010
0100
,
0001
0000
0100
0000
0010
0000
1000
1000
,
0000
0000
0010
0000
0100
0000
0001
0001
,
0000
0000
0010
0000
0100
0000
1000
1000
,
0000
0000
0100
0000
0010
0000
0001
0001
,
0000
0000
1000
0000
0010
0000
0100
0100
,
0000
0000
0001
0000
0100
0000
0010
0010
,
0000
0000
1000
0000
0100
0000
0010
0010
,
0000
0000
0001
0000
0010
0000
0100
1000
,
0100
0000
0010
0001
0010
0000
0100
0100
,
0000
0000
1000
0000
0001
0000
0010
0010
,
0000
0000
0001
0000
1000
0000
0010
0010
,
0000
1000
0001
0100
,
0010
0100
0010
0100
0010
0000
1000
0000
,
0001
0010
0100
1000
,
0001
0010
0001
0000
0100
0000
0001
0000
,
1000
0100
0010
0001
,
1000
0100
1000
0000
0010
0000
0100
0001
,
0100
0000
0000
0010
0000
0000
0100
0002
,
0000
0000
0003
0000
1000
0010
1000
0000
,
0001
0000
0000
1000
0000
0000
0001
0200
,
0000
0000
0000
0300
0000
0010
1000
0010
,
1000
0100
0010
0001
,
0100
0010
1000
0001
,
0010
0100
1000
0010
,
0100
0000
0001
0000
1001
0000
0100
1000
,
0100
0000
0000
0010
0000
0000
0100
2000
,
0000
0000
3000
0000
0001
0010
0001
0000
,
1000
0000
0000
0001
0000
0000
0010
0200
,
0000
0000
0000
0000
0300
0000
1000
0010
,
0100
0000
0001
0100
0010
0000
1000
0000
,
0001
0010
0100
1000
,
0001
0100
0010
1000
,
2200
3300
0022
0033
,
0001
0000
0000
0100
0000
0000
1000
0100
,
1000
0000
0000
0100
0000
0000
0001
0010
,
0001
0000
0000
0100
0000
0000
1000
0100
,
1000
0000
0000
0100
0000
0000
0001
0010
,
0100
1000
0010
0100
,
0001
1000
0100
0010
,
0001
0100
0010
1000
,
0001
0000
0010
0000
0110
0000
1000
0010
,
1000
0000
0000
0010
0000
0000
0001
0100
,
0001
0000
0000
0010
0000
0000
1000
0010
,
1000
0000
0000
0010
0000
0000
0001
0100
,
0001
0000
0000
0010
0000
0000
1000
0100
,
0010
0000
0001
0010
0100
0000
1000
0000
,
0010
0100
0001
1000
,
0100
0010
0001
0100
,
0010
1000
0010
0000
0100
0001
0100
0000
,
0001
0000
0000
0010
0000
0000
0011
0000
,
1000
0000
0000
0100
0000
0000
1100
0000
,
0001
0000
0000
0100
0000
0000
0101
0000
,
1000
0000
0000
0010
0000
1000
0010
0000
,
0100
0000
0000
0001
0000
0000
0011
0000
,
0010
0000
0000
0100
0000
0000
1100
0000
,
1000
0000
0000
0010
0000
0000
0110
0000
,
0100
0001
1000
0000
0010
1000
0001
0000
,
0010
0000
0000
0100
0000
0000
1100
0000
,
1000
0000
0000
0010
0000
0000
0110
0000
,
0100
0000
0000
0001
0000
0000
0011
0000
,
0010
0000
0000
0100
0000
0000
1000
0000
,
1001
0000
0000
0101
0000
0000
0011
0000
,
1001
0000
0000
1010
0000
0000
1100
0000
,
1010
0000
0000
0101
0000
0000
0110
0000
,
1000
0100
0001
0000
0001
0010
1000
0000
,
2002
0000
0000
0000
,
0000
0000
0000
0000
,
3003
0000
0000
0000
;

//---------------dance-single - ----------------
#NOTEDATA:;
#CHARTNAME:;
#STEPSTYPE:dance-single;
#DESCRIPTION:;
#CHARTSTYLE:;
#DIFFICULTY:Hard;
#METER:14;
#RADARVALUES:0.623513,0.686470,0.559346,0.237298,0.000000,515.000000,449.000000,66.000000,28.000000,0.000000,0.000000,0.000000,0.000000,0.000000,0.623513,0.686470,0.559346,0.237298,0.000000,515.000000,449.000000,66.000000,28.000000,0.000000,0.000000,0.000000,0.000000,0.000000;
#CREDIT:MILEN;
#DISPLAYBPM:200.000000;
#NOTES:
0000
0000
0000
0000
,
0000
0000
0000
0000
,
0000
0000
0000
0000
,
0000
0000
0000
0000
,
0000
0000
0000
0000
,
0000
0000
0000
0000
,
0000
0000
0000
0000
,
0000
0000
0000
0000
0000
1000
0001
1000
,
0001
0010
0100
1000
0010
0100
0001
0010
,
0100
1000
0010
0010
0000
0100
0001
0010
,
0100
1000
0100
0010
0100
1000
0100
0010
,
0100
1000
0100
0010
0011
0000
0000
0001
,
0100
0010
0100
0001
0010
0001
0100
0100
,
0010
1000
0010
0100
0001
0100
0010
0010
,
1000
0100
1000
0010
0100
0010
1000
1000
,
0100
0010
0001
1000
0100
0010
0110
0000
,
0000
2002
3003
1001
,
0001
0100
0010
1000
0001
0100
0100
0000
,
0000
0220
0330
0110
,
0010
1000
0001
0100
0010
1000
1000
0000
,
0000
0100
1000
0100
0010
0001
0010
0100
,
0010
0001
0100
0010
1000
0100
0110
0000
,
0000
0010
0100
1000
0001
0010
0100
0010
,
0001
1000
0100
0010
0001
0100
0010
2010
,
0000
3100
1000
0001
0000
0010
0000
0011
,
0000
0010
0001
1000
0000
0100
0000
1100
,
0000
0100
1000
0001
0100
0001
1000
0100
,
0000
0100
0010
0001
0100
0000
0110
0010
,
0000
1000
0010
0100
0001
0000
0010
0010
,
0000
0001
0100
0010
1000
0000
0100
0100
,
0000
1000
0010
0100
0001
0100
0010
1000
,
0200
0000
0310
0001
0200
0000
0310
0010
,
0000
1000
0001
0000
0101
0000
0001
1000
,
0000
1010
0000
1000
0001
0000
0010
0100
,
0000
1100
0000
0011
0000
0001
0100
0010
,
1000
0100
0010
0001
0000
0000
0010
0110
,
0000
0011
0000
1100
0000
0000
1000
0010
,
0100
0010
1000
0000
1001
0000
0001
0200
,
0000
0301
0010
0100
1000
0001
0100
0010
,
1000
0100
0010
0001
1001
0000
1000
0010
,
0200
0000
0000
1000
0000
0000
0301
0100
,
0020
0000
0000
0001
0000
0000
1030
0100
,
0020
0000
0000
1000
0000
0000
0031
0010
,
0200
0000
0000
0001
0000
1300
0100
0010
,
0001
1000
0100
0010
0001
0101
0000
0100
,
0010
1000
0100
0010
0000
0001
0100
1000
,
0100
0001
0010
0100
0001
0100
0010
0001
,
0100
0010
1000
1001
0000
0000
0001
0100
,
0020
0000
0000
0001
0000
0000
1030
0010
,
0200
0000
0000
1000
0000
0000
0301
0010
,
0200
0000
0000
0001
0000
0000
1300
0100
,
0020
0000
0000
1000
0000
0000
0031
0100
,
0010
0000
0001
0010
1000
0100
1000
0010
,
0001
0010
1000
0100
0010
1000
0010
0001
,
0100
1000
0100
0010
1000
0100
0010
0001
,
2000
0000
3100
1000
0002
0000
0013
0001
,
0200
0000
0000
1000
0000
0000
0301
0010
,
0200
0000
0000
0000
1300
0010
0001
0010
,
2000
0000
0000
0100
0000
0000
3001
0100
,
0020
0000
0000
0001
0000
1030
0010
0100
,
0001
1000
0010
0100
0001
0011
0000
0010
,
0100
1000
0010
0100
0000
0001
0010
1000
,
0010
0001
0100
0010
0001
0010
0100
0001
,
0010
0100
1000
1001
0000
0000
0001
0100
,
2000
0000
0000
0001
0000
0000
3100
0001
,
0020
0000
0000
0000
1030
0010
0001
0100
,
2000
0000
0000
0001
0000
0000
3100
0001
,
0020
0000
0000
1000
0000
0000
0031
0100
,
1000
0000
0100
0001
0010
0100
0001
0100
,
1000
0001
0010
1000
0010
0100
1000
0010
,
0001
0010
0100
1000
0100
0001
0010
0100
,
1000
0010
0001
1000
0100
0001
0010
0100
,
0110
0000
0000
0011
0000
0000
1010
0000
,
0110
0000
0000
1100
0000
0000
0101
0000
,
1001
0000
0000
1010
0000
0000
0011
0000
,
1100
0000
0000
0101
0000
0001
1000
0000
,
1010
0000
0000
0011
0000
0000
0110
0000
,
0101
0000
0000
1100
0000
0000
0110
0000
,
1010
0000
0000
1001
0000
0000
0101
0000
,
0100
0010
1000
0001
0010
0100
1000
0000
,
1010
0000
0000
0011
0000
0000
1100
0000
,
0101
0000
0000
1100
0000
0000
0011
0000
,
1010
0000
0000
1100
0000
0000
0101
0000
,
1010
0000
0000
0011
0000
0000
0101
0000
,
1100
0000
1000
1010
0000
0000
0101
0000
,
0011
0000
0001
0101
0000
0000
1010
0000
,
1001
0000
0100
0110
0000
0000
1010
0000
,
1000
0100
0001
1000
0010
0001
0100
0010
,
0220
0000
0000
0000
,
0000
0000
0000
0000
,
0330
0000
0000
0000
;

//---------------dance-double - ----------------
#NOTEDATA:;
#CHARTNAME:;
#STEPSTYPE:dance-double;
#DESCRIPTION:;
#CHARTSTYLE:;
#DIFFICULTY:Hard;
#METER:14;
#RADARVALUES:0.596878,0.686470,0.432222,0.652570,0.000000,493.000000,442.000000,51.000000,77.000000,0.000000,0.000000,0.000000,0.000000,0.000000,0.596878,0.686470,0.432222,0.652570,0.000000,493.000000,442.000000,51.000000,77.000000,0.000000,0.000000,0.000000,0.000000,0.000000;
#CREDIT:MILEN;
#DISPLAYBPM:200.000000;
#NOTES:
// measure 0
00000000
00000000
00000000
00000000
,  // measure 1
00000000
00000000
00000000
00000000
,  // measure 2
00000000
00000000
00000000
00000000
,  // measure 3
00000000
00000000
00000000
00000000
,  // measure 4
00000000
00000000
00000000
00000000
,  // measure 5
00000000
00000000
00000000
00000000
,  // measure 6
00000000
00000000
00000000
00000000
,  // measure 7
00000000
00000000
00000000
00000000
00000000
00001000
00010000
00001000
,  // measure 8
00010000
00000100
00001000
00000100
00010000
00001000
00010000
00000010
,  // measure 9
00001000
00000010
00010000
00010000
00000000
00001000
00100000
00010000
,  // measure 10
00100000
01000000
00100000
00010000
00100000
01000000
00100000
00010000
,  // measure 11
00100000
01000000
10000000
00100000
01100000
00000000
00000000
01000000
,  // measure 12
00001000
00010000
00001000
01000000
00010000
01000000
00001000
00001000
,  // measure 13
00010000
00000010
00010000
00001000
00100000
00001000
00010000
00010000
,  // measure 14
00000100
00001000
00000100
00010000
00001000
00010000
00000100
00000100
,  // measure 15
00000010
00000001
00001000
00000100
00000010
00001000
00010000
00000000
,  // measure 16
00000000
00022000
00033000
00011000
,  // measure 17
00001000
00010000
01000000
10000000
00100000
00010000
00001000
00000000
,  // measure 18
00000000
00022000
00033000
00011000
,  // measure 19
00010000
00001000
00000100
00000001
00000010
00001000
00010000
00000000
,  // measure 20
00000000
00001000
00100000
00010000
00100000
01000000
10000000
00100000
,  // measure 21
01000000
00001000
01000000
00100000
10000000
01000000
01100000
00000000
,  // measure 22
00000000
00100000
00010000
01000000
00001000
00010000
00000010
00010000
,  // measure 23
00001000
01000000
00100000
00010000
00001000
00000100
00000010
00002000
,  // measure 24
00000000
00003010
00000100
00000001
00000000
00000011
00000000
00001100
,  // measure 25
00000000
00001000
00000100
00010000
00000000
00010010
00000000
01001000
,  // measure 26
00000000
00001000
00100000
00010000
00100000
00001000
00010000
00100000
,  // measure 27
00000000
10000000
01000000
00100000
00010000
00000000
20020000
30030000
,  // measure 28
00000000
10000000
00100000
01000000
00010000
00000000
00100000
01000000
,  // measure 29
00000000
00010000
00001000
00000010
00000100
00000000
00001000
00000001
,  // measure 30
00000000
00000100
00000010
00010000
00000010
00000100
00000001
00000010
,  // measure 31
00001100
00000000
00001000
00000100
00020000
00000000
00031000
00100000
,  // measure 32
00000000
00010000
01000000
00000000
01100000
00000000
00100000
10000000
,  // measure 33
00000000
11000000
00000000
01000000
00100000
00000000
00010000
01000000
,  // measure 34
00000000
01001000
00000000
00010010
00000000
00000010
00001000
00000100
,  // measure 35
00000010
00000100
00001000
00000001
00000000
00000000
00000100
00000110
,  // measure 36
00000000
00001010
00000000
00011000
00000000
00000000
00010000
00100000
,  // measure 37
01000000
00100000
00010000
00000000
00011000
00000000
00001000
00200000
,  // measure 38
00000000
00310000
00100000
01000000
10000000
00010000
01000000
00001000
,  // measure 39
00010000
00000010
00001000
00000100
00000010
00000001
00000100
00001000
,  // measure 40
00020000
00000000
00000000
00000000
00000000
00000000
00130000
20000000
,  // measure 41
00000000
00000000
00000000
00000000
30100000
00010000
00001000
00000100
,  // measure 42
00000002
00000000
00000000
00000000
00000000
00000000
00000103
00002000
,  // measure 43
00000000
00000000
00000000
00000000
00000000
00013000
01000000
10000000
,  // measure 44
01000000
00010000
00001000
00100000
01000000
10000000
00000000
10000000
,  // measure 45
00100000
00010000
00001000
00100000
00000000
00100000
01000000
10000000
,  // measure 46
00100000
01000000
00010000
00100000
00001000
00010000
00000100
00001000
,  // measure 47
00000010
00000100
00000001
00001000
00000000
00000000
00001000
00000100
,  // measure 48
00000020
00000000
00000000
00000000
00000000
00000000
00000031
00000200
,  // measure 49
00000000
00000000
00000000
00000000
00001300
00010000
00100000
10000000
,  // measure 50
02000000
00000000
00000000
00000000
00000000
00000000
03010000
00002000
,  // measure 51
00000000
00000000
00000000
00000000
00000000
00000000
00003010
00000001
,  // measure 52
00000100
00000000
00000100
00001000
00000100
00000010
00001000
00000100
,  // measure 53
00000010
00001000
00010000
01000000
00100000
00010000
01000000
00100000
,  // measure 54
00010000
00100000
10000000
01000000
00100000
00010000
01000000
00001000
,  // measure 55
00021000
00000000
00030010
00000000
00012000
00000000
01003000
00100000
,  // measure 56
20200000
30300000
00000000
22000000
33000000
00000000
01000000
00010000
,  // measure 57
00022000
00000000
00033000
00000000
00001000
00000100
00000001
00000010
,  // measure 58
00000220
00000330
00000000
00002200
00003300
00000000
00001000
00000100
,  // measure 59
00020200
00030300
00000000
01001000
00000000
00001000
00000100
00000001
,  // measure 60
00000100
00001000
00010000
00000010
00000100
00000001
00000000
00000001
,  // measure 61
00000010
00001000
00010000
00000010
00000000
00000010
00000100
00000001
,  // measure 62
00000010
00000100
00001000
00000010
00010000
00001000
01000000
00010000
,  // measure 63
00100000
01000000
10000000
00100000
00000000
00000000
00100000
10000000
,  // measure 64
22000000
33000000
00000000
20200000
30300000
00000000
00100000
00010000
,  // measure 65
00022000
00000000
00033000
00000000
00001000
00000010
00000001
00000100
,  // measure 66
00002200
00003300
00000000
00022000
00033000
00000000
00010000
00100000
,  // measure 67
20200000
30300000
00000000
02020000
03030000
00000000
00010000
00100000
,  // measure 68
01000000
00000000
01000000
00010000
00001000
00100000
01000000
00100000
,  // measure 69
00010000
01000000
00100000
00010000
00001000
00000100
00000010
00001000
,  // measure 70
00000100
00000010
00001000
00010000
00001000
00000100
00000001
00000010
,  // measure 71
00001000
00010000
01000000
10000000
00100000
00010000
00001000
00000100
,  // measure 72
00000002
00000000
00000003
00002000
00000000
00003000
00000100
00010000
,  // measure 73
00002000
00000000
00003000
00200000
00000000
00000000
00310000
00000000
,  // measure 74
20010000
00000000
30000000
00020000
00000000
00030000
00100000
00001000
,  // measure 75
00020000
00000000
00030000
00000200
00000000
00000000
00001300
00000000
,  // measure 76
00001002
00000000
00000003
00000200
00000000
00000300
00001000
00010000
,  // measure 77
02000000
00000000
03000000
20000000
00000000
00000000
30100000
00000000
,  // measure 78
20010000
00000000
30000000
02000000
00000000
03000000
00010000
00001000
,  // measure 79
00100000
00001000
00010000
00000010
00010000
00001000
00000100
00000000
,  // measure 80
00000202
00000300
00000000
00000020
00000003
00000000
00001030
00010000
,  // measure 81
02020000
00030000
00000000
20000000
03000000
00000000
30100000
00000000
,  // measure 82
22000000
03000000
00000000
00200000
30000000
00000000
00310000
00001000
,  // measure 83
00002200
00003000
00000000
00000002
00000300
00000000
00000013
00000000
,  // measure 84
00001001
00000000
00000000
00022000
00033000
00000000
00000000
00000000
,  // measure 85
10010000
00000000
00000000
00022000
00033000
00000000
00000000
00000000
,  // measure 86
00001001
00000000
00000100
00011000
00000000
00100000
10010000
00000000
,  // measure 87
10000000
01000000
00100000
00010000
00001000
00000100
00000010
00000001
,  // measure 88
00002002
00000000
00000000
00000000
,  // measure 89
00000000
00000000
00000000
00000000
,  // measure 90
00003003
00000000
00000000
00000000
;

//---------------dance-double - ----------------
#NOTEDATA:;
#CHARTNAME:;
#STEPSTYPE:dance-double;
#DESCRIPTION:;
#CHARTSTYLE:;
#DIFFICULTY:Easy;
#METER:6;
#RADARVALUES:0.204609,0.381372,0.067799,0.135599,0.000000,169.000000,161.000000,8.000000,16.000000,0.000000,0.000000,0.000000,0.000000,0.000000,0.204609,0.381372,0.067799,0.135599,0.000000,169.000000,161.000000,8.000000,16.000000,0.000000,0.000000,0.000000,0.000000,0.000000;
#CREDIT:MILEN;
#DISPLAYBPM:200.000000;
#NOTES:
00000000
00000000
00000000
00000000
,
00000000
00000000
00000000
00000000
,
00000000
00000000
00000000
00000000
,
00000000
00000000
00000000
00000000
,
00000000
00000000
00000000
00000000
,
00000000
00000000
00000000
00000000
,
00000000
00000000
00000000
00000000
,
00000000
00000000
00000000
00000000
,
10000000
00000000
10000000
00000000
,
00010000
00000000
00010000
00000000
,
10000000
00000000
00010000
00000000
,
10000000
00000000
00010000
00000000
,
00001000
00000000
00001000
00000000
,
00000001
00000000
00000001
00000000
,
00001000
00000000
00000001
00000000
,
00001000
00000000
00000001
00000000
,
00000000
00001000
00000000
00001000
,
00010000
00000000
10000000
10000000
,
00000000
00010000
00000000
00010000
,
00001000
00000000
00000001
00000001
,
00000000
00000100
00000100
00000000
,
00001000
00000000
00010000
00010000
,
00000000
00100000
00100000
00000000
,
00010000
00000000
00001000
00001000
,
00000100
00000000
00000001
00000000
,
00000010
00000000
00001000
00000000
,
00010000
00000000
01000000
00000000
,
10000000
00000000
00100000
00000000
,
10000000
00000000
01000000
00000000
,
00010000
00000000
00001000
00000000
,
00000010
00000000
00000001
00000000
,
00000100
00000000
00000001
00000000
,
00000010
00000000
00001000
00000000
,
00010000
00000000
00100000
00000000
,
10000000
00000000
01000000
00000000
,
10000000
00000000
00100000
00000000
,
00010000
00000000
00001000
00000000
,
00000100
00000000
00000001
00000000
,
00000010
00000000
00000001
00000000
,
00000100
00000000
00001000
00000000
,
00020000
00000000
00030000
00001000
,
00001000
00000000
00010000
00001000
,
00020000
00000000
00030000
00001000
,
00001000
00000000
00000000
00010000
,
00100000
00000000
10000000
00000000
,
01000000
00000000
00010000
00000000
,
00001000
00000000
00000010
00000000
,
00000001
00000100
00001000
00000000
,
00002000
00000000
00003000
00010000
,
00010000
00000000
00001000
00010000
,
00002000
00000000
00003000
00010000
,
00010000
00000000
00000000
00000000
,
00011000
00000000
00001000
00000000
,
00000100
00000000
00000001
00000000
,
00000010
00000000
00001000
00000000
,
00010000
00000000
01000000
00000000
,
20000000
00000000
30000000
00010000
,
02000000
00000000
03000000
00001000
,
00020000
00000000
00030000
00000010
,
00002000
00000000
00003000
00000001
,
00000100
00000000
00001000
00000000
,
00100000
00000000
10000000
00000000
,
01000000
00000000
00010000
00000000
,
00001000
00000000
00000010
00000000
,
00000002
00000000
00000003
00001000
,
00000200
00000000
00000300
00010000
,
00002000
00000000
00003000
00100000
,
00020000
00000000
00030000
10000000
,
01000000
00000000
00010000
00000000
,
00001000
00000000
00000010
00000000
,
00000001
00000000
00000100
00000000
,
00002000
00000000
00020000
00033000
,
00010000
00000000
00000000
00000000
,
00010010
00000000
00000000
00000000
,
00001000
00000000
00000000
00000000
,
00101000
00000000
00000000
00000000
,
00010000
00000000
00000000
00000000
,
00010100
00000000
00000000
00000000
,
00001000
00000000
00000000
00000000
,
01001000
00000000
00000000
00000000
,
00010000
00000000
00000000
00000000
,
00011000
00000000
00000000
00000000
,
00001000
00000000
00000000
00000000
,
00011000
00000000
00000000
00000000
,
00010000
00000010
00010000
00000000
,
00001000
01000000
00001000
00000000
,
00010000
00001000
00100000
00001000
,
00010000
00000100
00010000
00001000
,
00022000
00000000
00000000
00000000
,
00000000
00000000
00000000
00000000
,
00033000
00000000
00000000
00000000
;

//---------------dance-double - ----------------
#NOTEDATA:;
#CHARTNAME:;
#STEPSTYPE:dance-double;
#DESCRIPTION:;
#CHARTSTYLE:;
#DIFFICULTY:Medium;
#METER:10;
#RADARVALUES:0.397111,0.495784,0.093224,0.152549,0.000000,328.000000,317.000000,11.000000,18.000000,0.000000,0.000000,0.000000,0.000000,0.000000,0.397111,0.495784,0.093224,0.152549,0.000000,328.000000,317.000000,11.000000,18.000000,0.000000,0.000000,0.000000,0.000000,0.000000;
#CREDIT:MILEN;
#DISPLAYBPM:200.000000;
#NOTES:
00000000
00000000
00000000
00000000
,
00000000
00000000
00000000
00000000
,
00000000
00000000
00000000
00000000
,
00000000
00000000
00000000
00000000
,
00000000
00000000
00000000
00000000
,
00000000
00000000
00000000
00000000
,
00000000
00000000
00000000
00000000
,
00000000
00000000
00000000
00000001
,
00000100
00000010
00001000
00000100
,
00010000
00000000
00001000
00001000
00000000
00000000
00100000
00000000
,
00010000
01000000
00100000
10000000
,
00010000
00000000
00100000
01000000
00100000
00000000
00000000
00000000
,
01000000
10000000
00100000
01000000
,
00010000
00100000
00001000
00010000
,
00000100
00001000
00000010
00000100
,
00000001
00000000
00001000
00000000
00000100
00000010
00000100
00000000
,
00000000
00001100
00000000
00001100
,
00001000
00000001
00001000
00000000
00000100
00000000
00010000
00000000
,
00000000
00011000
00000000
00011000
,
00001000
00100000
00001000
00000000
00010000
00000000
00000010
00000000
,
00000000
00001000
00000100
00010000
,
00001000
00000000
00100000
00000000
00010000
01000000
00010000
00000000
,
00000000
10000000
00100000
01000000
,
00010000
00100000
01000000
10000000
,
00200000
01300000
00010000
00100000
,
00002000
00013000
00000100
00001000
,
00000020
00000130
00000001
00001000
,
00000200
00000310
00000001
00000100
,
00000020
00001030
00000100
00010000
,
00002000
00103000
00010000
01000000
,
00200000
00000000
10300000
00000000
01000000
00000000
00100000
00010000
,
00100000
00000000
01000000
10000000
01000000
00000000
00020000
00000000
,
00031000
00000010
00000001
00000200
,
00001300
00010000
00100000
20000000
,
31000000
00010000
00001000
00000010
,
00000001
00000100
00000001
00000100
00000001
00000000
00001000
00000000
,
00000010
00010000
00001000
00100000
,
01000000
00100000
01000000
00000000
10000000
00000000
00100000
00000000
,
01000000
00001000
00010000
00000100
,
00000010
00000100
00000010
00000000
00000001
00000000
00000100
00001000
,
00010000
00000000
00000000
00010000
00000000
00000000
00010000
02000000
,
00000000
00000000
03000000
00000000
01000000
00010000
00001000
00000000
,
00010000
00000000
00000000
00010000
00000000
00000000
00010000
00002000
,
00000000
00000000
00000000
00003000
00000000
00000100
00000001
00000010
,
00000001
00000100
00001000
00010000
,
00001000
00000100
00001000
00010000
,
00100000
00010000
00001000
00010000
,
00100000
00000000
10000000
00000000
10010000
00000000
01000000
00010000
,
00001000
00000000
00000000
00001000
00000000
00000000
00001000
00000200
,
00000000
00000000
00000300
00000000
00000100
00001000
00010000
00000000
,
00001000
00000000
00000000
00001000
00000000
00000000
00001000
00020000
,
00000000
00000000
00000000
00000000
00030000
00000000
00100000
10000000
,
00100000
00000000
01000000
00010000
01000000
00000000
00001000
00000000
,
00010000
00000010
00001000
00000100
,
00000010
00000001
00000010
00001000
,
00020000
00000000
00002000
00033000
,
00010000
00000000
00000000
01000000
00000000
00000000
10000000
00100000
,
10000000
00000000
00000000
01000000
00000000
00000000
00010000
00001000
,
00010000
00000000
00000000
01000000
00000000
00000000
10000000
00100000
,
10000000
00000000
00000000
01000000
00000000
00000000
00010000
00001000
,
00010000
01000000
10000000
00100000
,
00010000
00100000
01000000
00010000
,
00100000
01000000
00010000
00001000
,
00000010
00000000
00000100
00000000
00010000
00000000
00001000
00010000
,
00001000
00000000
00000000
00000100
00000000
00000000
00000001
00000010
,
00000001
00000000
00000000
00000100
00000000
00000000
00001000
00010000
,
00001000
00000000
00000000
00000100
00000000
00000000
00000001
00000010
,
00000001
00000000
00000000
00000100
00000000
00000000
00001000
00010000
,
00100000
00000000
00010000
00001000
00000100
00000000
00001000
00000000
,
00010000
00100000
10000000
01000000
,
00100000
00010000
01000000
00001000
,
00010000
00000100
00010000
00000000
00001000
00100000
00001000
00000000
,
00010000
00000000
00000000
00001000
00000000
00000000
00000100
00000000
,
00000001
00000000
00000000
00000010
00000000
00000000
00001000
00000000
,
00010000
00000000
00000000
01000000
00000000
00000000
10000000
00000000
,
00100000
00000000
00000000
00010000
00000000
00001000
00010000
00000000
,
00100000
00000000
00000000
10000000
00000000
00000000
01000000
00000000
,
00010000
00000000
00000000
00001000
00000000
00000000
00000010
00000000
,
00000001
00000000
00000000
00000100
00000000
00000000
00001000
00000000
,
00010000
00001000
01000000
00000000
00001000
00010000
00000010
00000000
,
00010000
00000000
00000000
00001000
00000000
00000000
00000100
00000000
,
00000010
00000000
00000000
00000001
00000000
00000000
00000010
00000000
,
00000100
00000000
00000000
00001000
00000000
00000000
00010000
00000000
,
00100000
00000000
00000000
01000000
00000000
00000000
00100000
00000000
,
10100000
00000000
00000000
10000000
00000000
00000000
11000000
00000000
,
01000000
00000000
00000000
01010000
00000000
00000000
00010000
00000000
,
00011000
00000000
00000000
00001000
00000000
00000000
00001010
00000000
,
00000010
00000001
00000100
00000000
00000100
00001000
00010000
00000000
,
00022000
00000000
00000000
00000000
,
00000000
00000000
00000000
00000000
,
00033000
00000000
00000000
00000000
;
