#TITLE:Nice Nice Noise;
#SUBTITLE:;
#ARTIST:Vospi;
#TITLETRANSLIT:;
#SUBTITLETRANSLIT:;
#ARTISTTRANSLIT:;
#GENRE:XROSS;
#CREDIT:MUINELIM;
#BANNER:Nice Nice Noise.png;
#BACKGROUND:Nice Nice Noise-bg.png;
#LYRICSPATH:;
#CDTITLE:;
#MUSIC:Nice Nice Noise.ogg;
#OFFSET:-0.004000;
#SAMPLESTART:90.655998;
#SAMPLELENGTH:13.980000;
#SELECTABLE:YES;
#BPMS:0.000000=143.000000
;
#STOPS:
;
#BGCHANGES:;
#KEYSOUNDS:;
#ATTACKS:;

//---------------dance-single - ----------------
#NOTES:
     dance-single:
     :
     Hard:
     15:
     0.596974,0.734868,0.127112,0.365448,0.333670,526.000000,510.000000,16.000000,46.000000,0.000000,0.000000,0.596974,0.734868,0.127112,0.365448,0.333670,526.000000,510.000000,16.000000,46.000000,0.000000,0.000000:
0000
0000
0000
0000
,
0000
0000
0000
0000
,
0000
0000
0000
0000
,
0000
0000
0000
0000
,
2001
0000
3002
0000
,
0100
0100
0100
0103
,
0120
0000
2030
0000
,
0001
0001
0001
3001
,
0021
0000
0230
0000
,
1000
1000
1000
1300
,
1020
0000
0230
0000
,
0001
0001
0001
0301
,
2001
0010
3002
0100
,
1003
0010
0100
0001
0100
0010
1000
0100
,
0120
0001
0230
1000
,
0310
0001
0100
0010
1000
0010
0100
0001
,
1001
1000
0010
0100
0001
0010
0100
1000
,
0002
0013
2000
3010
0002
0103
2000
3100
,
0001
0010
0100
1000
0001
0100
0010
1000
,
0002
0103
2000
3100
0002
0013
2000
3010
,
0001
0100
0010
1000
0001
0010
0100
1000
,
0010
0100
0010
0000
0100
0001
0100
0000
0010
0100
0010
0000
0100
0001
0100
0000
,
0001
0001
0010
0100
1000
0010
0100
0001
,
1000
0100
1000
0000
0001
1000
0001
0000
1000
0100
1000
0000
0001
1000
0001
0000
,
1000
1000
0010
0100
0001
1000
0100
0010
,
0001
0010
0001
0000
0100
0001
0100
0000
0001
0010
0001
0000
0100
0001
0100
0000
,
0010
0010
1000
0100
0010
0001
0100
0010
,
1000
0100
1000
0000
0010
1000
0010
0000
1000
0100
1000
0000
0010
1000
0010
0000
,
0100
0100
0001
0010
1000
0010
0001
0100
,
0010
1000
0010
0000
0100
0001
0100
0000
0001
0010
0001
0000
1000
0100
1000
0000
,
0001
0001
0010
0100
1000
0010
0001
0010
,
1000
0100
1000
0000
0001
0010
0001
0000
0100
0001
0100
0000
0010
1000
0010
0000
,
0100
0100
0001
0010
1000
0010
0001
0100
,
0010
0100
0010
0000
1000
0100
1000
0000
0001
0010
0001
0000
1000
0001
1000
0000
,
0010
0010
0100
0001
1000
0100
0001
0100
,
1000
0001
1000
0000
0010
0100
0010
0000
1000
0100
1000
0000
0001
0010
0001
0000
,
0200
0000
0000
0000
0320
0000
0000
0000
1030
0001
1000
0001
1000
0001
1000
0000
,
1002
0000
0203
0000
,
1000
0010
0001
0310
,
2001
0000
3020
0000
,
0001
0100
1000
0130
,
0210
0000
0302
0000
,
0010
1000
0100
0013
,
0210
0000
2300
0000
,
0010
0001
0100
3010
,
0120
1000
0230
0001
,
0310
1000
0100
0001
0100
1000
0010
0100
,
0102
0010
2003
0100
,
3010
0100
0001
0010
1000
0010
0001
0100
,
0120
0001
0230
1000
,
0310
1000
0100
0001
1000
0010
0001
0100
,
0102
0010
2003
0100
,
3010
0100
0001
0010
1000
0001
0100
1000
,
0002
0000
0023
0000
0230
0000
2300
0000
3001
0100
0001
0100
0001
0100
0001
0100
,
0010
0010
1000
0100
0001
0100
1000
0010
,
0100
0001
0010
0000
0100
1000
0010
0000
0100
0001
0010
0000
0100
1000
0010
0000
,
0100
0100
0001
1000
0010
0001
0010
1000
,
0100
0010
0001
0000
1000
0100
0010
0000
0100
0010
0001
0000
1000
0100
0010
0000
,
0001
0001
1000
0010
0001
1000
0100
0001
,
0010
0100
1000
0000
0100
1000
0001
0000
0010
0001
1000
0000
0001
0010
0100
0000
,
1000
1000
0010
0001
1000
0100
0001
0010
,
0100
1000
0010
0000
0100
0001
1000
0000
0010
1000
0001
0000
0100
0001
0010
0000
,
0110
0100
1000
0010
0100
0001
0010
0100
,
1000
0010
0100
0010
1000
0010
0100
0010
1000
0010
0100
0010
1000
0010
0100
0000
,
0001
0001
0010
1000
0001
0100
1000
0010
,
0100
0001
0010
0001
0100
0001
0010
0001
0100
0001
0010
0001
0100
0001
0010
0000
,
0100
0100
1000
0010
0001
1000
0100
0001
,
0010
0100
1000
0100
0010
0100
1000
0100
0010
0100
1000
0100
0010
0100
1000
0000
,
0001
0001
0100
1000
0001
0010
1000
0100
,
0010
0001
0010
0001
1000
0010
1000
0010
0100
0001
0100
0001
1000
0100
1000
0100
,
0020
0000
0032
0000
,
0203
0000
2000
0000
,
0000
0000
0000
0000
,
0000
0000
0000
0000
,
3300
0000
0000
0000
;

//---------------dance-double - ----------------
#NOTES:
     dance-double:
     :
     Hard:
     14:
     0.582219,0.676078,0.127112,0.365448,0.282030,513.000000,497.000000,16.000000,46.000000,0.000000,0.000000,0.582219,0.676078,0.127112,0.365448,0.282030,513.000000,497.000000,16.000000,46.000000,0.000000,0.000000:
// measure 0
00000000
00000000
00000000
00000000
,  // measure 1
00000000
00000000
00000000
00000000
,  // measure 2
00000000
00000000
00000000
00000000
,  // measure 3
00000000
00000000
00000000
00000000
,  // measure 4
20010000
00000000
32000000
00000000
,  // measure 5
00010000
00010000
00010000
03010000
,  // measure 6
00012000
00000000
00003020
00000000
,  // measure 7
00000001
00000001
00000001
00000031
,  // measure 8
00001002
00000000
00000203
00000000
,  // measure 9
00001000
00001000
00001000
00001300
,  // measure 10
00021000
00000000
00230000
00000000
,  // measure 11
10000000
10000000
10000000
10300000
,  // measure 12
20010000
32000000
03200000
00320000
,  // measure 13
01030000
00001000
00010000
00000100
00010000
00001000
01000000
00010000
,  // measure 14
00210000
02300000
03020000
00032000
,  // measure 15
00003010
00000001
00000100
00000010
00000100
00000001
00000010
00000100
,  // measure 16
00001000
00000010
00010000
00001000
01000000
00010000
00100000
01000000
,  // measure 17
10000000
10000000
00100000
00100000
00010000
00010000
00001000
00001000
,  // measure 18
00100000
00010000
01000000
00001000
00010000
00000010
00001000
00000100
,  // measure 19
00000010
00000010
00000001
00000001
00000100
00000100
00001000
00001000
,  // measure 20
00010000
00100000
10000000
01000000
00100000
01000000
10000000
00100000
,  // measure 21
00010000
00001000
00010000
00000000
00001000
00010000
00001000
00000000
00010000
00001000
00010000
00000000
00001000
00010000
00001000
00000000
,  // measure 22
00010000
00001000
00000100
00000001
00000010
00000100
00000010
00000001
,  // measure 23
00000100
00000010
00000100
00000000
00000010
00000100
00000010
00000000
00000100
00000010
00000100
00000000
00000010
00000100
00000010
00000000
,  // measure 24
00000100
00000100
00000001
00000010
00001000
00010000
01000000
10000000
,  // measure 25
00100000
01000000
00100000
00000000
01000000
00100000
01000000
00000000
00100000
01000000
00100000
00000000
01000000
00100000
01000000
00000000
,  // measure 26
00100000
00100000
10000000
01000000
00010000
00001000
00000010
00000100
,  // measure 27
00001000
00000001
00001000
00000000
00000001
00001000
00000001
00000000
00001000
00000001
00001000
00000000
00000001
00001000
00000001
00000000
,  // measure 28
00001000
00001000
00000010
00010000
00001000
00000100
00000001
00000010
,  // measure 29
00000100
00001000
00000100
00000000
00010000
00000100
00010000
00000000
00001000
00010000
00001000
00000000
01000000
00001000
01000000
00000000
,  // measure 30
00010000
00010000
00100000
01000000
10000000
00100000
00010000
00001000
,  // measure 31
01000000
00010000
01000000
00000000
00010000
00100000
00010000
00000000
00100000
00001000
00100000
00000000
00001000
00010000
00001000
00000000
,  // measure 32
00000100
00000100
00000001
00000010
00000100
00001000
00000010
00010000
,  // measure 33
00001000
00010000
00001000
00000000
01000000
00001000
01000000
00000000
00010000
01000000
00010000
00000000
01000000
00100000
01000000
00000000
,  // measure 34
00100000
00100000
10000000
01000000
00010000
00001000
00000010
00000001
,  // measure 35
00000100
00000010
00000100
00000000
00000010
00010000
00000010
00000000
00010000
00001000
00010000
00000000
00001000
00100000
00001000
00000000
,  // measure 36
02000000
00000000
00000000
00000000
03200000
00000000
00000000
00000000
10300000
00010000
10000000
00010000
10000000
00010000
10000000
00000000
,  // measure 37
10020000
00000000
00230000
00000000
,  // measure 38
01000000
00010000
00001000
00310000
,  // measure 39
00012000
00000000
00003020
00000000
,  // measure 40
00001000
00000100
00000001
00000130
,  // measure 41
00002001
00000000
00003020
00000000
,  // measure 42
00000100
00001000
00010000
00001030
,  // measure 43
00021000
00000000
00230000
00000000
,  // measure 44
00010000
01000000
10000000
01300000
,  // measure 45
20100000
32000000
03020000
00032000
,  // measure 46
00103000
01000000
00010000
00001000
00000010
00000100
00001000
00000010
,  // measure 47
00000210
00000302
00000023
00002030
,  // measure 48
00013000
00000100
00000010
00001000
00010000
01000000
00100000
00010000
,  // measure 49
02010000
03200000
20300000
32000000
,  // measure 50
03010000
00001000
00100000
01000000
00010000
00001000
00000010
00000100
,  // measure 51
00002100
00003002
00000023
00002030
,  // measure 52
00013000
00000100
00000010
00001000
00010000
01000000
00100000
00010000
,  // measure 53
10000000
00000000
10000000
00000000
10000000
00000000
10000000
00000000
00100000
01000000
00100000
01000000
00100000
01000000
00100000
01000000
,  // measure 54
00010000
00100000
01000000
10000000
00100000
00010000
00001000
00100000
,  // measure 55
00010000
01000000
00010000
00000000
00100000
00001000
00100000
00000000
00001000
00010000
00001000
00000000
00010000
00000010
00010000
00000000
,  // measure 56
00000100
00000100
00000010
00000001
00000100
00001000
00010000
00100000
,  // measure 57
10000000
01000000
10000000
00000000
00010000
01000000
00010000
00000000
00100000
01000000
00100000
00000000
00001000
00010000
00001000
00000000
,  // measure 58
00100000
00100000
01000000
00010000
00001000
00000100
00000001
00000010
,  // measure 59
00000100
00001000
00000100
00000000
00010000
00000010
00010000
00000000
00001000
00100000
00001000
00000000
01000000
00010000
01000000
00000000
,  // measure 60
00100000
00100000
10000000
01000000
00010000
00001000
00000100
00000001
,  // measure 61
00000010
00000100
00000010
00000000
00001000
00010000
00001000
00000000
00100000
01000000
00100000
00000000
00010000
10000000
00010000
00000000
,  // measure 62
10010000
10000000
01000000
00010000
00001000
00010000
00010000
01000000
,  // measure 63
10000000
00100000
01000000
00000000
01000000
00010000
00100000
00000000
00100000
00001000
00010000
00000000
00010000
00000100
00000010
00000000
,  // measure 64
00000001
00000001
00000100
00001000
00010000
00000100
00000010
00000001
,  // measure 65
00001000
00000010
00000100
00000000
00000100
00001000
00010000
00000000
00010000
00001000
00100000
00000000
00100000
01000000
10000000
00000000
,  // measure 66
00100000
00100000
00010000
00001000
00000100
00000001
00000010
00001000
,  // measure 67
00010000
00001000
01000000
00000000
01000000
00010000
00100000
00000000
00100000
01000000
10000000
00000000
10000000
00100000
00010000
00000000
,  // measure 68
00001000
00001000
00100000
00010000
00001000
00000010
00010000
00001000
,  // measure 69
00000100
00000001
00000010
00000000
00000010
00001000
00010000
00000000
00010000
01000000
10000000
00000000
10000000
00100000
01000000
00000000
,  // measure 70
01020000
00000000
00032000
00000000
,  // measure 71
00003020
00000000
00000200
00000000
,  // measure 72
00000000
00000000
00000000
00000000
,  // measure 73
00000000
00000000
00000000
00000000
,  // measure 74
00000330
00000000
00000000
00000000
;

//---------------dance-single - ----------------
#NOTES:
     dance-single:
     :
     Medium:
     11:
     0.425599,0.529105,0.333670,0.413115,0.063556,375.000000,333.000000,42.000000,52.000000,0.000000,0.000000,0.425599,0.529105,0.333670,0.413115,0.063556,375.000000,333.000000,42.000000,52.000000,0.000000,0.000000:
0000
0000
0000
0000
,
0000
0000
0000
0000
,
0000
0000
0000
0000
,
0000
0000
0000
0000
,
2000
0000
3002
0000
,
0103
0100
0100
0100
,
0002
0000
2003
0000
,
3010
0010
0010
0010
,
2000
0000
3002
0000
,
0013
0010
0010
0010
,
0002
0000
2003
0000
,
3100
0100
0100
0100
,
2100
0000
3020
0000
,
0130
0001
1000
0010
,
0210
0000
0302
0000
,
1003
0010
0100
0001
,
2000
3010
0002
0013
,
2000
3100
0002
0103
,
2000
3010
0002
0103
,
2000
3001
0020
0130
,
1001
0000
1000
0010
0100
0001
0010
0100
,
1100
1000
1010
1000
,
1001
0000
0001
0100
0010
1000
0100
0010
,
0011
0001
0101
0001
,
1001
0000
1000
0100
0010
0001
0100
0010
,
1010
1000
1100
1000
,
1001
0000
0001
0010
0100
1000
0010
0100
,
0101
0001
0011
0001
,
1001
0000
1000
0010
0001
0010
1000
0100
,
0110
0011
1100
0110
,
1001
0000
0001
0100
1000
0100
0001
0010
,
0110
1100
0011
0110
,
1001
0000
0001
0010
1000
0010
0001
0100
,
0110
1010
0101
1001
,
0110
0000
1000
0100
0001
0100
1000
0010
,
0110
0101
1010
1001
,
1000
0100
0010
0001
2000
0000
3002
0000
,
0203
0000
0320
0000
,
1030
1000
1000
1000
,
0020
0000
0230
0000
,
0301
0001
0001
0001
,
0020
0000
0230
0000
,
1300
1000
1000
1000
,
0200
0000
0320
0000
,
0031
0001
0001
0001
,
2001
3020
0230
0302
,
1003
0010
0100
0001
,
2001
3200
0320
0032
,
1003
0100
0010
0001
,
0201
0320
2030
3002
,
0103
0010
1000
0001
,
0021
0230
2300
3002
,
0013
0100
1000
0001
,
0200
0000
0320
0000
1030
0001
1000
0001
,
0010
0100
1000
1000
0100
0010
0001
0001
,
0010
0100
0001
0100
1000
0100
0001
0100
,
1000
0000
0001
0001
0100
0010
1000
1000
,
0010
0100
1000
0100
0001
0100
1000
0100
,
0001
0000
1000
1000
0010
0100
0001
0001
,
0100
0010
0001
0010
1000
0010
0001
0010
,
1000
0000
0001
0001
0010
0100
1000
1000
,
0100
0010
1000
0010
0001
0010
1000
0010
,
0001
0000
1000
0010
0100
0001
0010
0100
,
1000
0010
0000
0000
0010
0100
0000
0000
0100
0001
0000
0000
0001
1000
0000
0000
,
1001
0000
0001
0100
0010
1000
0100
0010
,
0001
0100
0000
0000
0100
0010
0000
0000
0010
1000
0000
0000
1000
0001
0000
0000
,
1001
0000
1000
0100
0001
0100
0010
0001
,
0100
0010
0000
0000
0010
1000
0000
0000
1000
0001
0000
0000
0001
0100
0000
0000
,
0110
0000
0001
0010
1000
0010
0100
1000
,
0010
0100
0000
0000
0001
0010
0000
0000
0010
0100
0000
0000
0100
1000
0000
0000
,
1002
0000
0203
0000
,
2300
0000
0020
0000
,
0000
0000
0000
0000
,
0000
0000
0000
0000
,
3030
0000
0000
0000
;

//---------------dance-double - ----------------
#NOTES:
     dance-double:
     :
     Medium:
     12:
     0.407440,0.499710,0.182724,0.413115,0.000000,359.000000,336.000000,23.000000,52.000000,0.000000,0.000000,0.407440,0.499710,0.182724,0.413115,0.000000,359.000000,336.000000,23.000000,52.000000,0.000000,0.000000:
00000000
00000000
00000000
00000000
,
00000000
00000000
00000000
00000000
,
00000000
00000000
00000000
00000000
,
00000000
00000000
00000000
00000000
,
00002000
00000000
00023000
00000000
,
00030010
00000010
00000010
00000010
,
00020000
00000000
00032000
00000000
,
00103000
00100000
00100000
00100000
,
00002000
00000000
00023000
00000000
,
00030100
00000100
00000100
00000100
,
00020000
00000000
00032000
00000000
,
01003000
01000000
01000000
01000000
,
01002000
00000000
00023000
00000000
,
00030010
00010000
00001000
00100000
,
00102000
00000000
00023000
00000000
,
00030100
00010000
00001000
01000000
,
00020000
00130000
00200000
00301000
,
00002000
00013000
00020000
00030010
,
00000020
00001030
00002000
00003100
,
00000200
00010300
00020000
00031000
,
00011000
00000000
00001000
00100000
00010000
01000000
00100000
10000000
,
01000000
00010000
00001000
00010000
,
00011000
00000000
00010000
00000100
00001000
00000010
00000100
00000001
,
00000010
00001000
00010000
00001000
,
00011000
00000000
00001000
01000000
00010000
00100000
01000000
10000000
,
00100000
00010000
00001000
00010000
,
00011000
00000000
00010000
00000010
00001000
00000100
00000010
00000001
,
00000100
00001000
00010000
00001000
,
00011000
00000000
00001000
00010000
00100000
10000000
00010000
00100000
,
01100000
00010000
01010000
00001000
,
00011000
00000000
00010000
00001000
00000100
00000001
00001000
00000100
,
00000110
00001000
00001010
00010000
,
00011000
00000000
00001000
00100000
01000000
10000000
00100000
00010000
,
00010100
01000000
01010000
00001000
,
00011000
00000000
00010000
00000100
00000010
00000001
00000100
00001000
,
00101000
00000010
00001010
00010000
,
00011000
00001000
00010000
00100000
20000000
00000000
32000000
00000000
,
03200000
00000000
00302000
00000000
,
00013000
00010000
00010000
00010000
,
00000020
00000000
00020030
00000000
,
00031000
00001000
00001000
00001000
,
02000000
00000000
03002000
00000000
,
00013000
00010000
00010000
00010000
,
00000200
00000000
00020300
00000000
,
00031000
00001000
00001000
00001000
,
00021000
00230000
20300000
32000000
,
13000000
01000000
00010000
00001000
,
00012000
00003200
00000302
00000023
,
00000031
00000010
00001000
00010000
,
00021000
02030000
23000000
30200000
,
10300000
00100000
00010000
00001000
,
00012000
00003020
00000032
00000203
,
00000301
00000100
00001000
00010000
,
00200000
00000000
20300000
00000000
31000000
00100000
01000000
00100000
,
00010000
01000000
00001000
00010000
00001000
01000000
00010000
00100000
,
01000000
10000000
00100000
00010000
00001000
00000100
00000001
00000010
,
00000100
00000000
00010000
00001000
00010000
00000010
00001000
00000100
,
00000010
00000001
00000100
00001000
00010000
00100000
10000000
01000000
,
00100000
00000000
00001000
00010000
00100000
00010000
00001000
00100000
,
01000000
10000000
00100000
00010000
00100000
10000000
00100000
00010000
,
00001000
00000000
00010000
00001000
00000100
00001000
00010000
00000100
,
00000010
00000001
00000100
00001000
00000100
00000001
00000100
00001000
,
00010000
00000000
00001000
00100000
01000000
00100000
00010000
01000000
,
00100000
00010000
00100000
10000000
01000000
00010000
01000000
10000000
,
00100000
00100000
00010000
00000010
00000100
00000010
00001000
00000100
,
00000010
00001000
00000010
00000001
00000100
00001000
00000100
00000001
,
00000010
00000010
00001000
00100000
00010000
01000000
10000000
01000000
,
00100000
10000000
01000000
00100000
00010000
01000000
00100000
00010000
,
00000100
00000100
00010000
00000010
00001000
00000100
00000001
00000100
,
00000010
00000001
00000100
00000010
00001000
00000100
00000010
00001000
,
00200000
00000000
00320000
00000000
,
00030020
00000000
00002000
00000000
,
00000000
00000000
00000000
00000000
,
00000000
00000000
00000000
00000000
,
00003030
00000000
00000000
00000000
;

//---------------dance-single - ----------------
#NOTES:
     dance-single:
     :
     Beginner:
     4:
     0.163430,0.198812,0.015889,0.015889,0.000000,144.000000,142.000000,2.000000,2.000000,0.000000,0.000000,0.163430,0.198812,0.015889,0.015889,0.000000,144.000000,142.000000,2.000000,2.000000,0.000000,0.000000:
0000
0000
0000
0000
,
0000
0000
0000
0000
,
0000
0000
0000
0000
,
0000
0000
0000
0000
,
1000
0000
0000
0000
,
1000
0000
1000
0000
,
0001
0000
0000
0000
,
0001
0000
0001
0000
,
1000
0000
0000
0000
,
1000
0000
1000
0000
,
0001
0000
0000
0000
,
0001
0000
0001
0000
,
0100
0000
0000
0000
,
0100
0000
0100
0000
,
0010
0000
0000
0000
,
0010
0000
0010
0000
,
0100
0000
0000
0000
,
0100
0000
0100
0000
,
0010
0000
0000
0000
,
0010
0000
0010
0000
,
1000
0000
0001
0000
,
1000
1000
1000
0000
,
0001
0000
1000
0000
,
0001
0001
0001
0000
,
1000
0000
0001
0000
,
1000
1000
1000
0000
,
0001
0000
1000
0000
,
0001
0001
0001
0000
,
0100
0000
0010
0000
,
0100
0100
0100
0000
,
0010
0000
0100
0000
,
0010
0010
0010
0000
,
0100
0000
0010
0000
,
0100
0100
0100
0000
,
0010
0000
0100
0000
,
0010
0010
0010
0000
,
1001
0000
0000
0000
,
1000
0000
0000
0000
,
0010
0000
0010
0000
,
0001
0000
0000
0000
,
0001
0000
0001
0000
,
0100
0000
0000
0000
,
0100
0000
0100
0000
,
1000
0000
0000
0000
,
1000
0000
1000
0000
,
0010
0000
0000
0000
,
0010
0000
0010
0000
,
1000
0000
0000
0000
,
1000
0000
1000
0000
,
0100
0000
0000
0000
,
0100
0000
0001
0000
,
0001
0000
0000
0000
,
0001
0000
0010
0000
,
0010
0010
0020
0030
,
1000
0000
0100
0000
,
0010
0010
0010
0010
,
0010
0000
0001
0000
,
0100
0100
0100
0100
,
0100
0000
0010
0000
,
1000
1000
1000
1000
,
1000
0000
0001
0000
,
0010
0010
0010
0010
,
0010
0000
0100
0000
,
1000
1000
1000
1000
,
0010
0000
0100
0000
,
0001
0001
0001
0001
,
0010
0000
0100
0000
,
1000
1000
1000
1000
,
0001
0000
0100
0000
,
0010
0010
0010
0010
,
2000
0000
0000
0000
,
3000
0000
1001
0000
;

//---------------dance-single - ----------------
#NOTES:
     dance-single:
     :
     Easy:
     7:
     0.217907,0.293947,0.031778,0.182724,0.000000,192.000000,188.000000,4.000000,23.000000,0.000000,0.000000,0.217907,0.293947,0.031778,0.182724,0.000000,192.000000,188.000000,4.000000,23.000000,0.000000,0.000000:
0000
0000
0000
0000
,
0000
0000
0000
0000
,
0000
0000
0000
0000
,
0000
0000
0000
0000
,
2000
0000
3000
0000
,
1000
0000
1000
0000
,
0002
0000
0003
0000
,
0001
0000
0001
0000
,
2000
0000
3000
0000
,
1000
0000
1000
0000
,
0002
0000
0003
0000
,
0001
0000
0001
0000
,
0200
0000
0300
0000
,
0100
0000
0100
0000
,
0020
0000
0030
0000
,
0010
0000
0010
0000
,
0200
0000
0300
0000
,
0100
0000
0100
0000
,
0020
0000
0030
0000
,
0010
0000
0010
0000
,
1000
0000
0001
0000
,
1000
0100
1000
0100
,
1000
0000
0001
0000
,
1000
0010
1000
0010
,
1000
0000
0001
0000
,
0100
0010
0100
0010
,
0100
0000
0001
0000
,
0010
0100
0010
0100
,
1001
0000
1000
0000
,
0001
0010
0001
0010
,
0001
0000
1000
0000
,
0001
0100
0001
0100
,
0001
0000
1000
0000
,
0010
0100
0010
0100
,
0010
0000
1000
0000
,
0100
0010
0100
0010
,
2002
0000
0000
3003
,
1001
0000
0000
0000
,
1000
0001
0100
0001
,
1000
0000
0000
0000
,
0001
1000
0010
1000
,
0001
0000
0000
0000
,
1000
0100
0010
0100
,
1000
0000
0000
0000
,
0001
0010
0100
0010
,
0002
0003
0002
0003
,
0100
0010
1000
0010
,
0200
0300
0200
0300
,
0001
0010
0100
0010
,
0002
0003
0002
0003
,
1000
0010
0100
0010
,
2000
3000
2000
3000
,
0100
0010
0001
0010
,
0100
0100
0200
0300
,
1001
1000
0010
1000
,
0100
0010
0100
0010
,
0010
0001
0100
0001
,
0010
0100
0010
0100
,
0100
1000
0001
1000
,
0010
0100
0010
0100
,
0100
0001
1000
0001
,
0100
0010
0100
0010
,
0010
1000
0100
0001
,
0100
0100
1000
1000
,
0001
0010
1000
0010
,
0001
0001
0100
0100
,
1000
0100
0001
0010
,
0100
0100
0010
0010
,
0100
1000
0010
0001
,
1000
1000
0100
0100
,
0002
0003
0020
0030
,
0200
0300
2000
0000
,
0000
0000
0000
0000
,
0000
0000
0000
0000
,
3000
0000
0000
0000
;

//---------------dance-double - ----------------
#NOTES:
     dance-double:
     :
     Easy:
     7:
     0.208827,0.293947,0.031778,0.309836,0.000000,184.000000,180.000000,4.000000,39.000000,0.000000,0.000000,0.208827,0.293947,0.031778,0.309836,0.000000,184.000000,180.000000,4.000000,39.000000,0.000000,0.000000:
00000000
00000000
00000000
00000000
,
00000000
00000000
00000000
00000000
,
00000000
00000000
00000000
00000000
,
00000000
00000000
00000000
00000000
,
00000002
00000000
00000003
00000000
,
00000001
00000000
00000001
00000000
,
00000200
00000000
00000300
00000000
,
00000100
00000000
00000100
00000000
,
00000020
00000000
00000030
00000000
,
00000010
00000000
00000010
00000000
,
00020000
00000000
00030000
00000000
,
00010000
00000000
00010000
00000000
,
00002000
00000000
00003000
00000000
,
00001000
00000000
00001000
00000000
,
02000000
00000000
03000000
00000000
,
01000000
00000000
01000000
00000000
,
00200000
00000000
00300000
00000000
,
00100000
00000000
00100000
00000000
,
20000000
00000000
30000000
00000000
,
10000000
00000000
10000000
00000000
,
00010000
00100000
01000000
00000000
,
01000000
10000000
00010000
00000000
,
00010000
01000000
00001000
00000000
,
00001000
00010000
00100000
00000000
,
00100000
01000000
00010000
00000000
,
00010000
00100000
00001000
00000000
,
00001000
00010000
00000100
00000000
,
00000100
00000010
00000001
00000000
,
00001001
00000010
00000100
00000000
,
00000100
00001000
00010000
00000000
,
00010000
00001000
01000000
00000000
,
01000000
00010000
00100000
00000000
,
00100000
01000000
10000000
00000000
,
10000000
00100000
00010000
00000000
,
00010000
00001000
00000100
00000000
,
00000100
00000001
00001000
00000000
,
00002002
00000000
00000000
00003003
,
00001001
00000000
00000000
00000000
,
00000002
00000003
00000200
00000300
,
00001000
00000000
00000000
00000000
,
00020000
00030000
00200000
00300000
,
10000000
00000000
00000000
00000000
,
20000000
30000000
02000000
03000000
,
00010000
00000000
00000000
00000000
,
00002000
00003000
00000020
00000030
,
00000002
00001003
00000002
00001003
,
00002000
00003000
00000200
00000300
,
00020000
00031000
00020000
00031000
,
00200000
00300000
00020000
00030000
,
20000000
30100000
20000000
30100000
,
02000000
03000000
00200000
00300000
,
00002000
00013000
00002000
00013000
,
00000200
00000300
00000020
00000030
,
00000001
00000100
00002000
00003000
,
00011000
00010000
00100000
01000000
,
00100000
00010000
00100000
10000000
,
01000000
00010000
00001000
00000100
,
00000010
00000100
00001000
00000100
,
00000001
00000010
00001000
00010000
,
00100000
10000000
01000000
00100000
,
01000000
10000000
01000000
00010000
,
00001000
00000010
00000001
00000010
,
00000100
00000010
00000001
00000100
,
00001000
00010000
00000010
00010000
,
00001000
00010000
00000010
00010000
,
00001000
01000000
00001000
00010000
,
00001000
01000000
00001000
00010000
,
00100000
01000000
00100000
10000000
,
01000000
00010000
00001000
00000010
,
00000001
00000100
00000010
00000100
,
00002000
00003000
00020000
00030000
,
00200000
00000000
02000000
00000000
,
00000000
00000000
00000000
00000000
,
00000000
00000000
00000000
00000000
,
03300000
00000000
00000000
00000000
;
