#VERSION:0.83;
#TITLE:New Days;
#SUBTITLE:;
#ARTIST:Dreamcatcher;
#TITLETRANSLIT:;
#SUBTITLETRANSLIT:;
#ARTISTTRANSLIT:;
#GENRE:K-POP;
#ORIGIN:;
#CREDIT:MUINELIM;
#BANNER:New Days.png;
#BACKGROUND:New Days-bg.png;
#PREVIEWVID:;
#JACKET:New Days-jacket.png;
#CDIMAGE:;
#DISCIMAGE:;
#LYRICSPATH:;
#CDTITLE:;
#MUSIC:New Days.ogg;
#OFFSET:0.043000;
#SAMPLESTART:66.822144;
#SAMPLELENGTH:15.085716;
#SELECTABLE:YES;
#DISPLAYBPM:175.000000;
#BPMS:0.000=175.000,
388.000=87.500;
#STOPS:357.000=0.343;
#DELAYS:;
#WARPS:;
#TIMESIGNATURES:0.000=4=4;
#TICKCOUNTS:0.000=4;
#COMBOS:0.000=1;
#SPEEDS:0.000=1.000=0.000=0;
#SCROLLS:0.000=1.000;
#FAKES:;
#LABELS:0.000=Song Start;
#BGCHANGES:;
#KEYSOUNDS:;
#ATTACKS:
;

//---------------dance-single - ----------------
#NOTEDATA:;
#CHARTNAME:;
#STEPSTYPE:dance-single;
#DESCRIPTION:;
#CHARTSTYLE:;
#DIFFICULTY:Beginner;
#METER:4;
#RADARVALUES:0.151499,0.276155,0.085409,0.000000,0.000000,149.000000,137.000000,12.000000,0.000000,0.000000,0.000000,0.000000,0.000000,0.000000,0.151499,0.276155,0.085409,0.000000,0.000000,149.000000,137.000000,12.000000,0.000000,0.000000,0.000000,0.000000,0.000000,0.000000;
#CREDIT:MILEN;
#DISPLAYBPM:175.000000;
#NOTES:
0000
0000
0000
0000
,
0000
0000
0000
0000
,
0000
0000
0000
0000
,
0000
0000
0000
0000
,
0000
0000
0000
0000
,
0000
1000
0000
0000
,
0000
0001
0000
0000
,
0000
1000
0000
0001
,
0000
1000
0000
0001
,
0001
0001
0000
0100
,
0000
0001
0000
0000
,
0000
1000
0000
0010
,
0000
1000
0000
0000
,
0000
0001
0000
0010
,
0000
0001
0000
1000
,
0000
0100
0000
1000
,
0000
1001
0000
0000
,
0000
0001
0000
0000
,
0000
0100
0000
0000
,
0000
0010
0000
0000
,
0000
1000
0000
0000
,
0000
0001
0000
0000
,
0000
0010
0000
0000
,
0000
0100
0000
0000
,
0000
1000
0000
0000
,
0000
0001
0000
0001
,
0000
0100
0000
0100
,
0000
0010
0000
0010
,
0000
1000
0000
1000
,
0000
0001
0000
0001
,
0000
0010
0000
0010
,
0000
0100
0000
0100
,
0000
1000
0000
1000
,
0000
0001
0000
0000
,
0000
0100
0000
0000
,
0000
1000
0000
0000
,
0000
0010
0000
0000
,
0000
0001
0000
0000
,
0000
0100
0000
0000
,
0000
1000
0000
0000
,
0000
0010
0000
0000
,
0000
0001
0000
0000
,
0000
0100
0000
0000
,
0000
1000
0000
0000
,
0000
0010
0000
0000
,
0000
0001
0000
1000
,
0000
0001
0000
1000
,
0000
0010
0000
0100
,
0000
0010
0010
0000
,
0000
1001
0000
1000
,
0000
0001
0000
1000
,
0000
1001
0000
0001
,
0000
1000
0000
0001
,
0000
1001
0000
0100
,
0000
1001
0000
0010
,
0010
0010
0000
0100
,
0000
0010
0000
0000
,
0000
1001
0000
0001
,
0000
1000
0000
0001
,
0000
1001
0000
1000
,
0000
0001
0000
1000
,
0000
1001
0000
0010
,
0000
0100
0000
0010
,
0000
1001
0000
0100
,
0100
0100
0000
0000
,
0000
0010
0000
0000
,
0000
0010
0000
0000
,
0000
0010
0000
0000
,
0000
0000
0000
0000
,
0000
0100
0000
0000
,
0000
0100
0000
0000
,
0000
0100
0000
0000
,
0000
0000
0000
0000
,
0000
0001
0000
0000
,
0000
1000
0000
0000
,
0000
0001
0000
0000
,
0000
1000
0000
0000
,
0000
0001
0000
0000
,
0000
1000
0000
0000
,
0000
1001
0000
0000
,
0000
0000
0000
0000
,
0000
0110
0000
0000
,
0000
0000
0000
0000
,
0000
0010
0000
0000
,
0000
0000
0000
0000
,
0000
0100
0000
0000
,
0000
0010
0000
0010
,
0010
0010
0000
1000
,
0000
0001
0000
0100
,
0100
0100
1000
0000
,
0100
0000
0010
0000
,
0001
0000
1000
0000
,
0100
0000
0010
0000
,
0001
0000
0100
0000
,
0010
0000
1000
0000
,
0001
0000
0100
0000
,
0010
0000
1000
0000
,
1001
0000
0000
0000
;

//---------------dance-single - ----------------
#NOTEDATA:;
#CHARTNAME:;
#STEPSTYPE:dance-single;
#DESCRIPTION:;
#CHARTSTYLE:;
#DIFFICULTY:Easy;
#METER:7;
#RADARVALUES:0.249109,0.345193,0.142348,0.192169,0.000000,245.000000,225.000000,20.000000,27.000000,0.000000,0.000000,0.000000,0.000000,0.000000,0.249109,0.345193,0.142348,0.192169,0.000000,245.000000,225.000000,20.000000,27.000000,0.000000,0.000000,0.000000,0.000000,0.000000;
#CREDIT:MILEN;
#DISPLAYBPM:175.000000;
#NOTES:
0000
0000
0000
0000
,
0000
0000
0000
0000
,
0000
0000
0000
0000
,
0000
0000
0000
0000
,
0000
0000
0000
0000
,
0000
1000
0000
0000
,
0000
0001
0000
0000
,
0000
1000
0000
0001
,
0000
1000
1000
0001
,
0001
0100
0010
0100
,
0010
0200
0000
0000
,
0300
0010
0100
0010
,
0100
0020
0000
0000
,
0030
1000
0001
0100
,
0000
0001
1000
0010
,
0000
1000
0001
0100
,
0010
0220
0000
0000
,
0330
1000
0000
1000
,
0000
0010
0000
0010
,
0000
0001
0000
0001
,
0000
0100
0000
0100
,
0000
1000
0000
0010
,
0000
0001
0000
0100
,
0000
1000
0000
0010
,
0000
0001
0000
0100
,
0000
1000
0100
1000
,
0000
0010
0100
0010
,
0000
0100
0010
0100
,
0000
0001
0010
0001
,
0000
1000
0001
1000
,
0000
0001
1000
0001
,
0000
0100
0010
0100
,
0001
1000
0001
1001
,
0000
2000
0000
3000
,
0000
0002
0000
0000
,
0003
0000
1000
0100
,
0000
1000
0001
0010
,
0000
0002
0000
0003
,
0000
2000
0000
0000
,
3000
0010
0000
0100
,
0000
0010
0100
0020
,
0030
1000
0000
0100
,
0000
0001
0000
0010
,
0000
1000
0000
0100
,
0000
0001
0000
0010
,
0100
0010
0100
0001
,
1000
0001
1000
0020
,
0030
1000
0001
0100
,
0010
2000
3001
0000
,
0000
2002
3003
1000
,
0100
0010
0001
1000
,
0001
2002
3003
1000
,
0100
0010
0001
1000
,
0001
0100
0000
0100
,
1000
0001
0000
0001
,
0100
1000
0000
0010
,
0000
0001
0000
0100
,
0100
2002
3003
0001
,
0010
0100
1000
0001
,
1000
1001
0000
0010
,
0000
1001
0000
0100
,
0000
0110
0000
0010
,
1000
0100
0000
0010
,
0001
0100
0010
1000
,
0100
0010
0002
1003
,
0000
1100
0000
0000
,
0000
0011
0000
0000
,
0000
1010
0000
0000
,
0000
0101
0000
0000
,
0000
1001
0000
0000
,
0000
0110
0000
0000
,
0000
2000
3000
0002
,
0003
0200
0300
0020
,
0030
1000
0000
0100
,
0000
0001
0000
0010
,
0000
0001
0000
0100
,
0000
1000
0000
0010
,
0000
0100
0010
1000
,
0000
0010
0100
0001
,
0000
2002
0000
0000
,
0000
0000
0000
3003
,
0000
1001
0000
0000
,
0000
0000
0000
0000
,
0000
0110
0000
0000
,
0000
0010
0000
0010
,
0000
0020
0000
0030
,
0000
1000
0000
0001
,
0001
0100
0010
0100
,
0010
1000
0100
0010
,
0001
1001
1000
0010
,
1000
0100
1000
0010
,
1000
0001
0100
0001
,
0010
0001
0100
0001
,
1000
0100
0010
0001
,
0100
0010
1000
0001
,
0010
0010
0100
0100
,
2002
0000
0000
3003
,
1001
0000
0000
0000
;

//---------------dance-double - ----------------
#NOTEDATA:;
#CHARTNAME:;
#STEPSTYPE:dance-double;
#DESCRIPTION:;
#CHARTSTYLE:;
#DIFFICULTY:Easy;
#METER:8;
#RADARVALUES:0.248092,0.345193,0.142348,0.177935,0.000000,244.000000,224.000000,20.000000,25.000000,0.000000,0.000000,0.000000,0.000000,0.000000,0.248092,0.345193,0.142348,0.177935,0.000000,244.000000,224.000000,20.000000,25.000000,0.000000,0.000000,0.000000,0.000000,0.000000;
#CREDIT:MILEN;
#DISPLAYBPM:175.000000;
#NOTES:
00000000
00000000
00000000
00000000
,
00000000
00000000
00000000
00000000
,
00000000
00000000
00000000
00000000
,
00000000
00000000
00000000
00000000
,
00000000
00000000
00000000
00000000
,
00000000
00001000
00000000
00000000
,
00000000
00010000
00000000
00000000
,
00000000
00001000
00000000
00010000
,
00000000
00001000
00001000
00010000
,
00010000
00001000
00010000
00001000
,
00010000
00000020
00000000
00000000
,
00000030
00010000
00001000
00010000
,
00001000
02000000
00000000
00000000
,
03000000
00001000
00010000
00000100
,
00000000
00010000
00001000
00100000
,
00000000
00001000
00010000
01000000
,
10000000
20020000
00000000
00000000
,
30030000
00010000
00000000
00010000
,
00000000
00100000
00000000
00100000
,
00000000
00001000
00000000
00001000
,
00000000
00000010
00000000
00000010
,
00000000
00010000
00000000
01000000
,
00000000
00001000
00000000
00000100
,
00000000
00000001
00000000
00000010
,
00000000
00001000
00000000
00010000
,
00000000
01000000
10000000
01000000
,
00000000
00100000
00010000
00100000
,
00000000
01000000
00100000
01000000
,
00000000
00010000
00001000
00010000
,
00000000
00000010
00000100
00000010
,
00000000
00000100
00000001
00000100
,
00000000
00000010
00001000
00000010
,
00010000
00001000
00010000
00011000
,
00000000
00002000
00000000
00003000
,
00000000
00020000
00000000
00000000
,
00030000
00000000
01000000
01000000
,
00000000
10000000
00100000
00010000
,
00000000
00002000
00000000
00003000
,
00000000
00020000
00000000
00000000
,
00030000
00001000
00000000
00000100
,
00000000
00000001
00000010
00000002
,
00000003
00000100
00000000
00001000
,
00000000
00010000
00000000
00100000
,
00000000
10000000
00000000
01000000
,
00000000
00010000
00000000
00001000
,
00001000
00010000
00000100
00001000
,
00000000
00000100
00010000
00001000
,
00000000
00010000
00001000
00000010
,
00000001
00000100
00001000
00000000
,
00000000
00022000
00033000
00010000
,
00001000
00010000
00100000
01000000
,
00001000
00022000
00033000
00001000
,
00010000
00001000
00000100
00000010
,
00010000
00001000
00000000
00001000
,
00000100
00000001
00000000
00000001
,
00000010
00001000
00000000
00010000
,
00000000
01000000
00000000
00010000
,
00001000
00022000
00033000
00010000
,
00001000
00010000
00100000
01000000
,
00100000
01100000
00000000
00010000
,
00000000
00011000
00000000
00000100
,
00000000
00000110
00000000
00000001
,
00000100
00001000
00000000
00010000
,
00100000
10000000
01000000
00100000
,
00010000
01000000
00002000
00013000
,
00000000
00010100
00000000
00000000
,
00000000
01001000
00000000
00000000
,
00000000
00010010
00000000
00000000
,
00000000
00101000
00000000
00000000
,
00000000
00010100
00000000
00000000
,
00000000
01001000
00000000
00000000
,
00000000
00002000
00003000
00020000
,
00030000
02000000
03000000
20000000
,
30000000
00100000
00000000
00010000
,
00000000
00001000
00000000
00000100
,
00000000
00000001
00000000
00000010
,
00000000
00001000
00000000
00010000
,
00000000
01000000
10000000
00100000
,
00000000
10000000
01000000
00010000
,
00000000
00022000
00000000
00000000
,
00000000
00000000
00000000
00033000
,
00000000
00011000
00000000
00000000
,
00000000
00000000
00000000
00000000
,
00000000
00011000
00000000
00000000
,
00000000
00010000
00000000
00010000
,
00000000
00020000
00000000
00030000
,
00000000
00001000
00000000
00010000
,
00010000
00001000
00000100
00001000
,
00000100
00000001
00000010
00001000
,
00010000
00011000
00001000
00100000
,
00010000
01000000
00100000
10000000
,
01000000
00100000
00010000
01000000
,
00100000
00010000
00001000
00000100
,
00000010
00001000
00000100
00000010
,
00000001
00000100
00001000
00010000
,
00100000
10000000
01000000
00010000
,
00022000
00000000
00000000
00033000
,
00011000
00000000
00000000
00000000
;

//---------------dance-single - ----------------
#NOTEDATA:;
#CHARTNAME:;
#STEPSTYPE:dance-single;
#DESCRIPTION:;
#CHARTSTYLE:;
#DIFFICULTY:Medium;
#METER:10;
#RADARVALUES:0.427043,0.598928,0.234874,0.192169,0.000000,420.000000,387.000000,33.000000,27.000000,0.000000,0.000000,0.000000,0.000000,0.000000,0.427043,0.598928,0.234874,0.192169,0.000000,420.000000,387.000000,33.000000,27.000000,0.000000,0.000000,0.000000,0.000000,0.000000;
#CREDIT:MILEN;
#DISPLAYBPM:175.000000;
#NOTES:
0000
0000
0000
0000
,
0000
0000
0000
0000
,
0000
0000
0000
0000
,
0000
0000
0000
0000
,
0000
0000
0000
0000
,
0000
1000
1000
1000
,
0000
0001
0001
0001
,
0000
1000
1000
0001
,
0001
1000
0001
2002
,
3003
1000
0010
0100
,
0001
0100
0010
1000
,
0100
0010
0001
0010
,
0100
1000
0010
0100
,
0001
1001
1000
0100
,
1000
1001
0001
0010
,
0001
0000
1001
0000
1001
0000
0010
0100
,
0000
0220
0000
0000
0000
0000
0000
0000
,
0330
0010
1000
0010
,
1000
0100
1000
0000
0010
0000
0100
0000
,
0001
0010
0001
0000
0100
0000
0010
1000
,
0010
1000
0000
0100
0000
0010
0000
0001
,
0000
0000
0011
0000
0010
0000
0001
0100
,
0000
0010
0000
0100
0010
0100
0000
0010
,
0000
0000
1010
0000
1000
0000
0100
1000
,
0000
0100
0000
0010
0100
0010
0000
0100
,
0010
0001
0010
0001
,
0100
0001
0100
0000
0001
0000
1000
0000
,
0010
1000
0010
0000
1000
0000
0001
0100
,
0001
0100
0000
0010
0000
1000
0000
1100
,
0000
0000
0000
0000
0100
0010
0100
0010
,
0000
0001
0000
0100
0000
0010
1000
0010
,
1000
0000
0000
0000
0100
0010
0100
0010
,
0100
1000
0000
0010
0000
0100
0001
0010
,
0001
0000
0100
0000
0010
1000
0000
0100
,
0000
0000
0010
0000
0001
0100
0000
0010
,
0000
0000
0000
0000
0100
0010
0100
0000
,
0001
0010
0100
1000
,
1001
0000
0001
0000
0010
0001
0000
0100
,
0000
0000
0010
0000
1000
0100
0000
0010
,
0000
0000
0110
0000
0000
1100
0000
0000
,
0011
0000
0000
0101
0000
0000
2020
0000
,
3030
1000
0001
0010
,
0100
1000
0000
0001
0000
1000
0100
0000
,
0010
0001
0100
0010
,
1000
0002
0000
0000
0000
0000
0100
0000
,
0103
0000
0100
0010
1000
0001
0000
0010
,
0100
1000
0001
0000
0100
0010
0000
0000
,
0100
0001
0100
0000
0010
0000
1000
0000
,
0001
0010
0000
0100
0010
0000
0002
0000
,
2003
0000
3100
0000
0010
0000
0001
0100
,
0000
0010
0000
0100
0001
0000
2000
0000
,
3002
0000
0013
0000
0100
0000
1000
0010
,
0000
0100
0000
0010
1000
0000
0100
0000
,
0010
0100
0010
0000
0001
0000
1000
0000
,
0100
0010
0100
0000
1000
0010
0000
0100
,
0000
0001
0100
0000
0001
0000
0010
0000
,
0100
1000
0000
0100
1000
0000
0020
0000
,
0230
0310
1000
0100
,
0010
0001
0000
0100
0001
0000
0200
0000
,
0320
0000
0130
0000
0001
0010
0000
0000
,
0011
0000
0001
0000
1000
0100
0000
0000
,
1100
0000
1000
0000
0000
0010
0000
0000
,
0100
0000
0001
0000
0000
0010
0000
0000
,
0100
1100
0011
1001
,
1000
0010
0000
0100
0010
0100
0010
0000
,
0100
0001
0100
0200
0000
0000
0300
0000
,
0010
0020
0000
0000
0030
0000
1000
0000
,
0001
0000
1000
2000
0000
0000
3000
0000
,
0001
0002
0000
0000
0003
0000
0100
0000
,
0010
0000
0100
0200
0000
0000
0300
0000
,
0010
0020
0000
0000
1030
0000
0100
0000
,
0010
0011
0000
0101
,
0000
1100
0000
1010
,
0000
0000
0110
0000
0100
0001
0000
0010
,
0000
0100
0000
1000
0000
0020
0000
0030
,
0000
0110
0000
0000
0100
0001
0000
0010
,
0000
0200
0000
0000
0000
0000
0300
0000
,
0110
0000
0010
0000
0100
1000
0000
0010
,
0000
1000
0100
0000
0010
0001
0000
0100
,
0000
0001
0010
0000
0100
0000
1000
0000
,
0001
0000
0100
0000
0010
0000
1000
0001
,
1000
0001
2000
0000
0000
0000
0000
0000
,
0000
0000
0000
0000
3000
0000
0010
0100
,
0010
0100
0020
0000
0000
0000
0000
0000
,
0030
1010
0000
0101
,
0000
0000
1001
0000
0001
0100
0000
1100
,
0000
0000
1000
0000
0010
0001
0000
0011
,
0000
0100
0010
0000
1000
0000
0001
0000
,
0010
0100
0000
0010
0100
0000
1000
0001
,
0100
0010
0100
0000
0001
0000
0010
0000
,
0100
0000
1000
0000
0001
0100
0010
0100
,
0001
0000
0010
0001
0000
0001
0100
0000
,
0010
0000
1000
0100
0000
0100
0010
0000
,
0001
0100
0010
0000
1000
0000
0001
0000
,
1000
0010
0100
0000
0001
0000
1000
0000
,
0100
0010
0100
0010
0001
1000
0100
0010
,
0000
0010
0001
0010
0100
1000
0010
0100
,
0220
0000
0000
0000
,
0000
0000
0000
0000
,
0330
0000
0000
0000
;

//---------------dance-double - ----------------
#NOTEDATA:;
#CHARTNAME:;
#STEPSTYPE:dance-double;
#DESCRIPTION:;
#CHARTSTYLE:;
#DIFFICULTY:Medium;
#METER:10;
#RADARVALUES:0.421959,0.493235,0.249109,0.206404,0.000000,415.000000,380.000000,35.000000,29.000000,0.000000,0.000000,0.000000,0.000000,0.000000,0.421959,0.493235,0.249109,0.206404,0.000000,415.000000,380.000000,35.000000,29.000000,0.000000,0.000000,0.000000,0.000000,0.000000;
#CREDIT:MILEN;
#DISPLAYBPM:175.000000;
#NOTES:
00000000
00000000
00000000
00000000
,
00000000
00000000
00000000
00000000
,
00000000
00000000
00000000
00000000
,
00000000
00000000
00000000
00000000
,
00000000
00000000
00000000
00000000
,
00000000
00001000
00001000
00001000
,
00000000
00010000
00010000
00010000
,
00000000
00001000
00001000
00010000
,
00010000
00001000
00010000
00022000
,
00033000
00001000
00100000
00010000
,
01000000
00010000
00100000
00001000
,
00010000
00000100
00001000
00000010
,
00001000
00000100
00010000
00001000
,
00010000
00011000
00001000
01000000
,
00001000
00011000
00010000
00000010
,
00010000
00000000
00011000
00000000
00011000
00000000
00001000
00010000
,
00000000
00022000
00000000
00000000
00000000
00000000
00000000
00000000
,
00033000
00001000
00100000
00010000
,
01000000
00100000
01000000
00000000
00010000
00000000
00100000
00000000
,
00001000
00010000
00001000
00000000
00100000
00000000
00010000
01000000
,
00010000
01000000
00000000
00001000
00000000
00010000
00000000
00000010
,
00000000
00000000
00001010
00000000
00001000
00000000
00000100
00001000
,
00000000
00000100
00000000
00010000
00001000
00010000
00000000
00001000
,
00000000
00000000
00011000
00000000
00010000
00000000
00001000
00100000
,
00000000
00010000
00000000
01000000
00100000
01000000
00000000
00100000
,
10000000
01000000
00100000
00010000
,
00100000
00001000
00010000
00000000
00001000
00000000
00010000
00000000
,
00000010
00010000
00001000
00000000
00010000
00000000
00001000
00100000
,
00010000
01000000
00000000
00001000
00000000
00010000
00000000
00011000
,
00000000
00000000
00000000
00000000
00001000
00010000
00000010
00001000
,
00000000
00000100
00000000
00000010
00000000
00000001
00000100
00000010
,
00001000
00000000
00000000
00000000
00000001
00000010
00000100
00000010
,
00000001
00000010
00000000
00001000
00000000
00010000
00001000
00010000
,
00100000
00000000
10000000
00000000
01000000
00100000
00000000
01000000
,
00000000
00000000
00010000
00000000
01000000
00100000
00000000
01000000
,
00000000
00000000
00000000
00000000
10000000
00100000
00010000
00000000
,
00100000
01000000
00100000
00010000
,
00011000
00000000
00001000
00000000
00010000
00000100
00000000
00001000
,
00000000
00000000
00000100
00000000
00000010
00000100
00000000
00001000
,
00000000
00000000
00001100
00000000
00000000
00010100
00000000
00000000
,
00011000
00000000
00000000
00101000
00000000
00000000
00220000
00000000
,
00330000
00010000
01000000
00001000
,
00010000
00000100
00000000
00001000
00000000
00000100
00010000
00000000
,
00001000
00000100
00000001
00000010
,
00000100
00000200
00000000
00000000
00000000
00000000
00000010
00000000
,
00000310
00000000
00000010
00000001
00000100
00000010
00000000
00000010
,
00001000
00000100
00000010
00000000
00001000
00001000
00000000
00000000
,
00010000
00001000
00010000
00000000
00100000
00000000
10000000
00000000
,
01000000
00100000
00000000
01000000
00010000
00000000
00002000
00000000
,
00023000
00000000
00030010
00000000
00010000
00000000
00001000
00100000
,
00000000
00010000
00000000
00100000
00001000
00000000
00020000
00000000
,
00032000
00000000
01003000
00000000
00001000
00000000
00010000
00000100
,
00000000
00001000
00000000
00000100
00010000
00000000
00001000
00000000
,
00000100
00000010
00000100
00000000
00001000
00000000
00010000
00000000
,
00100000
01000000
00100000
00000000
10000000
01000000
00000000
00010000
,
00000000
00001000
00010000
00000000
01000000
00000000
10000000
00000000
,
00100000
00010000
00000000
00001000
00010000
00000000
00002000
00000000
,
00023000
00030100
00010000
00001000
,
00100000
00010000
00000000
01000000
00001000
00000000
00020000
00000000
,
00032000
00000000
00103000
00000000
00001000
00010000
00000000
00000000
,
00010010
00000000
00010000
00000000
00001000
01000000
00000000
00000000
,
01001000
00000000
00001000
00000000
00000000
00010000
00000000
00000000
,
00100000
00000000
00010000
00000000
00000000
00001000
00000000
00000000
,
00000100
00000101
00000010
00001010
,
00001000
00000100
00000000
00000010
00000001
00000010
00000001
00000000
,
00000100
00001000
00010000
00020000
00000000
00000000
00030000
00000000
,
00001000
00002000
00000000
00000000
00003000
00000000
00010000
00000000
,
00000010
00000000
00010000
00020000
00000000
00000000
00030000
00000000
,
00001000
00002000
00000000
00000000
00003000
00000000
00010000
00000000
,
00001000
00000000
00100000
00200000
00000000
00000000
00300000
00000000
,
01000000
02000000
00000000
00000000
13000000
00000000
00100000
00000000
,
00010000
00011000
00000000
01001000
,
00000000
00010100
00000000
00101000
,
00000000
00000000
00010010
00000000
00010000
00001000
00000000
00100000
,
00000000
00001000
00000000
00010000
00000000
00000200
00000000
00000000
,
00000300
00000000
00000110
00000000
00000001
00000100
00000000
00001000
,
00000000
00020000
00000000
00000000
00000000
00000000
00030000
00000000
,
00011000
00000000
00001000
00000000
00100000
01000000
00000000
10000000
,
00000000
01000000
00100000
00000000
01000000
00010000
00000000
00001000
,
00000000
00010000
01000000
00000000
10000000
00000000
00100000
00000000
,
00010000
00000000
00001000
00000000
00000100
00000000
00000001
00000010
,
00001000
00022000
00000000
00000000
,
00000000
00000000
00000000
00000000
00033000
00000000
00010000
01000000
,
10000000
20020000
00000000
00000000
,
30030000
10100000
00000000
01010000
,
00000000
00000000
00110000
00000000
00100000
00001000
00000000
00011000
,
00000000
00000000
00010000
00000000
00000010
00001000
00000000
00001100
,
00000000
00000010
00000001
00000000
00000100
00000000
00001000
00000000
,
00010000
00001000
00000000
00010000
00001000
00000000
00100000
00010000
,
00100000
01000000
10000000
00000000
00100000
00000000
00010000
00000000
,
00001000
00000000
00100000
00000000
01000000
00100000
01000000
00000000
,
10000000
00000000
00100000
00010000
00000000
00010000
00001000
00000000
,
00000100
00000000
00000001
00000010
00000000
00000000
00000110
00000000
,
00000001
00000100
00001000
00000000
00000100
00000000
00001000
00000000
,
00010000
01000000
10000000
00000000
01000000
00000000
10000000
00000000
,
00100000
01000000
00100000
00000000
00010000
00001000
00010000
00000000
,
00000010
00000100
00000010
00000000
00001000
00000001
00001000
00000000
,
00002002
00000000
00000000
00000000
,
00000000
00000000
00000000
00000000
,
00003003
00000000
00000000
00000000
;

//---------------dance-single - ----------------
#NOTEDATA:;
#CHARTNAME:;
#STEPSTYPE:dance-single;
#DESCRIPTION:;
#CHARTSTYLE:;
#DIFFICULTY:Hard;
#METER:14;
#RADARVALUES:0.641582,0.810314,0.526687,0.419926,0.103202,631.000000,557.000000,74.000000,59.000000,0.000000,0.000000,0.000000,0.000000,0.000000,0.641582,0.810314,0.526687,0.419926,0.103202,631.000000,557.000000,74.000000,59.000000,0.000000,0.000000,0.000000,0.000000,0.000000;
#CREDIT:MILEN;
#DISPLAYBPM:175.000000;
#NOTES:
0000
0000
0000
0000
,
0000
0000
0000
0000
,
0000
0000
0000
0000
,
0000
0000
0000
0000
,
0000
0000
0000
0000
,
0000
1000
1000
1000
,
1000
0001
0001
0001
,
0001
0000
1000
0010
0100
0001
1000
0100
,
0010
0000
0001
0000
1000
0000
0010
0000
0100
0000
0001
0000
1000
0001
1000
0001
,
2000
0000
3010
0100
0001
0010
0000
0001
,
0101
0000
0100
0010
1000
0100
0000
1000
,
1010
0000
0010
0100
0001
1000
0000
1001
,
0000
0001
2000
0000
3100
0020
0000
0031
,
0100
0010
1010
1000
0100
1000
0001
0010
,
0001
0000
0101
0001
0010
0001
1000
0100
,
1000
0000
1100
0000
0011
0000
0100
0010
,
0000
0000
0220
0000
0000
0000
0000
0000
0000
0000
0000
0000
0330
0000
1000
0001
,
1000
0001
0001
0001
,
0001
0100
0100
0100
,
0100
1000
1000
1000
,
1000
0010
0010
0010
,
0010
0001
0001
0100
,
0100
1000
1000
0010
,
0010
0001
0100
1000
,
0010
0000
0001
0000
1000
0000
0010
0100
,
0010
0000
1000
0001
0100
0000
0010
0000
0110
0000
0000
0000
0100
0000
0001
0000
,
0011
0000
0010
0100
1100
0000
1000
0001
,
0101
0000
0100
0010
1010
0000
1000
0010
,
0110
0000
0100
0001
0010
0110
0000
2002
,
0000
3003
1000
0010
0100
0001
0010
0100
,
1000
0000
0001
0100
0010
1000
0100
0010
,
0001
0000
1000
0010
0100
0001
0010
0100
,
1000
1010
0000
0101
0000
0011
0010
1100
,
0100
0000
2000
0000
3010
0200
0000
1000
,
0000
0000
0302
0000
0103
0020
0000
0001
,
0000
0000
1030
0000
1000
0100
0010
0001
,
0100
0110
0000
1010
0000
0101
0101
0000
,
1001
0000
0002
0000
0013
0200
0000
0001
,
0000
0000
2300
0000
3100
0020
0000
1000
,
0000
0000
0002
0033
0000
0202
0303
0000
,
2200
0000
0000
3300
0000
0000
0000
0000
0000
2020
0000
0000
3030
0000
0000
0000
0000
0000
0010
0000
0100
0000
0001
0000
,
1000
0100
0010
0001
0000
0000
2001
0000
0000
3020
0000
0000
,
0100
0230
0000
0302
0000
0010
0023
0000
,
0230
2300
3020
0130
,
0110
1000
0100
0010
0001
1000
1010
0001
,
0101
1000
0100
0010
0001
0100
0000
1000
,
0100
0010
0011
0001
1000
2200
3300
0000
,
0001
0010
0100
1000
0001
0100
1000
0100
,
0001
0020
0000
0130
0110
0000
1000
0010
,
0001
0000
0010
0000
2000
0000
0000
0000
0000
0000
0000
0000
3100
0010
0100
0000
,
0010
0001
0100
0010
1000
0000
0001
0100
,
1000
0000
0100
0000
0002
0000
0000
0000
0000
0000
0000
0000
0013
0100
0010
0000
,
0001
0100
0010
1000
0100
0000
0110
0000
,
0001
0100
1000
0100
0001
0010
0100
0001
,
0100
1000
0100
0010
0001
0101
0000
1100
,
0000
0000
1000
0001
1000
0000
0001
0000
0100
0000
1000
0000
0100
0000
0001
0000
,
0010
0011
0000
0100
1100
0000
1000
0010
,
0001
0000
0010
0000
2000
0000
0000
0000
0000
0000
0000
0000
3100
0010
0100
0000
,
1000
0010
0001
0010
1000
0000
0100
0010
,
0001
0100
0110
0000
1000
1010
0000
0001
,
0101
0000
1000
0100
0010
0001
0100
0010
,
0110
0000
0000
0000
0100
0001
0100
0000
0010
0000
1000
0000
0100
0000
0010
0000
,
1001
0000
0000
0000
0010
1000
0010
0000
0100
0000
0001
0000
0010
0000
0100
0000
,
1001
1100
0101
0011
,
0010
1010
0000
1000
0100
0010
0002
0000
,
1003
0010
0100
0100
0000
0000
0101
0000
,
0010
0010
0000
0000
1010
0000
1100
0000
,
0011
0000
0100
0100
0000
0000
1100
0000
,
0010
0010
0000
0000
0000
0000
1001
0000
,
0001
0100
1000
1000
0000
0000
1010
0000
,
0001
0000
0000
0001
0000
0000
0000
0000
0000
0000
0000
0000
0101
0000
0000
0000
0000
0000
1000
0000
0010
0000
1000
0000
,
0100
0010
0001
0200
0000
0000
0300
0000
0000
2000
0000
0000
,
3000
0000
0020
0000
0030
0000
0011
0001
,
0100
0010
1000
0100
0001
0100
1000
0010
,
0001
0010
1000
0100
0010
0001
0201
0000
,
0000
0000
0310
0010
1000
0001
0100
1000
,
0100
0100
0001
1000
0010
0001
0010
1000
,
1200
0000
0310
0010
0001
0100
0010
1000
,
0100
0100
0001
1000
0010
0001
0100
1000
,
0100
0001
0011
0010
0100
0010
0001
1000
,
0100
0000
0010
0000
0100
0000
1000
0000
0010
0000
0100
0000
0001
0010
0001
0000
,
1000
0100
1000
0000
0020
0000
0000
0000
0000
0000
0000
0000
0100
0000
0230
0000
,
0000
0302
0000
1000
2003
0000
3100
0010
,
0001
0100
0020
0000
0000
0000
1000
2030
,
0000
3002
0000
0100
0203
0000
0000
0000
,
0310
1000
1100
0000
0010
0011
0000
2020
,
3030
0000
0101
0000
0001
1000
0000
0220
,
0330
0000
0010
1000
0001
0000
0100
0000
1000
0000
0100
0000
0001
0000
0010
0000
,
1000
0000
0020
0000
0000
0000
0001
0000
0130
0000
1000
0000
0010
0100
0010
0000
,
0100
0001
0100
0001
2000
0000
0000
0000
3010
0000
0100
0000
0001
0000
0010
0000
,
1000
0001
0100
1000
0010
0100
0001
1000
,
1100
0100
0010
0001
0011
0010
0001
0100
,
0101
0001
1000
0010
1010
1000
0001
0100
,
0110
0010
1000
0100
0001
1000
0010
0001
,
0100
0010
0100
0000
0001
0000
1000
0000
0010
0100
0010
0000
1000
0000
0001
0000
,
0101
0000
0100
0000
0010
1000
0010
0000
1000
0100
1000
0000
0001
0010
0002
0000
,
0000
1003
0010
0001
1000
0100
0001
0010
,
2200
0000
0000
0000
,
0000
0000
0000
0000
,
3300
0000
0000
0000
;

//---------------dance-double - ----------------
#NOTEDATA:;
#CHARTNAME:;
#STEPSTYPE:dance-double;
#DESCRIPTION:;
#CHARTSTYLE:;
#DIFFICULTY:Hard;
#METER:14;
#RADARVALUES:0.607011,0.669390,0.391456,0.384339,0.035587,597.000000,542.000000,55.000000,54.000000,0.000000,0.000000,0.000000,0.000000,0.000000,0.607011,0.669390,0.391456,0.384339,0.035587,597.000000,542.000000,55.000000,54.000000,0.000000,0.000000,0.000000,0.000000,0.000000;
#CREDIT:MILEN;
#DISPLAYBPM:175.000000;
#NOTES:
// measure 0
00000000
00000000
00000000
00000000
,  // measure 1
00000000
00000000
00000000
00000000
,  // measure 2
00000000
00000000
00000000
00000000
,  // measure 3
00000000
00000000
00000000
00000000
,  // measure 4
00000000
00000000
00000000
00000000
,  // measure 5
00000000
00001000
00001000
00001000
,  // measure 6
00001000
00010000
00010000
00010000
,  // measure 7
00010000
00000000
00001000
00100000
00010000
01000000
00001000
00010000
,  // measure 8
00000100
00000000
00001000
00000000
00000010
00000000
00010000
00000000
00001000
00000000
00100000
00000000
00010000
01000000
00010000
01000000
,  // measure 9
00020000
00000000
10030000
01000000
00100000
00010000
00000000
00100000
,  // measure 10
00001000
00000000
00010000
00001000
00000100
00000010
00000000
00000100
,  // measure 11
00000001
00000000
00000010
00000100
00001000
00000010
00000000
00010000
,  // measure 12
00000000
00001000
00200000
00000000
00310000
02000000
00000000
03100000
,  // measure 13
10000000
01000000
00100000
00010000
00100000
00001000
00010000
00001000
,  // measure 14
00000100
00000010
00000100
00000001
00000010
00000100
00001000
00000100
,  // measure 15
00010000
00000000
00010010
00000000
01001000
00000000
01000000
00010000
,  // measure 16
00000000
00000000
00220000
00000000
00000000
00000000
00000000
00000000
00000000
00000000
00330000
00000000
00000000
00000000
01000000
10000000
,  // measure 17
01000000
10000000
10000000
10000000
,  // measure 18
10000000
00100000
00100000
00100000
,  // measure 19
00100000
00010000
00010000
00010000
,  // measure 20
00010000
00001000
00001000
00001000
,  // measure 21
00001000
00000100
00000100
00000001
,  // measure 22
00000001
00000010
00000010
00001000
,  // measure 23
00001000
00010000
01000000
10000000
,  // measure 24
00100000
00000000
00010000
00000000
00001000
00000000
00000100
00000001
,  // measure 25
00000010
00000000
00000100
00000010
00000100
00000000
00001000
00000000
00001100
00000000
00000000
00000000
00000100
00000000
00010000
00000000
,  // measure 26
00011000
00000000
00001000
00100000
00110000
00000000
00010000
01000000
,  // measure 27
01100000
00000000
00100000
10000000
11000000
00000000
01000000
00100000
,  // measure 28
01100000
00000000
01000000
00010000
00001000
00010000
00000000
00022000
,  // measure 29
00000000
00033000
00010000
00000100
00001000
00000010
00000100
00000001
,  // measure 30
00000010
00000000
00000100
00000010
00000001
00000100
00001000
00010000
,  // measure 31
00100000
00000000
10000000
01000000
00100000
01000000
00010000
00001000
,  // measure 32
00000100
00000001
00000000
00000011
00000000
00001100
00001000
00000100
,  // measure 33
00010000
00000000
00002000
00000000
00100000
00203000
00000000
00010000
,  // measure 34
00000000
00000000
00302000
00000000
00010000
00023000
00000000
00000010
,  // measure 35
00000000
00000000
00031000
00000000
00001000
00010000
00001000
00000100
,  // measure 36
00000010
00000100
00000000
00000101
00000000
00000010
00001010
00000000
,  // measure 37
00011000
00000000
00020000
00000000
00000010
00030020
00000000
00001000
,  // measure 38
00000000
00000000
00020030
00000000
00001000
00032000
00000000
00100000
,  // measure 39
00000000
00000000
02000000
03003000
00000000
00020200
00030300
00000000
,  // measure 40
00202000
00000000
00000000
00303000
00000000
00000000
00000000
00000000
00000000
00020020
00000000
00000000
00030030
00000000
00000000
00000000
00000000
00000000
00010000
00000000
00001000
00000000
00010000
00000000
,  // measure 41
00001000
00010000
00001000
00010000
00000000
00000000
00012000
00000000
00000000
00203000
00000000
00000000
,  // measure 42
01000000
02300000
00000000
23000000
00000000
00100000
30200000
00000000
,  // measure 43
00320000
00032000
00003200
00000301
,  // measure 44
00000011
00000010
00000001
00000100
00000010
00001000
00001100
00000000
,  // measure 45
00010100
00010000
00001000
00010000
01000000
10000000
00000000
10000000
,  // measure 46
00100000
00010000
00001000
00010000
00001000
00000200
00000000
00000000
,  // measure 47
00000301
00000010
00000100
00001000
00000010
00000100
00001000
00010000
,  // measure 48
00100000
02000000
00000000
03010000
10010000
00000000
10000000
01000000
,  // measure 49
00100000
00010000
01000000
00001000
01000000
00001000
00010000
00000010
,  // measure 50
00001000
00000100
00000010
00000001
00001000
00000010
00000100
00000001
,  // measure 51
00001000
00000100
00010000
00000010
00010000
00000010
00000100
00001000
,  // measure 52
00010000
00001000
00100000
00010000
00100000
01000000
10000000
00100000
,  // measure 53
01000000
00010000
01000000
10000000
01000000
00010000
00100000
01000000
,  // measure 54
00010000
00001000
00000010
00000001
00000100
00000110
00000000
00001001
,  // measure 55
00000000
00000001
00000001
00000100
00001000
00010000
00100000
10000000
,  // measure 56
01000000
01100000
00000000
00010000
10010000
00000000
10000000
01000000
,  // measure 57
00010000
00001000
00000020
00000000
00000000
00000000
00000031
00000100
,  // measure 58
00000010
00000100
00001000
00010000
00100000
01000000
00100000
10000000
,  // measure 59
01000000
00010000
00001000
00000100
00001000
00010000
00001000
00000100
,  // measure 60
00001000
00010000
01000000
00010000
00001000
00010000
01000000
00010000
,  // measure 61
00001000
00010000
00001000
00000100
00000001
00000010
00000100
00000010
,  // measure 62
00001000
00010000
01000000
00100000
01000000
10000000
00100000
00010000
,  // measure 63
00011000
01001000
00011000
00010100
,  // measure 64
00000100
00000110
00000000
00000001
00000010
00000100
00002000
00000000
,  // measure 65
00003001
00000100
00000010
00000010
00000000
00000000
00000110
00000000
,  // measure 66
00001000
00001000
00000000
00000000
00001001
00000000
00010100
00000000
,  // measure 67
01001000
00000000
01000000
01000000
00000000
00000000
10010000
00000000
,  // measure 68
00100000
00100000
00000000
00000000
00000000
00000000
01100000
00000000
,  // measure 69
10000000
00100000
00010000
00010000
00000000
00000000
00011000
00000000
,  // measure 70
00000100
00000100
00000000
00000000
00000110
00000000
00000002
00000000
,  // measure 71
00000203
00002300
00000000
00023000
,  // measure 72
00000000
00000000
00230000
00000000
00000000
00000000
10300000
01000000
,  // measure 73
00100000
01000000
10000000
00100000
00010000
00001000
00010000
00001000
,  // measure 74
00000100
00000001
00000010
00000100
00001000
00000010
00020010
00000000
,  // measure 75
00000000
00000000
00031000
00001000
00100000
00010000
01000000
00001000
,  // measure 76
00010000
00010000
00000100
00001000
00000010
00010000
00001000
00000100
,  // measure 77
00000102
00000000
00000013
00000010
00001000
00010000
00100000
10000000
,  // measure 78
01000000
01000000
00010000
00001000
00100000
01000000
00010000
00001000
,  // measure 79
00000010
00000100
00000010
00000010
00000001
00000100
00001000
00010000
,  // measure 80
00100000
10000000
01000000
00010000
00001000
00000010
00000001
00000100
,  // measure 81
00001000
00010000
00022000
00000000
00000000
00000000
00000000
00000000
,  // measure 82
00000000
00000000
00000000
00000000
00033000
00000000
00001000
00010000
,  // measure 83
00100000
10000000
20020000
00000000
00000000
00000000
00000000
00000000
,  // measure 84
30030000
02200000
03300000
10010000
,  // measure 85
10000000
01000000
00010000
00000000
00001000
00101000
00000000
00020020
,  // measure 86
00030030
00000000
00011000
00000000
00001000
00000100
00000000
00000101
,  // measure 87
00000000
00000001
00000001
00000010
00000100
00001000
00010000
00100000
,  // measure 88
01000000
20000000
00000000
30100000
00010000
00001000
00010000
00100000
,  // measure 89
00010000
00001000
00010000
00001000
00020000
00000000
00000000
00000000
00030100
00000000
00001000
00000000
00000010
00000000
00000100
00000000
,  // measure 90
00000001
00001000
00000100
00000010
00001000
00010000
00001000
00000010
,  // measure 91
00001000
00010000
01000000
10000000
00100000
00010000
00100000
01000000
,  // measure 92
00010000
00100000
01000000
00010000
00001000
00000010
00000100
00001000
,  // measure 93
00000100
00000010
00000001
00000100
00001000
00010000
00100000
10000000
,  // measure 94
01000000
00010000
00001000
00000010
00000001
00000100
00001000
00010000
,  // measure 95
00010010
00000000
00101000
00000000
00010100
00000000
01001000
00002000
,  // measure 96
00000000
00013000
00100000
00010000
00001000
00000010
00001000
00010000
,  // measure 97
00022000
00000000
00000000
00000000
,  // measure 98
00000000
00000000
00000000
00000000
,  // measure 99
00033000
00000000
00000000
00000000
;
