#VERSION:0.83;
#TITLE:Nostalgia;
#SUBTITLE:;
#ARTIST:Woody;
#TITLETRANSLIT:;
#SUBTITLETRANSLIT:;
#ARTISTTRANSLIT:;
#GENRE:K-POP;
#ORIGIN:;
#CREDIT:;
#BANNER:Nostalgia.png;
#BACKGROUND:Nostalgia-bg.png;
#PREVIEWVID:;
#JACKET:Nostalgia-jacket.png;
#CDIMAGE:;
#DISCIMAGE:;
#LYRICSPATH:;
#CDTITLE:;
#MUSIC:Nostalgia.ogg;
#OFFSET:-0.022000;
#SAMPLESTART:43.306004;
#SAMPLELENGTH:14.400002;
#SELECTABLE:YES;
#DISPLAYBPM:100.000000;
#BPMS:0.000=100.000;
#STOPS:;
#DELAYS:;
#WARPS:;
#TIMESIGNATURES:0.000=4=4;
#TICKCOUNTS:0.000=4;
#COMBOS:0.000=1;
#SPEEDS:0.000=1.000=0.000=0;
#SCROLLS:0.000=1.000;
#FAKES:;
#LABELS:0.000=Song Start;
#BGCHANGES:-10000.000=black.mpg=1.000=1=0=1===CrossFade==,
-0.200=Nostalgia.mpg=1.000=0=0=0=StretchNoLoop====,
99999=-nosongbg-=1.000=0=0=0 // don't automatically add -songbackground-
;
#KEYSOUNDS:;
#ATTACKS:
;

//---------------dance-single - ----------------
#NOTEDATA:;
#CHARTNAME:;
#STEPSTYPE:dance-single;
#DESCRIPTION:;
#CHARTSTYLE:;
#DIFFICULTY:Beginner;
#METER:2;
#RADARVALUES:0.089405,0.100580,0.000000,0.000000,0.000000,77.000000,77.000000,0.000000,0.000000,0.000000,0.000000,0.000000,0.000000,0.000000,0.089405,0.100580,0.000000,0.000000,0.000000,77.000000,77.000000,0.000000,0.000000,0.000000,0.000000,0.000000,0.000000,0.000000;
#CREDIT:;
#DISPLAYBPM:100.000000;
#NOTES:
0000
0000
0000
0000
,
0000
0000
0000
0000
,
1000
0000
1000
0000
,
1000
0000
0000
0000
,
0001
0000
0001
0000
,
0001
0000
0000
0000
,
0100
0000
0100
0000
,
0100
0000
0000
0000
,
0010
0000
0010
0000
,
0010
0000
0000
0000
,
1000
0000
0000
0000
,
0100
0000
0000
0000
,
0010
0000
0000
0000
,
0001
0000
0000
0000
,
0010
0000
0000
0000
,
0100
0000
0000
0000
,
1000
0000
0000
0000
,
0010
0000
0010
0000
,
0010
0000
1000
0000
,
0001
0000
0100
0000
,
0001
0000
1000
0000
,
0010
0000
0100
0000
,
0100
0000
0001
0000
,
1000
0000
0010
0000
,
1000
0000
0001
0000
,
0100
0000
0010
0000
,
0010
0000
0000
0000
,
1000
0000
0000
0000
,
0001
0000
0000
0000
,
0100
0000
0000
0000
,
0010
0000
0000
0000
,
1000
0000
0000
0000
,
0001
0000
0000
0000
,
0100
0000
0000
0000
,
0010
0000
0010
0000
,
0010
0000
0010
0000
,
1000
0000
0100
0000
,
0010
0000
0001
0000
,
0100
0000
0100
0000
,
0100
0000
0100
0000
,
0001
0000
0010
0000
,
0100
0000
1000
0000
,
0001
0000
0100
0000
,
1000
0000
0100
0000
,
0001
0000
0100
0000
,
1000
0000
0100
0000
,
0010
0000
0001
0000
,
0010
0000
1000
0000
,
0010
0000
0001
0000
,
0010
0000
0100
0000
;

//---------------dance-single - ----------------
#NOTEDATA:;
#CHARTNAME:;
#STEPSTYPE:dance-single;
#DESCRIPTION:;
#CHARTSTYLE:;
#DIFFICULTY:Easy;
#METER:4;
#RADARVALUES:0.159071,0.203193,0.016255,0.048766,0.000000,137.000000,135.000000,2.000000,6.000000,0.000000,0.000000,0.000000,0.000000,0.000000,0.159071,0.203193,0.016255,0.048766,0.000000,137.000000,135.000000,2.000000,6.000000,0.000000,0.000000,0.000000,0.000000,0.000000;
#CREDIT:;
#DISPLAYBPM:100.000000;
#NOTES:
0000
0000
0000
0000
,
0000
0000
0000
0000
,
1000
0001
1000
0000
,
0001
1000
0100
0000
,
0001
1000
0001
0000
,
1000
0001
0010
0000
,
1000
0001
1000
0010
,
0100
0010
0010
0000
,
1000
0001
1000
0100
,
0010
0100
0100
0000
,
1000
0000
0010
0000
,
0001
0000
0100
0000
,
1000
0000
0010
0000
,
0001
0000
0100
0000
,
1000
0010
1000
0000
,
0010
0001
0010
0000
,
0001
0100
0001
0000
,
0100
1000
0100
0100
,
1001
1000
0010
0100
,
0010
1000
0200
0300
,
0010
0001
0100
0010
,
0100
0001
0010
0010
,
0001
0100
0010
0100
,
0001
0010
0200
0300
,
1000
0010
0100
0010
,
1000
0100
0010
0010
,
0001
0000
0000
0000
,
0100
0000
0000
0000
,
0010
0000
0000
0000
,
1000
0000
0000
0000
,
0001
0000
0000
0000
,
0010
0000
0000
0000
,
0200
0000
0000
0300
,
0100
0100
0100
0000
,
1000
0000
0100
0000
,
0001
0000
0010
0000
,
1000
0000
0100
0000
,
0001
0000
0010
0000
,
1000
0000
0010
0000
,
0001
0000
0100
0000
,
1000
0000
0010
0000
,
0001
0100
0100
1000
,
1001
0001
0010
1000
,
0010
0001
0200
0300
,
0010
1000
0100
0001
,
0100
1000
0010
0010
,
1000
0100
0001
0100
,
1000
0010
0200
0300
,
0001
0010
1000
0010
,
0001
0100
0010
0200
,
0300
0000
0000
0000
;

//---------------dance-single - ----------------
#NOTEDATA:;
#CHARTNAME:;
#STEPSTYPE:dance-single;
#DESCRIPTION:;
#CHARTSTYLE:;
#DIFFICULTY:Medium;
#METER:9;
#RADARVALUES:0.303047,0.325108,0.105660,0.162554,0.032511,261.000000,248.000000,13.000000,20.000000,0.000000,0.000000,0.000000,0.000000,0.000000,0.303047,0.325108,0.105660,0.162554,0.032511,261.000000,248.000000,13.000000,20.000000,0.000000,0.000000,0.000000,0.000000,0.000000;
#CREDIT:;
#DISPLAYBPM:100.000000;
#NOTES:
0000
0000
0000
0000
,
0000
0000
0000
0000
,
1001
0000
0001
0100
0020
0030
0000
0010
,
1000
0010
0100
0001
0100
0000
0001
0000
,
1001
0000
1000
0100
0020
0030
0000
0010
,
0001
0010
0100
1000
0000
1000
0100
0000
,
0110
0000
0000
0000
0010
0001
1000
0000
,
0100
1000
0001
0100
0000
0100
0010
0000
,
0110
0000
0100
0001
1000
0000
0000
0000
,
1000
0010
0100
0001
0000
0001
0010
0100
,
1000
0000
0010
0000
0100
0000
0001
0010
,
0001
0000
0100
0000
0010
0000
1000
0100
,
1000
0000
0010
0000
0100
0000
0001
1000
,
0001
0000
0100
0000
0010
0000
1000
0001
,
1000
0010
0100
0000
0001
0010
0100
0000
,
1000
0100
0010
0000
0001
0100
0010
0000
,
1000
0001
1000
0001
0010
0100
0010
0100
,
1000
0001
0100
0010
1000
0001
0020
0000
,
0130
0000
0100
0000
0100
0000
0000
1000
0000
0000
0010
0000
0100
0000
0000
0000
,
0010
0000
0010
0000
0010
0000
0000
0100
0000
0000
0001
0000
0010
0000
0000
0000
,
0001
0000
0001
0000
0001
0000
0000
0100
0000
0000
0010
0000
0100
0000
0000
0000
,
1000
0000
1000
0000
1000
0000
0000
0100
0000
0000
0010
0000
0100
0000
0000
0000
,
0001
0000
0010
0000
0100
0000
0000
1000
0000
0000
0010
0000
0100
0000
0000
0000
,
0001
0000
1000
0000
0100
0000
0000
0010
0000
0000
0001
0000
0100
0000
0000
0000
,
0010
0000
1000
0000
0001
0000
0000
0010
0000
0000
0100
0000
1000
0000
0000
0000
,
0001
0000
0100
0000
0010
0000
0000
1000
0000
0000
0100
0000
0010
0000
0000
0000
,
2002
3003
0000
0000
,
0202
0303
0000
0000
,
2020
3030
0000
0000
,
2200
3300
0000
0000
,
0022
0033
0000
0000
,
0220
0330
0000
0000
,
2000
3020
0230
0302
,
1003
0100
1000
1000
0000
0001
0100
0001
,
1001
1000
0010
0001
,
0010
1000
0100
0001
,
0100
1000
0010
0001
,
1000
0100
0001
1000
,
1001
0001
0010
1000
,
0010
0001
0100
1000
,
0100
0001
0010
0100
,
1000
0010
1000
0001
0100
0001
1001
0000
,
1000
0010
0100
0010
1000
0010
0100
0000
,
0001
0010
0100
0010
0001
0010
0100
0000
,
1000
0100
0010
0100
1000
0100
0010
0000
,
0001
0100
0010
0100
0001
1000
0010
1000
,
0001
0010
0100
1000
0010
0100
0001
0000
,
1000
0100
0010
0001
0100
0010
1000
0000
,
0001
0100
0010
1000
0001
0010
0100
0000
,
1000
0010
0100
0001
1000
0010
0001
0200
,
0300
0000
0000
0000
;

//---------------dance-single - ----------------
#NOTEDATA:;
#CHARTNAME:;
#STEPSTYPE:dance-single;
#DESCRIPTION:;
#CHARTSTYLE:;
#DIFFICULTY:Hard;
#METER:14;
#RADARVALUES:0.564295,0.568939,0.422641,0.422641,0.491726,486.000000,434.000000,52.000000,52.000000,0.000000,0.000000,0.000000,0.000000,0.000000,0.564295,0.568939,0.422641,0.422641,0.491726,486.000000,434.000000,52.000000,52.000000,0.000000,0.000000,0.000000,0.000000,0.000000;
#CREDIT:;
#DISPLAYBPM:100.000000;
#NOTES:
0000
0000
0000
0000
,
0000
0000
0000
0000
,
1001
0000
0000
0000
1000
0000
0001
0100
0020
0000
0001
0000
1030
0000
1000
0100
,
0010
0000
0100
0001
0000
0100
0000
2000
0000
0000
3010
0000
0100
0000
0001
0000
,
1001
0000
0000
0000
1010
0000
0010
0100
0002
0000
0010
0000
1003
0000
1000
0100
,
0010
0100
1000
0020
0000
0031
0010
0100
,
0110
0000
0000
0000
0101
0000
0001
0010
0100
0000
1000
0020
0000
0000
0031
0000
,
0010
1000
0100
0020
0000
0031
0100
0010
,
1010
0000
0000
0000
0101
0000
0100
0010
2000
0000
0100
0000
3001
0000
0001
0010
,
0100
0001
0100
2000
0000
3010
0100
0001
,
1001
0000
1000
0000
0010
0000
0001
0020
0000
0000
1030
0000
1000
0100
0010
0100
,
2000
0000
0000
0000
3001
0100
0010
0200
0000
0000
0301
0000
0010
0000
0100
0000
,
1100
0000
0000
0000
1000
0000
0010
0000
0110
0000
0000
0101
0000
0000
1010
0000
,
1001
0000
0000
0000
0001
0010
0100
0020
0000
0000
0031
0100
0000
1010
0000
0000
,
1000
0000
0001
0000
0010
0000
0100
0000
1000
0000
0010
0000
0100
0000
0001
1000
,
0001
0000
1000
0000
0100
0000
0010
0000
0001
0000
0100
0000
0010
0000
1000
0001
,
1000
1010
0010
0110
0100
0101
0001
1001
,
1000
0000
0010
0000
0100
0000
0001
0000
0010
0000
0100
0000
1000
0000
0010
0000
0100
0000
0001
0000
1000
0000
0100
0000
0020
0000
0000
0030
0000
0000
0000
0000
,
0110
0000
1000
0000
1001
0000
0001
0010
0000
1000
0010
0000
0001
0010
0100
0000
,
0110
0000
0001
0000
1001
0000
1000
0010
0001
0020
0100
0030
0001
0020
0100
0000
,
1030
0000
0100
0000
1100
0000
1000
0010
0000
0001
0010
0000
1000
0010
0100
0000
,
0001
0000
0010
0000
0001
0100
0010
1000
0100
0000
1100
0000
0011
0000
1001
0000
,
0110
0000
0001
0000
1001
0000
1000
0010
0000
0001
0010
0000
1000
0010
0100
0000
,
0110
0000
1000
0000
1001
0000
0001
0010
1000
0020
0100
0030
1000
0020
0100
0000
,
0031
0000
0100
0000
0101
0000
0001
0010
0000
1000
0010
0000
0001
0010
0100
0000
,
1000
0000
0000
0000
0000
0000
0000
0000
0000
0000
0000
0000
0000
0000
0000
0000
0000
0000
0000
0000
0000
0000
0000
0000
0010
0000
0000
0000
0000
0000
0000
0000
0000
0000
0000
0000
0000
0000
0000
0000
0000
0000
0000
0000
0000
0000
0000
0000
1000
0000
0000
0000
0000
0000
0000
0000
0000
0000
0000
0000
0100
0000
0000
0000
0000
0000
0000
0000
0000
0000
0000
0000
0010
0000
0000
0000
0000
0000
0000
0000
0000
0000
0000
0000
0001
0000
0000
0000
0000
0000
0000
0000
0000
0000
0000
0000
0200
0000
0000
0000
0000
0000
0000
0000
0000
0000
0000
0000
0000
0000
0000
0000
0000
0000
0000
0000
0000
0000
0000
0000
0320
0000
0000
0000
0000
0000
0000
0000
0000
0000
0000
0000
0000
0000
0000
0000
0000
0000
0000
0000
0000
0000
0000
0000
2030
0000
0000
0000
0000
0000
0000
0000
0000
0000
0000
0000
0000
0000
0000
0000
0000
0000
0000
0000
0000
0000
0000
0000
0000
0002
0000
0000
0000
0000
0000
0000
0000
0000
0000
0000
0000
0000
0000
0000
0000
0000
0000
0000
0000
0000
0000
0000
,
3003
0000
0001
0200
0300
1000
0020
0000
,
0030
0000
0000
0000
1000
0000
0200
0300
0000
0002
0003
0000
0020
0000
0000
0000
,
0030
0000
0000
0000
0000
0000
0100
1000
0100
0000
0010
0001
0000
0100
0000
2000
,
3000
0000
0020
0000
0030
0000
0000
0001
0100
0000
0010
1000
0100
0010
0200
0000
,
0300
0000
0000
0000
0000
0000
0000
0000
1100
0000
0100
0010
0100
0010
0002
0000
,
0003
0000
0000
0000
0000
0000
0001
0100
0010
0000
0001
0010
0100
0000
0010
0000
,
0110
0000
0000
0000
2002
0000
3003
0000
2002
0000
3003
0000
1001
0000
1000
0010
,
0100
0000
1000
0000
0100
0001
0010
0200
0000
0000
1300
0000
0100
0010
0001
0000
,
1001
0000
1000
0000
0010
0000
0100
0002
0000
0000
0013
0000
0001
0100
1000
0100
,
0002
0000
0000
0000
1003
0010
0001
0020
0000
0000
0130
0000
0001
0000
0010
0000
,
1100
0000
0000
0000
0100
0000
0010
0000
0011
0000
0000
1100
0000
0000
0101
0000
,
1010
0000
0000
0000
1000
0100
0001
0200
0000
0000
1300
0010
0000
0101
0000
0000
,
1001
0000
0001
0000
0010
0000
0100
2000
0000
0000
3010
0000
0001
0000
0010
1000
,
0100
0000
0020
0000
0000
0000
0031
0000
0101
0000
0100
0000
0010
1000
0010
0000
,
0100
0000
0001
0000
0010
0000
0100
1000
0100
0010
0001
0010
0100
0010
0001
0000
,
0100
0000
1000
0000
0100
0001
0010
0100
2000
0000
3020
0000
0230
0000
0301
0000
,
1001
0000
1000
0010
0001
0000
0010
1000
0000
0010
0001
0000
0010
1000
0100
0010
,
0100
0000
1000
0000
0010
0100
0001
0010
0200
0010
1300
0010
0200
0001
0310
0000
,
0110
0000
0100
0001
0010
0000
1000
0010
0000
0001
0010
0000
0100
1000
0010
0001
,
0010
0000
0100
0000
0001
1000
0100
0010
0001
0000
0101
0000
1010
0000
0110
0000
,
1001
0000
0001
0010
1000
0000
0010
0001
0000
0010
1000
0000
0010
0001
0100
0010
,
0100
0000
0001
0000
0010
0100
1000
0010
0200
0010
0301
0010
0200
1000
0310
0000
,
0110
0000
0100
1000
0010
0000
0001
0010
0000
1000
0010
0000
0100
0001
0010
1000
,
0010
0000
0100
0000
1000
0001
0010
0100
2000
0000
3020
0000
0032
0000
0203
0000
,
0300
0000
0000
0000
;

//---------------dance-double - ----------------
#NOTEDATA:;
#CHARTNAME:;
#STEPSTYPE:dance-double;
#DESCRIPTION:;
#CHARTSTYLE:;
#DIFFICULTY:Easy;
#METER:4;
#RADARVALUES:0.159071,0.203193,0.048766,0.081277,0.000000,137.000000,131.000000,6.000000,10.000000,0.000000,0.000000,0.000000,0.000000,0.000000,0.159071,0.203193,0.048766,0.081277,0.000000,137.000000,131.000000,6.000000,10.000000,0.000000,0.000000,0.000000,0.000000,0.000000;
#CREDIT:;
#DISPLAYBPM:100.000000;
#NOTES:
00000000
00000000
00000000
00000000
,
00000000
00000000
00000000
00000000
,
00001000
00010000
00001000
00000000
,
00010000
00000010
00010000
00000000
,
00010000
00001000
00010000
00000000
,
00001000
01000000
00001000
00000000
,
00001000
00010000
00001000
00000100
,
00000010
00000100
00001000
00000000
,
00010000
00001000
00010000
01000000
,
00100000
01000000
00010000
00000000
,
00001000
00000000
00000010
00000000
,
00000001
00000000
00000100
00000000
,
00001000
00000000
00010000
00000000
,
00100000
00000000
10000000
00000000
,
01000000
00100000
00010000
00000000
,
00100000
00001000
00010000
00000000
,
00001000
00010000
00000010
00000000
,
00001000
00000010
00000100
00000001
,
00001001
00001000
00000100
00000010
,
00000100
00001000
00000200
00000300
,
00010000
00001000
00000100
00001000
,
00010000
00100000
20000000
30000000
,
10010000
00010000
00100000
01000000
,
00100000
00010000
00200000
00300000
,
00001000
00010000
00100000
00010000
,
00001000
00000010
00000002
00000003
,
00001001
00000000
00000000
00000000
,
00000100
00000000
00000000
00000000
,
00001000
00000000
00000000
00000000
,
00010000
00000000
00000000
00000000
,
00100000
00000000
00000000
00000000
,
10000000
00000000
00000000
00000000
,
20020000
00000000
00000000
30030000
,
00010000
00010000
00010000
00000000
,
00100000
00000000
01000000
00000000
,
00010000
00000000
00001000
00000000
,
00000010
00000000
00000100
00000000
,
00010000
00000000
00001000
00000000
,
00100000
00000000
01000000
00000000
,
10000000
00000000
00100000
00000000
,
00010000
00000000
00001000
00000000
,
00000100
00000000
00000001
00001000
,
00001001
00000001
00000010
00000100
,
00001000
00000100
00020000
00030000
,
00001000
00100000
00010000
00100000
,
01000000
10000000
00020000
00030000
,
10010000
10000000
00100000
01000000
,
00010000
01000000
00002000
00003000
,
00010000
00000010
00001000
00000010
,
00000100
00000001
00000010
00002000
,
00003000
00000000
00000000
00000000
;

//---------------dance-double - ----------------
#NOTEDATA:;
#CHARTNAME:;
#STEPSTYPE:dance-double;
#DESCRIPTION:;
#CHARTSTYLE:;
#DIFFICULTY:Hard;
#METER:14;
#RADARVALUES:0.539912,0.568939,0.292597,0.438896,0.483598,465.000000,429.000000,36.000000,54.000000,0.000000,0.000000,0.000000,0.000000,0.000000,0.539912,0.568939,0.292597,0.438896,0.483598,465.000000,429.000000,36.000000,54.000000,0.000000,0.000000,0.000000,0.000000,0.000000;
#CREDIT:;
#DISPLAYBPM:100.000000;
#NOTES:
00000000
00000000
00000000
00000000
,
00000000
00000000
00000000
00000000
,
00011000
00000000
00000000
00000000
00001000
00000000
00010000
01000000
00200000
00000000
00000000
00000000
00310000
00000000
00010000
01000000
,
00100000
00000000
00010000
00100000
00000000
10000000
00000000
02000000
00000000
00000000
03010000
00000000
00001000
00000000
00010000
00000000
,
00011000
00000000
00000000
00000000
00010000
00000000
00001000
00000010
00000200
00000000
00000000
00000000
00001300
00000000
00001000
00000010
,
00000100
00001000
00000100
00000002
00000000
00000013
00001000
00010000
,
00011000
00000000
00000000
00000000
00001000
00000000
00010000
00100000
01000000
00000000
00100000
20000000
00000000
00000000
31000000
00000000
,
00010000
00001000
00100000
02000000
00000000
03010000
00001000
00010000
,
00011000
00000000
00000000
00000000
00010000
00000000
00001000
00000100
00000020
00000000
00000000
00000000
00001030
00000000
00001000
00000100
,
00000010
00000001
00000100
00000020
00000000
00010030
00001000
00010000
,
00011000
00000000
00001000
00000000
00100000
00000000
00010000
02000000
00000000
00000000
03100000
00000000
00100000
10000000
01000000
10000000
,
02000000
00000000
00000000
00000000
03010000
00001000
00010000
00002000
00000000
00000000
00003010
00000000
00000001
00000000
00000100
00000000
,
00000110
00000000
00000000
00000000
00000010
00000000
00001000
00000000
00001001
00000000
00000000
00000101
00000000
00000000
00001100
00000000
,
00011000
00000000
00000000
00000000
00010000
00001000
00010000
00200000
00000000
00000000
10300000
01000000
00000000
11000000
00000000
00000000
,
10000000
00000000
00100000
00000000
00010000
00000000
00001000
00000000
00100000
00000000
01000000
00000000
00010000
00000000
00001000
00010000
,
00001000
00000000
00000100
00000000
00000001
00000000
00000010
00000000
00000100
00000000
00000010
00000000
00001000
00000000
00010000
00001000
,
00010000
00010010
00001000
00101000
00010000
00010100
00001000
01001000
,
01000000
00010000
00100000
01000000
10000000
00100000
01000000
00010000
00100000
00001000
00010000
00000100
00000020
00000000
00000030
00000000
,
00000110
00000000
00000002
00000000
00001003
00000000
00001000
00000010
00000000
00010000
00001000
00000000
00100000
00010000
01000000
00000000
,
01100000
00000000
20000000
00000000
30010000
00000000
00010000
01000000
00100000
00020000
00001000
00000000
00130000
00010000
00002000
00000000
,
00003010
00000000
00000001
00000000
00000101
00000000
00001000
00000100
00000000
00000010
00000100
00000000
00010000
00000100
00000010
00000000
,
00000001
00000000
00000100
00000000
00001000
00010000
00000100
00010000
00001000
00000000
00010000
00000000
01000000
00000000
00100000
00000000
,
01100000
00000000
20000000
00000000
30010000
00000000
00010000
00100000
00000000
00001000
00010000
00000000
00000010
00001000
00000100
00000000
,
00000110
00000000
00000002
00000000
00001003
00000000
00001000
00000100
00000010
00002000
00010000
00000000
00003010
00001000
00020000
00000000
,
00130000
00000000
10000000
00000000
11000000
00000000
00010000
01000000
00000000
00100000
01000000
00000000
00001000
01000000
00100000
00000000
,
10000000
00000000
00000000
00000000
00000000
00000000
00000000
00000000
00000000
00000000
00000000
00000000
00000000
00000000
00000000
00000000
00000000
00000000
00000000
00000000
00000000
00000000
00000000
00000000
01000000
00000000
00000000
00000000
00000000
00000000
00000000
00000000
00000000
00000000
00000000
00000000
00000000
00000000
00000000
00000000
00000000
00000000
00000000
00000000
00000000
00000000
00000000
00000000
00010000
00000000
00000000
00000000
00000000
00000000
00000000
00000000
00000000
00000000
00000000
00000000
00001000
00000000
00000000
00000000
00000000
00000000
00000000
00000000
00000000
00000000
00000000
00000000
01000000
00000000
00000000
00000000
00000000
00000000
00000000
00000000
00000000
00000000
00000000
00000000
00001000
00000000
00000000
00000000
00000000
00000000
00000000
00000000
00000000
00000000
00000000
00000000
00020000
00000000
00000000
00000000
00000000
00000000
00000000
00000000
00000000
00000000
00000000
00000000
00000000
00000000
00000000
00000000
00000000
00000000
00000000
00000000
00000000
00000000
00000000
00000000
00032000
00000000
00000000
00000000
00000000
00000000
00000000
00000000
00000000
00000000
00000000
00000000
00000000
00000000
00000000
00000000
00000000
00000000
00000000
00000000
00000000
00000000
00000000
00000000
00003020
00000000
00000000
00000000
00000000
00000000
00000000
00000000
00000000
00000000
00000000
00000000
00000000
00000000
00000000
00000000
00000000
00000000
00000000
00000000
00000000
00000000
00000000
00000000
00000030
00000002
00000000
00000000
00000000
00000000
00000000
00000000
00000000
00000000
00000000
00000000
00000000
00000000
00000000
00000000
00000000
00000000
00000000
00000000
00000000
00000000
00000000
00000000
,
00000003
00000000
00000001
00000200
00000300
00001000
00020000
00000000
,
00030000
00000000
00000000
00000000
00100000
00000000
20000000
30000000
00000000
02000000
03000000
00000000
00020000
00000000
00000000
00000000
,
00030000
00000000
00000000
00000000
00000000
00000000
00001000
00010000
00100000
00000000
00010000
00001000
00000000
00000010
00000000
00000002
,
00000003
00000000
00002000
00000000
00003000
00000000
00000000
00000010
00000100
00000000
00000010
00010000
00001000
00100000
02000000
00000000
,
03000000
00000000
00000000
00000000
00000000
00000000
00000000
00000000
11000000
00000000
10000000
00100000
10000000
00100000
00020000
00000000
,
00030000
00000000
00000000
00000000
00000000
00000000
00001000
00010000
00100000
00000000
00010000
00001000
00000010
00000000
00000001
00000000
,
00000101
00000000
00000000
00000000
00000200
00000000
00000000
00000000
00002300
00000000
00000000
00000000
00013000
00000000
00010000
00100000
,
01000000
00000000
00100000
00000000
10000000
01000000
00010000
00002000
00000000
00000000
00103000
00000000
01000000
00010000
00001000
00000000
,
00011000
00000000
00010000
00000000
00000100
00000000
00001000
00000002
00000000
00000000
00000103
00000000
00000100
00001000
00010000
00001000
,
00000200
00000000
00000000
00000000
00001300
00010000
01000000
00020000
00000000
00000000
00031000
00000000
00100000
00000000
01000000
00000000
,
11000000
00000000
00000000
00000000
10000000
00000000
00100000
00000000
01100000
00000000
00000000
01001000
00000000
00000000
00010100
00000000
,
00000110
00000000
00000000
00000000
00000010
00000001
00001000
00000200
00000000
00000000
00000310
00000001
00000000
00001001
00000000
00000000
,
00001100
00000000
00000100
00000000
00000010
00000000
00001000
00020000
00000000
00000000
01030000
00000000
10000000
00000000
00100000
00010000
,
00001000
00000000
00200000
00000000
00000000
00000000
00310000
00000000
01010000
00000000
01000000
00000000
00001000
00010000
00000100
00000000
,
00000010
00000000
00000001
00000000
00001000
00000000
00000010
00010000
00001000
00010000
00100000
00010000
00001000
00100000
01000000
00000000
,
10000000
00000000
00100000
00000000
00010000
00001000
00000100
00000001
00000020
00000000
00002030
00000000
00023000
00000000
00031000
00000000
,
00011000
00000000
00010000
01000000
10000000
00000000
01000000
00100000
00000000
01000000
00010000
00000000
00001000
00010000
00100000
00010000
,
00001000
00000000
00000010
00000000
00000001
00001000
00000010
00000100
00002000
00010000
00103000
00000000
00200000
00010000
01300000
00000000
,
11000000
00000000
10000000
00100000
00010000
00000000
00100000
00001000
00000000
00100000
01000000
00000000
00010000
00100000
01000000
00010000
,
00001000
00000000
00000010
00000000
00000001
00001000
00000100
00000010
00000001
00000000
00000100
00000000
00001000
00000000
00010000
00000000
,
00011000
00000000
00001000
00000100
00000001
00000000
00000100
00000010
00000000
00000100
00001000
00000000
00010000
00001000
00000010
00001000
,
00010000
00000000
00100000
00000000
10000000
00010000
00100000
01000000
00020000
00001000
00030010
00000000
00000020
00001000
00000130
00000000
,
00000101
00000000
00000001
00000010
00001000
00000000
00000010
00010000
00000000
00000010
00000100
00000000
00001000
00000010
00000100
00001000
,
00010000
00000000
00100000
00000000
10000000
01000000
00100000
00010000
00002000
00000000
00003020
00000000
00000230
00000000
00000302
00000000
,
00000003
00000000
00000000
00000000
;

//---------------dance-double - ----------------
#NOTEDATA:;
#CHARTNAME:;
#STEPSTYPE:dance-double;
#DESCRIPTION:;
#CHARTSTYLE:;
#DIFFICULTY:Medium;
#METER:10;
#RADARVALUES:0.297242,0.325108,0.097532,0.073149,0.032511,256.000000,244.000000,12.000000,9.000000,0.000000,0.000000,0.000000,0.000000,0.000000,0.297242,0.325108,0.097532,0.073149,0.032511,256.000000,244.000000,12.000000,9.000000,0.000000,0.000000,0.000000,0.000000,0.000000;
#CREDIT:;
#DISPLAYBPM:100.000000;
#NOTES:
// measure 0
00000000
00000000
00000000
00000000
,  // measure 1
00000000
00000000
00000000
00000000
,  // measure 2
00011000
00000000
00010000
00001000
00020000
00030000
00000000
00001000
,  // measure 3
00010000
00000100
00001000
00000001
00001000
00000000
00000100
00000000
,  // measure 4
00010100
00000000
00010000
00001000
00020000
00030000
00000000
00001000
,  // measure 5
00100000
00010000
00100000
01000000
00000000
01000000
10000000
00000000
,  // measure 6
10010000
00000000
00000000
00000000
00010000
01000000
00001000
00000000
,  // measure 7
00010000
00000100
00001000
00000001
00000000
00000001
00000100
00000000
,  // measure 8
00000110
00000000
00000010
00010000
00001000
00000000
00000000
00000000
,  // measure 9
00010000
00001000
00100000
00010000
00000000
00010000
01000000
00100000
,  // measure 10
10000000
00000000
01000000
00000000
00010000
00000000
00001000
00010000
,  // measure 11
00001000
00000000
00000100
00000000
00000001
00000000
00000010
00000100
,  // measure 12
00000010
00000000
00001000
00000000
00010000
00000000
01000000
00100000
,  // measure 13
01000000
00000000
10000000
00000000
00100000
00000000
00010000
00001000
,  // measure 14
00010000
00000000
00000100
00000000
00000010
00000001
00000100
00000000
,  // measure 15
00001000
00000000
00010000
00000000
00100000
10000000
01000000
00000000
,  // measure 16
00010000
00001000
00000010
00000000
00001000
00010000
00100000
00000000
,  // measure 17
00010000
00001000
00000010
00000001
00000100
00000010
00000200
00000000
,  // measure 18
00000301
00000000
00001000
00000000
00000001
00000000
00000000
00000100
00000000
00000000
00000010
00000000
00001000
00000000
00000000
00000000
,  // measure 19
00000100
00000000
00000010
00000000
00000100
00000000
00000000
00010000
00000000
00000000
00001000
00000000
00100000
00000000
00000000
00000000
,  // measure 20
01000000
00000000
10000000
00000000
01000000
00000000
00000000
00100000
00000000
00000000
00010000
00000000
10000000
00000000
00000000
00000000
,  // measure 21
00100000
00000000
01000000
00000000
00100000
00000000
00000000
00010000
00000000
00000000
00001000
00000000
00000100
00000000
00000000
00000000
,  // measure 22
00000001
00000000
00000010
00000000
00000100
00000000
00000000
00001000
00000000
00000000
00000010
00000000
00010000
00000000
00000000
00000000
,  // measure 23
00001000
00000000
00100000
00000000
01000000
00000000
00000000
10000000
00000000
00000000
00100000
00000000
00010000
00000000
00000000
00000000
,  // measure 24
00001000
00000000
00100000
00000000
01000000
00000000
00000000
00010000
00000000
00000000
00001000
00000000
00000010
00000000
00000000
00000000
,  // measure 25
00000001
00000000
00001000
00000000
00000100
00000000
00000000
00000010
00000000
00000000
00001000
00000000
00010000
00000000
00000000
00000000
,  // measure 26
00011000
00000000
00000000
00000000
,  // measure 27
01001000
00000000
00000000
00000000
,  // measure 28
00010100
00000000
00000000
00000000
,  // measure 29
00101000
00000000
00000000
00000000
,  // measure 30
00010010
00000000
00000000
00000000
,  // measure 31
00011000
00000000
00000000
00000000
,  // measure 32
00002000
00023000
02030000
23000000
,  // measure 33
30100000
01000000
00100000
00100000
00000000
00010000
00001000
00010000
,  // measure 34
00011000
00001000
00000100
00000001
,  // measure 35
00000010
00001000
00010000
01000000
,  // measure 36
10000000
00100000
00010000
00001000
,  // measure 37
00000010
00010000
00100000
00001000
,  // measure 38
00011000
00010000
01000000
10000000
,  // measure 39
00100000
00010000
00001000
00000010
,  // measure 40
00000001
00000100
00001000
00010000
,  // measure 41
00100000
10000000
01000000
00100000
00010000
00100000
00002000
00000000
,  // measure 42
00013000
00000100
00000010
00000001
00000010
00000100
00000010
00000000
,  // measure 43
00001000
00100000
01000000
10000000
01000000
00100000
01000000
00000000
,  // measure 44
10000000
00100000
00010000
00001000
00000100
00000001
00001000
00000000
,  // measure 45
00000001
00000010
00001000
00010000
01000000
10000000
01000000
10000000
,  // measure 46
00100000
01000000
00010000
00100000
01000000
00010000
00001000
00000000
,  // measure 47
00010000
00001000
00000010
00000100
00001000
00000010
00000100
00000000
,  // measure 48
00000001
00000010
00001000
00010000
01000000
10000000
00100000
00000000
,  // measure 49
00010000
00100000
01000000
00001000
00000100
00010000
00100000
00002000
,  // measure 50
00003000
00000000
00000000
00000000
;
