#VERSION:0.83;
#TITLE:My Love Heavy on the Cost;
#SUBTITLE:;
#ARTIST:Project Pop;
#TITLETRANSLIT:;
#SUBTITLETRANSLIT:;
#ARTISTTRANSLIT:;
#GENRE:POP CHARTS;
#ORIGIN:;
#CREDIT:MUINELIM;
#BANNER:My Love Heavy on the Cost.png;
#BACKGROUND:My Love Heavy on the Cost-bg.png;
#PREVIEWVID:;
#JACKET:My Love Heavy on the Cost-jacket.png;
#CDIMAGE:;
#DISCIMAGE:;
#LYRICSPATH:;
#CDTITLE:;
#MUSIC:My Love Heavy on the Cost.ogg;
#OFFSET:-0.038000;
#SAMPLESTART:41.184242;
#SAMPLELENGTH:14.939999;
#SELECTABLE:YES;
#BPMS:0.000=140.000;
#STOPS:;
#DELAYS:;
#WARPS:;
#TIMESIGNATURES:0.000=4=4;
#TICKCOUNTS:0.000=4;
#COMBOS:0.000=1;
#SPEEDS:0.000=1.000=0.000=0;
#SCROLLS:0.000=1.000;
#FAKES:;
#LABELS:0.000=Song Start;
#LASTSECONDHINT:135.500000;
#BGCHANGES:0.000=My Love Heavy on the Cost.avi=1.000=1=0=0=StretchNoLoop==CrossFade==,
99999=-nosongbg-=1.000=0=0=0 // don't automatically add -songbackground-
;
#KEYSOUNDS:;
#ATTACKS:
;

//---------------dance-single - ----------------
#NOTEDATA:;
#CHARTNAME:;
#STEPSTYPE:dance-single;
#DESCRIPTION:;
#CHARTSTYLE:;
#DIFFICULTY:Beginner;
#METER:3;
#RADARVALUES:0.120019,0.166726,0.029739,0.014870,0.000000,113.000000,109.000000,4.000000,2.000000,0.000000,0.000000,0.000000,0.000000,0.000000,0.120019,0.166726,0.029739,0.014870,0.000000,113.000000,109.000000,4.000000,2.000000,0.000000,0.000000,0.000000,0.000000,0.000000;
#CREDIT:MILEN;
#NOTES:
0000
0000
0000
0000
,
0000
0000
0000
0000
,
0000
0000
0000
0000
,
0000
0000
0000
0000
,
1000
0000
1000
0000
,
1000
0000
0000
0000
,
0001
0000
0001
0000
,
0001
0000
0000
0000
,
1000
0000
0000
0000
,
0010
0000
0000
0000
,
0100
0000
0000
0000
,
0001
0000
0000
0000
,
0010
0000
0000
0000
,
0100
0000
0000
0000
,
1000
0000
0000
0000
,
0010
0000
0000
0000
,
0100
0000
0000
0000
,
0001
0000
0000
0000
,
1000
0000
0000
0000
,
0100
0000
0000
0000
,
0010
0000
0000
0000
,
0001
0000
0000
0000
,
1000
0000
0000
0000
,
1001
0000
0000
0000
,
0001
0000
0001
0000
,
0001
0000
0100
0000
,
0010
0000
0100
0000
,
0010
0000
0010
0000
,
1000
0000
1000
0000
,
1000
0000
0100
0000
,
0010
0000
0100
0000
,
0010
0000
0010
0000
,
0001
0000
0100
0000
,
0010
0000
1000
0000
,
0001
0000
0001
0000
,
0001
0000
0001
0000
,
0010
0000
0100
0000
,
1000
1000
0000
0000
,
1001
0000
0000
0000
,
0000
0000
0000
0000
,
0001
0000
0100
0000
,
0001
0000
0000
0000
,
1000
0000
0100
0000
,
1000
0000
0000
0000
,
0001
0000
0010
0000
,
0001
0000
0000
0000
,
1000
0000
0010
0000
,
1000
0000
0000
0000
,
0001
0000
0001
0000
,
0100
0000
0100
0000
,
1000
0000
1000
0000
,
0100
0000
0100
0000
,
0001
0000
0001
0000
,
0010
0000
0010
0000
,
1000
0000
1000
0000
,
0010
0000
0010
0000
,
0001
0000
0000
0000
,
1000
0000
0000
0000
,
0010
0000
0100
0000
,
0001
0000
0100
0000
,
0010
0000
1000
0000
,
0010
0000
0100
0000
,
0001
0000
1000
0000
,
0100
0000
0010
0000
,
0001
0000
1000
0000
,
0010
0000
0100
0000
,
0010
0000
0010
0000
,
0010
0000
0010
0000
,
1000
0000
0001
0000
,
0100
0100
0000
0000
,
1001
0000
0000
0000
,
0000
0000
0000
0000
,
1001
0000
0000
0000
,
2000
0000
3000
0000
,
0000
0002
0000
0003
;

//---------------dance-single - ----------------
#NOTEDATA:;
#CHARTNAME:;
#STEPSTYPE:dance-single;
#DESCRIPTION:;
#CHARTSTYLE:;
#DIFFICULTY:Easy;
#METER:5;
#RADARVALUES:0.209237,0.277877,0.133827,0.074348,0.000000,197.000000,179.000000,18.000000,10.000000,0.000000,0.000000,0.000000,0.000000,0.000000,0.209237,0.277877,0.133827,0.074348,0.000000,197.000000,179.000000,18.000000,10.000000,0.000000,0.000000,0.000000,0.000000,0.000000;
#CREDIT:;
#NOTES:
0000
0000
0000
0000
,
0000
0000
0000
0000
,
0000
0000
0000
0000
,
0000
0000
0000
0000
,
1000
0000
1000
0000
,
1000
0001
1000
0000
,
0001
0000
0001
0000
,
0001
1000
0001
0000
,
1000
0000
0010
0000
,
1000
0000
0010
0000
,
1000
0000
0100
0000
,
1000
0000
0100
0000
,
0010
0000
0001
0000
,
0010
0000
0001
0000
,
0100
0000
0001
0000
,
0100
0000
0001
0000
,
1000
0000
0001
0000
,
1000
0000
0001
0000
,
0010
0000
0100
0000
,
0010
0000
0100
0000
,
1000
0000
0010
0000
,
0100
0000
0001
0000
,
1000
0000
0100
0000
,
0010
0010
0010
0010
,
0001
0100
0001
0000
,
0100
0001
0100
0000
,
0110
0010
1000
0000
,
0010
1000
0010
0010
,
1000
0100
1000
0000
,
0100
1000
0100
0000
,
0110
0010
0001
0000
,
0010
0001
0010
0010
,
0001
1000
0100
0000
,
1000
0001
0010
0000
,
0011
0000
0101
0000
,
1010
0000
1100
0000
,
1000
0001
1000
0010
,
0100
0100
0000
0000
,
2002
0000
0000
0000
,
3003
0000
0000
0000
,
1000
0000
0100
0000
,
0010
0000
0001
0000
,
1001
0000
0110
0000
,
1001
0000
0110
0000
,
1000
0010
0100
0000
,
0001
0010
0100
0000
,
1000
0001
1000
0100
,
0010
0001
2000
3000
,
0001
0100
0010
0000
,
0100
0001
0010
0000
,
0100
1000
0010
0000
,
0100
0010
1000
0000
,
0100
1000
0001
0000
,
0010
0001
1000
0000
,
0010
1000
0100
0010
,
0001
0100
0100
0100
,
0020
0000
0000
0000
,
0030
0000
0000
0000
,
1000
0001
0010
0001
,
1000
0001
0010
0000
,
0001
1000
0010
1000
,
0001
1000
0010
0000
,
1000
0001
0100
0010
,
0100
0100
0100
1001
,
0001
0010
1000
0010
,
0001
0010
0100
1000
,
1010
0000
0011
0000
,
1100
0000
0101
0000
,
0100
1000
0100
0001
,
0010
0010
0000
0000
,
2002
0000
0000
0000
,
3003
0000
0000
0000
,
0220
0000
0330
0000
,
2000
0000
3000
0000
,
0000
0002
0000
0003
;

//---------------dance-double - ----------------
#NOTEDATA:;
#CHARTNAME:;
#STEPSTYPE:dance-double;
#DESCRIPTION:;
#CHARTSTYLE:;
#DIFFICULTY:Easy;
#METER:5;
#RADARVALUES:0.201803,0.277877,0.133827,0.081783,0.000000,190.000000,172.000000,18.000000,11.000000,0.000000,0.000000,0.000000,0.000000,0.000000,0.201803,0.277877,0.133827,0.081783,0.000000,190.000000,172.000000,18.000000,11.000000,0.000000,0.000000,0.000000,0.000000,0.000000;
#CREDIT:;
#NOTES:
// measure 0
00000000
00000000
00000000
00000000
,  // measure 1
00000000
00000000
00000000
00000000
,  // measure 2
00000000
00000000
00000000
00000000
,  // measure 3
00000000
00000000
00000000
00000000
,  // measure 4
00001000
00000000
00001000
00000000
,  // measure 5
00010000
00001000
00010000
00000000
,  // measure 6
00010000
00000000
00010000
00000000
,  // measure 7
00001000
00010000
00001000
00000000
,  // measure 8
00100000
00000000
00010000
00000000
,  // measure 9
00100000
00000000
00010000
00000000
,  // measure 10
01000000
00000000
00001000
00000000
,  // measure 11
01000000
00000000
00001000
00000000
,  // measure 12
00010000
00000000
00000100
00000000
,  // measure 13
00010000
00000000
00000100
00000000
,  // measure 14
00001000
00000000
00000010
00000000
,  // measure 15
00001000
00000000
00000010
00000000
,  // measure 16
00010000
00000000
00001000
00000000
,  // measure 17
00010000
00000000
00001000
00000000
,  // measure 18
00100000
00000000
01000000
00000000
,  // measure 19
00100000
00000000
01000000
00000000
,  // measure 20
00010000
00000000
00001000
00000000
,  // measure 21
00010000
00000000
00001000
00000000
,  // measure 22
00000010
00000000
00000100
00000000
,  // measure 23
00000010
00000010
00000010
00000010
,  // measure 24
00000001
00000000
00000100
00000000
,  // measure 25
00001000
00000000
00010000
01000000
,  // measure 26
01100000
00100000
00010000
00000000
,  // measure 27
10000000
00100000
00010000
00100000
,  // measure 28
10000000
00000000
01000000
00000000
,  // measure 29
00010000
00000000
00001000
00000100
,  // measure 30
00000110
00000010
00001000
00000000
,  // measure 31
00000001
00000010
00001000
00000010
,  // measure 32
00000001
00000000
00000100
00000000
,  // measure 33
00001000
00000000
00010000
00000000
,  // measure 34
00010010
00000000
01001000
00000000
,  // measure 35
00010100
00000000
00101000
00000000
,  // measure 36
00001000
00010000
01000000
10000000
,  // measure 37
00100000
00100000
00000000
00000000
,  // measure 38
20020000
00000000
00000000
00000000
,  // measure 39
30030000
00000000
00000000
00000000
,  // measure 40
00010000
00000000
01000000
00000000
,  // measure 41
00001000
00000000
00010000
00000000
,  // measure 42
00011000
00000000
00001000
00000000
,  // measure 43
00011000
00000000
00010000
00000000
,  // measure 44
00011000
00000000
00001000
00000000
,  // measure 45
00010000
00000000
00000010
00000000
,  // measure 46
00001000
00000001
00000100
00000010
,  // measure 47
00001000
00000100
00020000
00030000
,  // measure 48
00001000
00010000
01000000
00000000
,  // measure 49
01000000
10000000
00100000
00000000
,  // measure 50
00100000
00010000
00001000
00000000
,  // measure 51
00001000
00000100
00000001
00000000
,  // measure 52
00000001
00000010
00000100
00000000
,  // measure 53
00000100
00000010
00001000
00000000
,  // measure 54
00001000
00010000
01000000
00000000
,  // measure 55
01000000
10000000
00100000
00010000
,  // measure 56
00022000
00000000
00000000
00000000
,  // measure 57
00033000
00000000
00000000
00000000
,  // measure 58
00001000
00100000
00010000
01000000
,  // measure 59
00001000
00100000
00010000
00000000
,  // measure 60
00010000
00000010
00001000
00000100
,  // measure 61
00010000
00000010
00001000
00000000
,  // measure 62
00001000
01000000
00010000
00100000
,  // measure 63
01000000
00010000
00001000
00011000
,  // measure 64
00010000
00001000
00000010
00000100
,  // measure 65
00001000
00000010
00010000
00001000
,  // measure 66
00101000
00000000
00010010
00000000
,  // measure 67
01001000
00000000
00010100
00000000
,  // measure 68
00010000
01000000
10000000
00100000
,  // measure 69
00010000
00010000
00000000
00000000
,  // measure 70
00022000
00000000
00000000
00000000
,  // measure 71
00033000
00000000
00000000
00000000
,  // measure 72
00022000
00000000
00033000
00000000
,  // measure 73
00020000
00000000
00030000
00000000
,  // measure 74
00000000
00002000
00000000
00003000
;

//---------------dance-single - ----------------
#NOTEDATA:;
#CHARTNAME:;
#STEPSTYPE:dance-single;
#DESCRIPTION:;
#CHARTSTYLE:;
#DIFFICULTY:Medium;
#METER:7;
#RADARVALUES:0.332443,0.418209,0.267654,0.118957,0.000000,313.000000,277.000000,36.000000,16.000000,0.000000,0.000000,0.000000,0.000000,0.000000,0.332443,0.418209,0.267654,0.118957,0.000000,313.000000,277.000000,36.000000,16.000000,0.000000,0.000000,0.000000,0.000000,0.000000;
#CREDIT:;
#NOTES:
0000
0000
0000
0000
,
0000
0000
0000
0000
,
0000
0000
0000
0000
,
0000
0000
0000
0000
,
1000
0010
1000
0100
,
1000
0001
1000
0001
0000
0000
1001
0000
,
0001
0100
0001
0010
,
0001
1000
0001
1000
0000
0000
1001
0000
,
0001
0000
0000
0001
0000
0000
0001
0000
,
0100
0000
0000
0100
0000
0000
0100
0000
,
0010
0000
0000
0010
0000
0000
0010
0000
,
1000
0000
0000
1000
0000
0000
1000
0000
,
0001
0000
0000
0001
0000
0000
0001
0000
,
0010
0000
0000
0010
0000
0000
0010
0000
,
0100
0000
0000
0100
0000
0000
0100
0000
,
1000
0000
0000
1000
0000
1000
0001
0000
,
1000
0000
0000
0010
0000
0000
1010
0000
,
1000
0000
0000
0100
0000
0000
1100
0000
,
0001
0000
0000
0100
0000
0000
0101
0000
,
0001
0000
0000
0010
0000
0000
0011
0000
,
1000
0000
0000
0010
0000
0000
0110
0000
,
0100
0000
0000
0001
0000
0000
1001
0000
,
1000
0000
0000
0010
0000
0000
0110
0000
,
1001
0000
0001
0010
0001
0000
1000
0010
,
1000
0100
0010
0001
,
1000
0000
0100
0000
0010
0100
0010
0000
,
0011
0001
0100
0010
,
1000
0001
1000
0001
0000
0001
0010
0000
,
0001
0100
0010
1000
,
0001
0000
0100
0000
0010
1000
0010
0000
,
1010
1000
0100
0010
,
0001
1000
0001
1000
0000
1000
0010
0000
,
0100
0001
0010
1000
,
0001
0000
0100
0000
1000
0001
1000
0000
,
1010
0010
0110
0100
,
0101
0001
1001
1000
,
0001
0000
0100
0000
0010
1000
0001
0100
,
0010
0010
0000
0000
,
2002
0000
0000
3003
,
1000
0010
0001
0100
,
1000
0010
0100
0001
0000
0010
0000
0200
,
0000
0000
1300
0000
0010
0000
0100
0001
,
0200
0310
2000
3001
,
0020
0130
2000
3001
,
0001
0010
0100
1000
0000
0010
0000
0100
,
0000
0001
0010
0002
0000
0000
0003
0000
,
1000
0100
0010
0001
,
0100
0010
1000
0001
0000
0010
0100
0000
,
1100
1000
0010
0100
,
0101
0001
0100
0010
,
1010
1000
0100
0010
,
0011
0001
0100
0010
,
1000
0001
0100
0000
0010
0000
1010
0000
,
0001
1000
0010
0000
0100
0000
0101
0000
,
1000
0010
0100
0000
0001
0000
0011
0000
,
0001
0100
0010
1000
0100
0000
1100
0000
,
2002
0000
0000
0000
,
3003
0000
0000
0000
,
1001
0001
0100
1000
,
0100
0010
0100
0001
0000
1000
0010
0000
,
0110
0100
0001
0100
,
1000
0000
0100
0000
0001
1000
0001
0000
,
1001
1000
0010
0001
,
0010
0100
0010
1000
0000
0001
0100
0000
,
0010
0001
0010
0100
,
1000
0000
0100
0000
0001
1000
0001
0000
,
0011
0010
0110
0100
,
1100
1000
1001
0001
,
0100
0000
0010
0000
1000
0100
0010
0001
,
1000
1000
0000
0000
,
2002
0000
0000
0000
,
3003
0000
0000
0000
0000
0001
1000
0001
,
2002
0000
0000
3003
,
1000
0000
0000
0001
0000
0000
0100
0010
,
0000
0220
0000
0000
,
0330
0000
0000
0000
;

//---------------dance-double - ----------------
#NOTEDATA:;
#CHARTNAME:;
#STEPSTYPE:dance-double;
#DESCRIPTION:;
#CHARTSTYLE:;
#DIFFICULTY:Medium;
#METER:7;
#RADARVALUES:0.327133,0.390329,0.260219,0.118957,0.000000,308.000000,273.000000,35.000000,16.000000,0.000000,0.000000,0.000000,0.000000,0.000000,0.327133,0.390329,0.260219,0.118957,0.000000,308.000000,273.000000,35.000000,16.000000,0.000000,0.000000,0.000000,0.000000,0.000000;
#CREDIT:;
#NOTES:
// measure 0
00000000
00000000
00000000
00000000
,  // measure 1
00000000
00000000
00000000
00000000
,  // measure 2
00000000
00000000
00000000
00000000
,  // measure 3
00000000
00000000
00000000
00000000
,  // measure 4
00001000
00010000
00000010
00010000
,  // measure 5
00001000
00010000
00001000
00010000
00000000
00000000
00011000
00000000
,  // measure 6
00010000
00001000
00100000
00001000
,  // measure 7
00010000
00001000
00010000
00001000
00000000
00000000
00011000
00000000
,  // measure 8
00010000
00000000
00000000
00010000
00000000
00000000
00010000
00000000
,  // measure 9
00000100
00000000
00000000
00000100
00000000
00000000
00000100
00000000
,  // measure 10
00000010
00000000
00000000
00000010
00000000
00000000
00000010
00000000
,  // measure 11
00001000
00000000
00000000
00001000
00000000
00000000
00001000
00000000
,  // measure 12
00010000
00000000
00000000
00010000
00000000
00000000
00010000
00000000
,  // measure 13
01000000
00000000
00000000
01000000
00000000
00000000
01000000
00000000
,  // measure 14
00100000
00000000
00000000
00100000
00000000
00000000
00100000
00000000
,  // measure 15
00001000
00000000
00000000
00001000
00000000
00001000
00010000
00000000
,  // measure 16
00000100
00000000
00000000
00001000
00000000
00000000
00001001
00000000
,  // measure 17
00000001
00000000
00000000
00000100
00000000
00000000
00000110
00000000
,  // measure 18
00000010
00000000
00000000
00010000
00000000
00000000
00011000
00000000
,  // measure 19
00001000
00000000
00000000
00100000
00000000
00000000
01100000
00000000
,  // measure 20
01000000
00000000
00000000
10000000
00000000
00000000
10100000
00000000
,  // measure 21
00100000
00000000
00000000
00010000
00000000
00000000
00011000
00000000
,  // measure 22
00001000
00000000
00000000
00000010
00000000
00000000
00000011
00000000
,  // measure 23
00001001
00001000
00000100
00010000
,  // measure 24
00001000
01000000
00010000
00100000
,  // measure 25
00001000
00000000
01000000
00000000
00100000
10000000
00100000
00000000
,  // measure 26
10100000
10000000
01000000
00010000
,  // measure 27
00001000
00010000
00001000
00100000
00000000
00100000
00001000
00000000
,  // measure 28
00010000
00000100
00001000
00000010
,  // measure 29
00010000
00000000
00000100
00000000
00000010
00000001
00000010
00000000
,  // measure 30
00000011
00000001
00000100
00001000
,  // measure 31
00010000
00001000
00010000
00000010
00000000
00000010
00010000
00000000
,  // measure 32
00001000
00100000
01000000
00010000
,  // measure 33
00001000
00000000
00000010
00000000
00000100
00000010
00000100
00000000
,  // measure 34
00001100
00010000
00011000
01000000
,  // measure 35
01010000
00001000
00011000
00010000
,  // measure 36
00000100
00000000
00000010
00000000
00001000
00000000
00010000
00001000
,  // measure 37
00010000
00010000
00000000
00000000
,  // measure 38
00022000
00000000
00000000
00033000
,  // measure 39
00001000
00010000
01000000
10000000
,  // measure 40
00100000
00010000
00001000
00000100
00000000
00000001
00000000
00000020
,  // measure 41
00000000
00000000
00000130
00000000
00000010
00000000
00000001
00000100
,  // measure 42
00000020
00010030
00020000
00031000
,  // measure 43
00002000
00103000
00200000
00310000
,  // measure 44
00010000
01000000
00100000
10000000
00000000
01000000
00000000
00100000
,  // measure 45
00000000
00010000
01000000
00020000
00000000
00000000
00030000
00000000
,  // measure 46
00100000
00001000
00010000
00000010
,  // measure 47
00000100
00000001
00000100
00000010
00000000
00000010
00001000
00000000
,  // measure 48
00001100
00000100
00000010
00000001
,  // measure 49
00000101
00000100
00001000
00010000
,  // measure 50
00011000
00001000
00010000
01000000
,  // measure 51
11000000
10000000
00100000
01000000
,  // measure 52
00100000
00010000
00001000
00000000
00010000
00000000
00011000
00000000
,  // measure 53
00001000
00010000
00000010
00000000
00001000
00000000
00001100
00000000
,  // measure 54
00000100
00000010
00000001
00000000
00000100
00000000
00000110
00000000
,  // measure 55
00000010
00010000
00001000
00100000
00010000
00000000
01000000
00000000
,  // measure 56
20020000
00000000
00000000
00000000
,  // measure 57
30030000
00000000
00000000
00000000
,  // measure 58
10010000
10000000
00100000
00010000
,  // measure 59
00001000
00010000
00000010
00001000
00000000
00001000
00000001
00000000
,  // measure 60
00001001
00000001
00000010
00001000
,  // measure 61
00010000
00000000
01000000
00000000
10000000
00100000
01000000
00000000
,  // measure 62
01100000
00100000
00010000
00001000
,  // measure 63
00000100
00000010
00000100
00000001
00000000
00000010
00001000
00000000
,  // measure 64
00010000
01000000
10000000
00100000
,  // measure 65
01000000
00000000
00100000
00000000
00010000
00001000
00010000
00000000
,  // measure 66
00010010
00001000
00101000
00010000
,  // measure 67
00010100
00001000
01001000
01000000
,  // measure 68
00010000
00000000
00100000
00000000
01000000
00000000
00010000
00001000
,  // measure 69
00000010
00000010
00000000
00000000
,  // measure 70
00002002
00000000
00000000
00000000
,  // measure 71
00003003
00000000
00000000
00000000
00000000
00000001
00000100
00001000
,  // measure 72
00022000
00000000
00000000
00033000
,  // measure 73
00010000
00000000
00000000
01000000
00000000
00000000
10000000
10000000
,  // measure 74
00000000
20020000
00000000
00000000
,  // measure 75
30030000
00000000
00000000
00000000
;

//---------------dance-single - ----------------
#NOTEDATA:;
#CHARTNAME:;
#STEPSTYPE:dance-single;
#DESCRIPTION:;
#CHARTSTYLE:;
#DIFFICULTY:Hard;
#METER:11;
#RADARVALUES:0.473705,0.557613,0.342002,0.349437,0.029739,446.000000,400.000000,46.000000,47.000000,0.000000,0.000000,0.000000,0.000000,0.000000,0.473705,0.557613,0.342002,0.349437,0.029739,446.000000,400.000000,46.000000,47.000000,0.000000,0.000000,0.000000,0.000000,0.000000;
#CREDIT:;
#NOTES:
0000
0000
0000
0000
,
0000
0000
0000
0000
,
0000
0000
0000
0000
,
0000
0000
0000
0000
,
1001
0000
1000
0010
0000
0100
0000
0010
,
0100
0010
1000
0100
0000
0100
1000
0001
,
1000
0000
0001
0010
0000
0100
0000
0010
,
0100
0010
0001
0100
0000
0100
0001
1000
,
0001
0000
0000
0001
0000
0100
0101
0000
,
1000
0000
0000
1000
0000
0100
1100
0000
,
0001
0000
0000
0001
0000
0010
0011
0000
,
1000
0000
0000
1000
0000
0010
1010
0000
,
0100
0000
0000
0010
0000
0100
0101
0000
,
0010
0000
0000
0100
0000
0010
1010
0000
,
1000
0000
0000
0001
0000
0010
0011
0000
,
0001
0000
0000
1000
0000
0100
1000
0100
,
1100
0000
0000
1000
0000
0010
0100
0001
,
0101
0000
0000
0001
0000
0100
0010
1000
,
1010
0000
0000
1000
0000
0100
0010
0001
,
0011
0000
0000
0001
0000
0010
0100
1000
,
1100
0000
0000
1010
0000
0010
0100
0001
,
0011
0000
0000
0101
0000
0100
0010
1000
,
1100
0000
0000
1001
0000
0001
0100
0010
,
0110
0000
1000
0100
0010
0001
0010
0100
,
2000
0000
3010
0100
0002
0000
0013
0100
,
2000
0000
3010
0100
0001
0100
1000
0100
,
0101
0000
0001
0010
0200
0000
1300
0010
,
0100
1000
0100
0002
0000
1003
1001
0000
,
0002
0000
0013
0100
2000
0000
3010
0100
,
0002
0000
0013
0100
1000
0100
0001
0100
,
1100
0000
1000
0010
0200
0000
0301
0010
,
0100
0001
0100
2000
0000
3001
1001
0000
,
0200
0000
0310
1000
0200
0000
0310
0001
,
0200
0000
0310
1000
0001
0010
0100
1000
,
1002
0000
0103
0010
2010
0000
3100
0010
,
0012
0000
1003
0010
0110
0100
0001
0010
,
0100
0000
0001
0000
0100
0000
1000
0000
0100
0000
0010
0000
0001
1000
0001
0000
,
0100
0100
0000
0000
,
2002
0000
0000
3003
,
0001
0010
0100
1000
0001
0010
0100
1000
,
0010
0100
0001
2000
0000
3200
0000
0320
,
0000
0031
0100
2000
0000
3100
0001
0010
,
0210
1300
1020
0130
,
0210
0000
0001
0301
0000
0001
0010
0100
,
1000
0010
0100
0002
0000
0023
0000
0230
,
0000
1300
0010
0002
0000
0000
0000
0000
,
0013
0000
1000
0000
0100
0010
0100
0000
0010
0000
0001
0000
1000
0000
0010
0000
,
0100
0001
1000
0200
0000
0310
0001
1000
,
1001
0000
0001
0100
0001
0000
0010
0000
0100
0000
0001
0000
0100
0000
1000
0000
,
0100
0000
1000
0010
1000
0000
0100
0000
0010
0000
1000
0000
0010
0000
0001
0000
,
0010
0010
0010
0100
1000
0010
0100
0001
,
1000
1000
1000
0100
0010
0001
0100
0010
,
1000
1000
1000
0001
0010
0100
0100
0100
,
0010
0010
0010
0001
1000
0100
0100
0100
,
0010
0010
0010
0100
1000
0010
0001
1000
,
0100
0100
0001
0001
0010
0010
0100
0100
,
2100
0000
3020
0000
,
0200
0000
0000
0330
,
1001
0000
0001
0100
1000
0000
0001
0010
,
1000
0100
0010
0002
0000
1003
1001
0000
,
0110
0000
0100
0001
0010
0000
1000
0010
,
0001
0000
0100
1000
0100
0001
0010
0100
,
0110
0000
0010
0100
1000
0000
0010
0001
,
0010
0100
0010
0000
1000
0000
0100
0000
0010
0000
0001
0000
1000
0000
0001
0000
,
1001
0000
1000
0010
0100
0000
1000
0100
,
0001
0000
0010
0100
0001
0100
1000
0010
,
0210
0000
0301
0010
0210
0000
1300
0001
,
2001
0000
3010
0100
0101
0001
0010
0100
,
0001
0000
0100
0000
1000
0000
0010
0000
0001
0000
0010
0000
1000
0001
1000
0000
,
0001
0001
0000
0000
,
2002
0000
0000
0000
,
3003
0000
0000
0000
0000
0010
0100
0010
,
0220
0000
0330
0000
,
2020
3030
0000
0202
0300
0000
0013
0010
,
0000
0100
2000
0002
0000
0000
0000
0000
0000
0000
0000
0000
,
3003
0000
0000
0000
;

//---------------dance-double - ----------------
#NOTEDATA:;
#CHARTNAME:;
#STEPSTYPE:dance-double;
#DESCRIPTION:;
#CHARTSTYLE:;
#DIFFICULTY:Hard;
#METER:12;
#RADARVALUES:0.474767,0.557613,0.364307,0.327133,0.033457,447.000000,398.000000,49.000000,44.000000,0.000000,0.000000,0.000000,0.000000,0.000000,0.474767,0.557613,0.364307,0.327133,0.033457,447.000000,398.000000,49.000000,44.000000,0.000000,0.000000,0.000000,0.000000,0.000000;
#CREDIT:;
#NOTES:
// measure 0
00000000
00000000
00000000
00000000
,  // measure 1
00000000
00000000
00000000
00000000
,  // measure 2
00000000
00000000
00000000
00000000
,  // measure 3
00000000
00000000
00000000
00000000
,  // measure 4
00011000
00000000
00010000
00000100
00000000
00001000
00000000
00000001
,  // measure 5
00000100
00000010
00001000
00000100
00000000
00000100
00000010
00001000
,  // measure 6
00010000
00000000
00001000
01000000
00000000
00010000
00000000
10000000
,  // measure 7
01000000
00100000
00010000
01000000
00000000
01000000
00100000
00010000
,  // measure 8
00001000
00000000
00000000
00000010
00000000
00000001
00000101
00000000
,  // measure 9
00000100
00000000
00000000
00001000
00000000
00010000
00011000
00000000
,  // measure 10
00001000
00000000
00000000
00010000
00000000
01000000
11000000
00000000
,  // measure 11
10000000
00000000
00000000
00100000
00000000
00010000
00011000
00000000
,  // measure 12
00001000
00000000
00000000
00000010
00000000
00000100
00010100
00000000
,  // measure 13
00010000
00000000
00000000
01000000
00000000
00100000
00101000
00000000
,  // measure 14
00001000
00000000
00000000
00000010
00000000
00000001
00001001
00000000
,  // measure 15
00001000
00000000
00000000
00000100
00000000
00000010
00001000
00010000
,  // measure 16
00011000
00000000
00000000
00001000
00000000
00010000
01000000
10000000
,  // measure 17
10100000
00000000
00000000
00100000
00000000
01000000
00001000
00010000
,  // measure 18
00011000
00000000
00000000
00001000
00000000
00000100
00000001
00000010
,  // measure 19
00000110
00000000
00000000
00000100
00000000
00000010
00001000
00010000
,  // measure 20
00011000
00000000
00000000
00101000
00000000
00100000
00010000
10000000
,  // measure 21
10100000
00000000
00000000
01100000
00000000
01000000
00001000
00010000
,  // measure 22
00010100
00000000
00000000
00000110
00000000
00000010
00000001
00000100
,  // measure 23
00001100
00000000
00001000
00010000
01000000
10000000
00010000
00100000
,  // measure 24
02000000
00000000
13000000
00100000
00020000
00000000
00031000
00000010
,  // measure 25
00000002
00000000
00000103
00000010
00000001
00000010
00001000
00000100
,  // measure 26
00000110
00000000
00000010
00001000
00020000
00000000
00031000
00000010
,  // measure 27
00000001
00000100
00001000
00020000
00000000
00030010
00000110
00000000
,  // measure 28
00000200
00000000
00000301
00000010
00002000
00000000
00013000
00100000
,  // measure 29
20000000
00000000
31000000
00100000
10000000
00100000
00010000
01000000
,  // measure 30
01100000
00000000
00100000
00010000
00002000
00000000
00013000
00100000
,  // measure 31
10000000
01000000
00010000
00002000
00000000
00103000
01100000
00000000
,  // measure 32
20000000
00000000
30100000
00010000
00002000
00000000
00013000
00001000
,  // measure 33
00000020
00000000
00000031
00000100
00001000
00010000
01000000
10000000
,  // measure 34
10020000
00000000
01030000
00001000
00021000
00000000
00030010
00001000
,  // measure 35
00001200
00000000
00000310
00000001
00000101
00000100
00001000
00010000
,  // measure 36
01000000
00000000
00100000
00000000
00010000
00000000
10000000
00000000
01000000
00000000
00010000
00000000
00001000
00010000
00001000
00010000
,  // measure 37
00001000
00011000
00000000
00000000
,  // measure 38
00022000
00000000
00000000
00033000
,  // measure 39
00001000
00010000
00001000
00010000
00001000
00010000
00000010
00000000
,  // measure 40
00001000
00000100
00000010
00000002
00000000
00000203
00000000
00002300
,  // measure 41
00000000
00013000
00100000
20000000
00000000
31000000
00100000
01000000
,  // measure 42
11000000
00100000
00110000
00001000
,  // measure 43
00011000
00000000
00000100
00000200
00000000
00001300
00000010
00000100
,  // measure 44
00000001
00000010
00000100
00002000
00000000
00003020
00000000
00020030
,  // measure 45
00000000
00031000
00100000
02000000
00000000
00000000
00000000
00000000
,  // measure 46
13000000
00010000
01000000
00100000
00010000
00001000
00000100
00000010
,  // measure 47
00001000
00000001
00000010
00000200
00000000
00001300
00000010
00010000
,  // measure 48
00011000
00000000
00001000
00010000
00001000
00000000
00100000
00000000
00010000
00000000
00100000
00000000
10000000
00000000
00100000
00000000
,  // measure 49
01000000
00000000
00010000
00001000
00010000
00000000
00000100
00000000
00001000
00000000
00000100
00000000
00000001
00000000
00000100
00000000
,  // measure 50
00001000
00001000
00001000
00000010
00000100
00001000
00010000
00100000
,  // measure 51
10000000
10000000
10000000
01000000
00100000
00010000
01000000
00001000
,  // measure 52
00000100
00000100
00000100
00000001
00000010
00000100
00000100
00000100
,  // measure 53
00010000
00010000
00010000
00001000
00000100
00010000
00010000
00010000
,  // measure 54
01000000
01000000
01000000
00100000
10000000
00010000
00100000
01000000
,  // measure 55
10000000
00100000
00010000
00001000
00000100
00000001
00000010
00001000
,  // measure 56
00022000
00000000
00000000
00000000
,  // measure 57
00033000
00000000
00000000
00000000
,  // measure 58
00011000
00000000
00001000
00010000
01000000
00000000
00100000
01000000
,  // measure 59
10000000
00100000
00010000
00002000
00000000
00013000
00010010
00000000
,  // measure 60
01001000
00000000
00001000
00000100
00000001
00000000
00000010
00000100
,  // measure 61
00001000
00000000
00000010
00000001
00000010
00001000
00010000
01000000
,  // measure 62
01100000
00000000
00100000
10000000
01000000
00000000
00100000
01000000
,  // measure 63
10000000
00010000
10000000
00000000
00100000
00000000
00010000
00000000
00001000
00000000
00000100
00000000
00000001
00000000
00000010
00000000
,  // measure 64
00000110
00000000
00000100
00001000
00010000
00000000
00001000
00010000
,  // measure 65
01000000
00000000
00100000
00010000
00100000
10000000
01000000
00100000
,  // measure 66
00120000
00000000
01030000
00001000
00021000
00000000
00030010
00001000
,  // measure 67
00001200
00000000
00000310
00000001
00000101
00000100
00001000
00010000
,  // measure 68
00000100
00000000
00000010
00000000
00001000
00000000
01000000
00000000
00010000
00000000
10000000
00000000
00100000
01000000
00100000
01000000
,  // measure 69
00100000
01100000
00000000
00000000
,  // measure 70
20020000
00000000
00000000
00000000
,  // measure 71
30030000
00000000
00000000
00000000
00000000
10000000
00100000
00010000
,  // measure 72
00022000
00000000
00033000
00000000
,  // measure 73
00020020
00030030
00000000
02002000
03000000
00000000
00003100
00000100
,  // measure 74
00000000
00000001
00001000
00002002
00000000
00000000
00000000
00000000
00000000
00000000
00000000
00000000
,  // measure 75
00003003
00000000
00000000
00000000
;
