#TITLE:Mobius Strip;
#SUBTITLE:;
#ARTIST:Sechskies;
#TITLETRANSLIT:;
#SUBTITLETRANSLIT:;
#ARTISTTRANSLIT:;
#GENRE:K-POP;
#CREDIT:MUINELIM;
#BANNER:Mobius Strip.png;
#BACKGROUND:Mobius Strip-bg.png;
#LYRICSPATH:;
#CDTITLE:;
#MUSIC:Mobius Strip.MP3;
#OFFSET:-0.069000;
#SAMPLESTART:9.083803;
#SAMPLELENGTH:12.000000;
#SELECTABLE:YES;
#BPMS:0.000000=106.000000
;
#STOPS:
;
#BGCHANGES:;
#KEYSOUNDS:;
#ATTACKS:;

//---------------dance-single - ----------------
#NOTES:
     dance-single:
     :
     Beginner:
     3:
     0.118048,0.148011,0.019443,0.000000,0.000000,85.000000,83.000000,2.000000,0.000000,0.000000,0.000000,0.118048,0.148011,0.019443,0.000000,0.000000,85.000000,83.000000,2.000000,0.000000,0.000000,0.000000:
0000
0000
0000
0000
,
0000
0000
0000
0000
,
0000
0000
0000
0000
,
0000
0000
0000
0000
,
1000
0000
0001
0000
,
1000
0000
0001
0000
,
1000
0000
0001
0000
,
1000
0000
1000
0000
,
1000
0000
0100
0000
,
0010
0000
0001
0000
,
1000
0000
0100
0000
,
0010
0000
0001
0000
,
0001
0000
0001
0000
,
0100
0000
1000
0000
,
0010
0000
0001
0000
,
0100
0000
1000
1000
,
1000
0000
0010
0000
,
0001
0000
1000
0000
,
0001
0000
1001
0000
,
1000
0000
0001
0000
,
1000
0000
0100
0000
,
0001
0000
0010
0000
,
1000
0000
0100
0000
,
0010
0000
0010
0010
,
0010
0000
0001
0000
,
1000
0000
0001
0000
,
1000
0000
0100
0000
,
0010
0000
0100
0100
,
0100
0000
1000
0000
,
0010
0000
0100
0000
,
0001
0001
0001
0000
,
1000
0000
1001
0000
,
0000
0000
0001
0000
,
0100
0000
0010
0000
,
1000
0000
0001
0000
,
0100
0000
0010
0000
,
0010
0000
0010
0010
,
0010
0010
0010
0000
,
0000
0000
0000
0000
,
0000
0000
1000
0000
,
0100
0000
0001
0000
,
0010
0000
1000
0000
,
0100
0000
0001
0000
,
0010
0010
0010
0000
;

//---------------dance-single - ----------------
#NOTES:
     dance-single:
     :
     Easy:
     4:
     0.152768,0.211444,0.068051,0.019443,0.000000,110.000000,103.000000,7.000000,2.000000,0.000000,0.000000,0.152768,0.211444,0.068051,0.019443,0.000000,110.000000,103.000000,7.000000,2.000000,0.000000,0.000000:
0000
0000
0000
0000
,
0000
0000
0000
0000
,
0000
0000
0000
0000
,
0000
0000
0000
0000
,
1000
0000
0001
0000
,
1000
0000
0001
0000
,
1001
0000
1000
0000
,
0001
0000
1000
0000
,
1000
0000
1000
0100
,
1000
0100
0010
0001
,
0010
0001
0010
0100
,
0010
0100
1000
0001
,
1000
1001
0001
0000
,
0100
0000
1000
0000
,
0010
0000
0001
0000
,
0100
0000
1000
1000
,
1000
0000
0010
0000
,
0001
0000
1000
0000
,
0001
0000
1001
0000
,
1000
0000
0001
0000
,
1000
1000
0100
0010
,
0100
0000
0001
0010
,
0001
0000
1000
0100
,
1000
0000
0001
1000
,
0002
0003
0010
0000
,
1000
0000
0100
0000
,
0001
0000
0010
0000
,
1000
0000
0100
0100
,
0100
0110
0001
0000
,
0100
0000
1000
1000
,
0010
0001
1001
0000
,
1000
0001
2000
0000
,
0000
3000
0100
0000
,
0001
0000
0010
0010
,
1000
0100
0110
0000
,
0001
0000
1000
0000
,
0001
0000
1000
0001
,
1000
1000
1000
0000
,
0010
0000
0001
0000
,
0100
0000
1000
0000
,
0001
0000
0010
0000
,
1000
0000
0100
0000
,
0001
0000
1000
0000
,
0010
0100
0110
0000
;

//---------------dance-double - ----------------
#NOTES:
     dance-double:
     :
     Easy:
     5:
     0.152768,0.211444,0.068051,0.019443,0.000000,110.000000,103.000000,7.000000,2.000000,0.000000,0.000000,0.152768,0.211444,0.068051,0.019443,0.000000,110.000000,103.000000,7.000000,2.000000,0.000000,0.000000:
00000000
00000000
00000000
00000000
,
00000000
00000000
00000000
00000000
,
00000000
00000000
00000000
00000000
,
00000000
00000000
00000000
00000000
,
00001000
00000000
00010000
00000000
,
00001000
00000000
00010000
00000000
,
00011000
00000000
00001000
00000000
,
00010000
00000000
00001000
00000000
,
00001000
00000000
00001000
01000000
,
00001000
00010000
00001000
00010000
,
00000010
00010000
00001000
00010000
,
00001000
00000100
00001000
00010000
,
01000000
11000000
00010000
00000000
,
01000000
00000000
00001000
00000000
,
00000100
00000000
00010000
00000000
,
01000000
00000000
00001000
00001000
,
00001000
00000000
00000100
00000000
,
00000001
00000000
00000010
00000000
,
00001000
00000000
00011000
00000000
,
00010000
00000000
01000000
00000000
,
10000000
10000000
00100000
01000000
,
00100000
00000000
00010000
00001000
,
00010000
00000000
00001000
00010000
,
00001000
00000000
00000100
00000010
,
00000200
00000300
00000001
00000000
,
00000010
00000000
00001000
00000000
,
00010000
00000000
01000000
00000000
,
10000000
00000000
00100000
00100000
,
00100000
01100000
00010000
00000000
,
00001000
00000000
00000100
00000100
,
00000010
00000100
00000110
00000000
,
00000001
00001000
00000002
00000000
,
00000000
00000003
00000100
00000000
,
00001000
00000000
00010000
00010000
,
00001000
00010000
00011000
00000000
,
00100000
00000000
10000000
00000000
,
10000000
00000000
10000000
00010000
,
00001000
00001000
00001000
00000000
,
00000010
00000000
00010000
00000000
,
00100000
00000000
00001000
00000000
,
00000001
00000000
00000100
00000000
,
00010000
00000000
01000000
00000000
,
10000000
00000000
00010000
00000000
,
00001000
00010000
00011000
00000000
;

//---------------dance-single - ----------------
#NOTES:
     dance-single:
     :
     Medium:
     7:
     0.305535,0.317166,0.223596,0.116659,0.000000,220.000000,197.000000,23.000000,12.000000,0.000000,0.000000,0.305535,0.317166,0.223596,0.116659,0.000000,220.000000,197.000000,23.000000,12.000000,0.000000,0.000000:
0000
0000
0000
0000
,
0000
0000
0000
0000
,
0000
0000
0000
0000
,
0000
0000
0000
0000
,
1001
0000
0001
0000
0100
0000
0010
1000
,
0010
0000
0100
0000
0001
0000
0010
0001
,
0010
0000
0100
0000
1000
0000
0010
0100
,
0010
0100
0001
0001
,
1000
0000
1000
0000
0010
1000
0010
0000
,
1000
0100
1000
0000
0001
0010
0001
0000
,
0100
0001
0100
0000
0110
0000
0010
0000
,
1000
0001
1000
0000
0010
0100
0010
0100
,
0010
0100
0010
0000
0100
0000
0101
0000
,
0010
0011
0100
0101
,
0001
0010
0100
1000
0100
0000
1100
0000
,
0010
1010
2000
3002
,
0203
0320
1030
0001
,
0100
1000
0001
0010
,
1000
0000
0100
0010
0110
0000
1000
0000
,
0010
0000
0001
0000
0100
0100
0000
0100
,
0000
0100
0000
1000
0010
0000
0110
0000
,
0100
0001
0010
0000
0100
0000
0110
0000
,
0100
1000
0010
0000
0100
0000
0110
0000
,
0100
0001
1000
0010
0100
0000
0100
0000
,
0200
0300
0001
0011
,
1000
1010
0001
0011
,
1000
0100
0010
0110
,
1000
1001
0002
0203
,
0320
2030
3001
0100
,
1000
0000
0100
0000
0001
0010
0100
0000
,
0001
0010
0100
1000
1010
0000
0010
0000
,
0100
0000
0001
1000
0020
0000
0000
0000
,
0230
0000
0320
0000
1030
0000
1000
0100
,
0010
0000
1000
0100
0010
0001
0010
0001
,
0010
0000
0001
0100
0110
0000
0010
0000
,
1000
0000
0100
0001
0100
0000
0100
1000
,
0100
0000
0100
0010
0100
0000
0110
0000
,
0001
0010
0100
1000
0010
0000
0001
0000
,
0100
1000
0010
0001
,
0100
0000
1000
0000
1010
0000
0001
0010
,
0100
0000
0100
1000
0010
0000
0100
0001
,
0010
0000
0010
0100
1000
0000
0010
0100
,
0001
0011
1100
1000
,
0010
0100
0001
1000
0110
0000
0000
0000
;

//---------------dance-double - ----------------
#NOTES:
     dance-double:
     :
     Medium:
     7:
     0.297202,0.317166,0.243039,0.048608,0.000000,214.000000,189.000000,25.000000,5.000000,0.000000,0.000000,0.297202,0.317166,0.243039,0.048608,0.000000,214.000000,189.000000,25.000000,5.000000,0.000000,0.000000:
// measure 0
00000000
00000000
00000000
00000000
,  // measure 1
00000000
00000000
00000000
00000000
,  // measure 2
00000000
00000000
00000000
00000000
,  // measure 3
00000000
00000000
00000000
00000000
,  // measure 4
00011000
00001000
00100000
00010000
,  // measure 5
01000000
00001000
00010000
00000100
,  // measure 6
00001000
00000010
00010000
00001000
,  // measure 7
00100000
01000000
00010000
00010000
,  // measure 8
00001000
00000000
00001000
00000000
00000010
00000100
00000010
00000000
,  // measure 9
00000001
00000100
00001000
00000000
00010000
00100000
10000000
00000000
,  // measure 10
01000000
00100000
01000000
00000000
01100000
00000000
10000000
00000000
,  // measure 11
00100000
00010000
00001000
00000000
00010000
00001000
00000100
00000000
,  // measure 12
00001000
00000100
00000001
00000000
00000010
00000000
00000011
00000000
,  // measure 13
00000100
00001100
00010000
00010100
,  // measure 14
00000100
00001000
00000010
00010000
00001000
00000000
00011000
00000000
,  // measure 15
00100000
00101000
02000000
00100000
,  // measure 16
10000000
03010000
10010000
10000000
,  // measure 17
01000000
00010000
00001000
00000010
,  // measure 18
00000001
00000000
00000100
00000010
00000110
00000000
00000001
00000000
,  // measure 19
00000100
00000000
00001000
00000000
00010000
00001000
00000000
00010000
,  // measure 20
00000000
00001000
00000000
00010000
01000000
00000000
11000000
00000000
,  // measure 21
00010000
00001000
00000010
00000011
,  // measure 22
00001000
00010000
01000000
10100000
,  // measure 23
00100000
00010000
00001000
00000100
00000001
00000000
00000001
00000000
,  // measure 24
00000002
00000003
00000010
00000110
,  // measure 25
00001000
00001010
00010000
00011000
,  // measure 26
00100000
00010000
01000000
01100000
,  // measure 27
00010000
10010000
20000000
00100000
,  // measure 28
00010000
31000000
01100000
00100000
,  // measure 29
00001000
00000000
00010000
00000000
00000100
00000010
00000001
00000000
,  // measure 30
00000100
00001000
00010000
00001000
00011000
00000000
00100000
00000000
,  // measure 31
00010000
00000000
00100000
01000000
20000000
00000000
00000000
00000000
,  // measure 32
30020000
00000000
00100000
00000000
01030000
00000000
01000000
00001000
,  // measure 33
00010000
00000000
00000100
00001000
00000100
00000000
00000010
00000001
,  // measure 34
00000100
00000000
00001000
00010000
00011000
00000000
00100000
00000000
,  // measure 35
10000000
00000000
01000000
00100000
00010000
00000000
00100000
00001000
,  // measure 36
00010000
00000000
00010000
00001000
00000010
00000000
00000011
00000000
,  // measure 37
00000100
00001000
00000100
00010000
01000000
00000000
10000000
00000000
,  // measure 38
00100000
00010000
00001000
00000100
,  // measure 39
00000001
00000000
00000010
00000000
00000011
00000000
00000001
00000100
,  // measure 40
00001000
00000000
00010000
00100000
10000000
00000000
10000000
01000000
,  // measure 41
00010000
00000000
00001000
00000010
00000001
00000000
00000100
00001000
,  // measure 42
00010000
00010010
00101000
00100000
,  // measure 43
10000000
00100000
00001000
00000000
00011000
00000000
00000000
00000000
;

//---------------dance-single - ----------------
#NOTES:
     dance-single:
     :
     Hard:
     10:
     0.398585,0.444033,0.233318,0.097216,0.058329,287.000000,263.000000,24.000000,10.000000,0.000000,0.000000,0.398585,0.444033,0.233318,0.097216,0.058329,287.000000,263.000000,24.000000,10.000000,0.000000,0.000000:
0000
0000
0000
0000
,
0000
0000
0000
0000
,
0000
0000
0000
0000
,
0000
0000
0000
0000
,
1001
0000
1000
0001
0100
0000
0001
1000
,
0010
0000
1000
0001
0100
0100
0100
0010
,
1010
0000
0000
0000
1000
0000
0100
0000
0010
0000
0000
0001
0000
0000
0100
0000
,
0100
1000
0000
0010
0010
0100
0001
0000
,
0100
0010
1000
0000
0010
0100
0001
0100
,
1000
0100
0001
0100
0010
0010
1000
1000
,
0100
0000
0010
0000
0001
0000
0100
0000
0010
1000
0010
0000
1000
0000
0100
0000
,
0010
0001
0100
1000
0100
0010
1000
0100
,
0010
0001
0110
0000
1000
0010
0100
0000
,
0001
0010
0100
0000
1000
0001
0010
0000
,
0001
1000
0100
0010
0001
0000
0101
0100
,
1000
0000
1010
0010
0001
0000
1002
0000
,
0203
0000
0320
0000
1030
0000
1000
0100
,
0010
0001
0000
0100
1000
0000
0010
0100
,
0001
0010
0100
1000
1010
0000
0010
0001
,
0100
0000
0000
0010
0000
0000
1000
0000
0100
0000
0001
0000
0000
0000
0001
0000
,
0000
0011
0000
1100
1000
0010
0001
0010
,
1000
0100
0010
0000
0001
0100
1000
0100
,
0001
0000
0010
0000
0100
0000
0000
0000
1100
0000
0000
0000
0010
0001
0000
0000
,
0100
0100
0010
0010
1000
0100
0001
0010
,
2000
0001
3001
0000
1000
0010
0001
0000
,
0001
0100
1000
0000
0001
0010
1000
0000
,
1000
0100
0001
0000
0011
0010
0100
0000
,
1100
0100
0010
0000
2001
0000
3020
0000
,
0230
0000
0302
0000
1003
0000
1000
0010
,
0001
1000
0000
0100
0010
0010
0100
0100
,
0101
0001
1001
1000
1010
0000
0010
0100
,
0001
0000
0000
0010
0000
0000
1000
0000
0200
0000
0000
0000
0320
0000
0000
0000
,
1000
1000
1030
0000
1100
0000
0010
0001
,
0100
0010
0000
0001
0010
1000
0100
0010
,
0100
1000
0100
0010
0011
0000
0001
0100
,
1000
0000
0000
0010
0000
0000
0001
0000
0100
0010
0100
0000
1000
0000
1000
0000
,
0100
0010
0100
0000
0001
0000
0001
0000
1000
0010
1000
0000
0001
0100
0001
0000
,
0010
0100
1000
0010
0100
0000
0001
0100
,
0010
0000
1000
0100
0010
0000
0001
0010
,
0100
0000
1000
0010
1001
0000
0001
0100
,
1000
0001
0000
0010
0100
0000
0010
1000
,
0100
0010
0001
0100
1100
0000
1000
0010
,
0110
0000
0000
0101
0000
0000
0011
0000
0010
0000
1000
0000
0010
0000
0100
0000
,
1000
0000
0010
0000
0100
0001
1000
0000
0110
0000
0000
0000
0000
0000
0000
0000
;

//---------------dance-double - ----------------
#NOTES:
     dance-double:
     :
     Hard:
     11:
     0.391641,0.422888,0.233318,0.068051,0.034026,282.000000,258.000000,24.000000,7.000000,0.000000,0.000000,0.391641,0.422888,0.233318,0.068051,0.034026,282.000000,258.000000,24.000000,7.000000,0.000000,0.000000:
00000000
00000000
00000000
00000000
,
00000000
00000000
00000000
00000000
,
00000000
00000000
00000000
00000000
,
00000000
00000000
00000000
00000000
,
00011000
00000000
00001000
00010000
01000000
00000000
00010000
00001000
,
00000100
00000000
00001000
00010000
00100000
00000000
00010000
00001000
,
00000011
00000000
00000000
00000000
00000010
00000000
00000001
00000000
00000100
00000000
00000000
00001000
00000000
00000000
00010000
00000000
,
00010000
01000000
00000000
00010000
00010000
00001000
00000100
00000000
,
00001000
00010000
00100000
00000000
10000000
01000000
00100000
00010000
,
01000000
00100000
00010000
00001000
00100000
01000000
00010000
00001000
,
00000010
00000100
00001000
00000010
00000001
00001000
00000100
00000100
,
00000001
00000010
00000100
00010000
00001000
00100000
01000000
10000000
,
00100000
00010000
00011000
00000000
00001000
00100000
01000000
00000000
,
00010000
00000100
00000010
00000000
00001000
00010000
01000000
00000000
,
00010000
00001000
00000010
00000001
00001100
00000000
00010100
00010000
,
00001000
00000000
01001000
00001000
00010000
00000000
00012000
00000000
,
00103000
00000000
00021000
00000000
00030010
00000000
00000010
00001000
,
00000100
00000010
00000000
00001000
00100000
00000000
01000000
10000000
,
00100000
00010000
00001000
00000100
00000110
00000000
00000001
00000010
,
00001000
00000000
00000000
00010000
00000000
00000000
00001000
00000000
00000100
00000000
00010000
00000000
00000000
00000000
01000000
00000000
,
00000000
10100000
00000000
11000000
01000000
00010000
00000100
00010000
,
01000000
10000000
00100000
00000000
00010000
00001000
00000100
00000001
,
00000100
00001000
00010000
00000000
00010100
00000000
01001000
00000000
,
00001000
00010000
00100000
00001000
00000010
00010000
00001000
00000100
,
00000002
00001000
00001003
00000000
00000110
00001000
00010000
00000000
,
00001000
00010000
01000000
00000000
10000000
00100000
00010000
00000000
,
00100000
00010000
00001000
00000000
00011000
00000100
00000010
00000000
,
00001000
00000010
00000001
00000100
00001100
00000000
00020100
00000000
,
00031000
00000000
01002000
00000000
00013000
00000000
00010000
00100000
,
10000000
01000000
00000000
00010000
00000100
00001000
00000010
00000001
,
00000010
00000100
00001000
00010000
00011000
00000000
00001000
00100000
,
01000000
00000000
00000000
10000000
00000000
00000000
00100000
00000000
00020000
00000000
00000000
00000000
00032000
00000000
00000000
00000000
,
00010000
00010000
00013000
00000000
00010010
00000000
00000010
00001000
,
00000100
00000010
00000000
00001000
00100000
01000000
00100000
00010000
,
01000000
10000000
01000000
00100000
00110000
00000000
00010000
00001000
,
00000010
00000000
00000000
00000001
00000000
00000000
00000100
00000000
00000010
00000000
00000010
00000000
00010000
00000000
00100000
00000000
,
01000000
00000000
01000000
00000000
00001000
00000000
00000100
00000000
00000001
00000010
00000001
00000000
00001000
00000100
00001000
00000000
,
00000010
00010000
00100000
10000000
01100000
00000000
00010000
00001000
,
00000010
00000000
00001000
00010000
00100000
00000000
00010000
00001000
,
00000100
00000000
00001000
00010000
01000000
00000000
10000000
00100000
,
01000000
10000000
00000000
01000000
00001000
00000000
00010000
00100000
,
00001000
00000010
00010000
00001000
00000101
00000000
00000010
00001000
,
00000100
00000000
00000000
00010000
00000000
00000000
01000000
00000000
10000000
00000000
00100000
00000000
00010000
00000000
00001000
00000000
,
00000001
00000100
00010000
00001000
00011000
00000000
00000000
00000000
;
