#VERSION:0.83;
#TITLE:MixxioN;
#SUBTITLE:;
#ARTIST:MisoilePunch♪;
#TITLETRANSLIT:;
#SUBTITLETRANSLIT:;
#ARTISTTRANSLIT:;
#GENRE:VARIETY;
#ORIGIN:;
#CREDIT:MUINELIM;
#BANNER:MixxioN.png;
#BACKGROUND:MixxioN-bg.png;
#PREVIEWVID:;
#JACKET:MixxioN-jacket.png;
#CDIMAGE:;
#DISCIMAGE:;
#LYRICSPATH:;
#CDTITLE:;
#MUSIC:MixxioN.mp3;
#OFFSET:-0.027000;
#SAMPLESTART:73.473007;
#SAMPLELENGTH:11.899998;
#SELECTABLE:YES;
#DISPLAYBPM:138.000000:275.000000;
#BPMS:0.000=137.500,
20.000=275.000,
65.000=550.000,
77.000=275.000,
141.000=137.500,
157.000=275.000,
261.000=137.500,
269.500=275.000,
388.500=137.500,
391.500=275.000,
401.500=137.500,
405.500=275.000,
469.500=137.500,
473.500=275.000;
#STOPS:64.000=0.218;
#DELAYS:;
#WARPS:;
#TIMESIGNATURES:0.000=4=4;
#TICKCOUNTS:0.000=4;
#COMBOS:0.000=1;
#SPEEDS:0.000=1.000=0.000=0;
#SCROLLS:0.000=1.000;
#FAKES:;
#LABELS:0.000=Song Start;
#BGCHANGES:;
#KEYSOUNDS:;
#ATTACKS:
;

//---------------dance-single - ----------------
#NOTEDATA:;
#CHARTNAME:;
#STEPSTYPE:dance-single;
#DESCRIPTION:;
#CHARTSTYLE:;
#DIFFICULTY:Beginner;
#METER:7;
#RADARVALUES:0.239394,0.455203,0.084209,0.084209,0.000000,199.000000,189.000000,10.000000,10.000000,0.000000,0.000000,0.000000,0.000000,0.000000,0.239394,0.455203,0.084209,0.084209,0.000000,199.000000,189.000000,10.000000,10.000000,0.000000,0.000000,0.000000,0.000000,0.000000;
#CREDIT:MILEN;
#NOTES:
0000
0000
0000
0000
,
0000
0000
0000
0000
,
0000
0000
0000
0000
,
0000
0000
0000
0000
,
0000
0000
0000
0000
,
0000
0000
0000
0000
,
0000
0000
1000
0000
,
1000
0000
1000
0000
,
0001
0000
0001
0000
,
0001
0000
0001
0000
,
0100
0000
0100
0000
,
0010
0000
0010
0000
,
1000
0000
0001
0000
,
0100
0000
0010
0000
,
1000
0000
0000
0000
,
0001
0000
0000
0000
,
0100
0100
0000
0000
,
0000
0000
0000
0000
,
0000
0000
0000
0000
,
0000
0100
0000
0000
,
0000
0000
0000
0000
,
0001
0000
0000
0000
,
0000
0000
0000
0000
,
1000
0000
0000
0000
,
0000
0000
0000
0000
,
0000
0010
0000
0000
,
0000
0100
0000
0000
,
0000
0010
0000
0010
,
0000
1000
0000
1000
,
0000
0001
0000
0001
,
0000
0100
0000
0100
,
0000
0010
0000
0100
,
0000
0001
0000
1000
,
0000
0001
0000
1000
,
0000
0100
0000
0010
,
0000
0001
0000
0100
,
0100
0100
0010
0100
,
0001
1000
0000
1001
,
0000
0000
0020
0000
0030
0000
0000
0010
,
0010
0010
0001
0000
0000
0000
0000
0000
,
0000
0100
0000
0000
,
0000
1000
0000
0000
,
0000
0010
0000
0000
,
0000
0001
0000
0001
,
0000
0100
0000
0100
,
0000
1000
0000
1000
,
0000
0020
0000
0030
,
0000
0110
0000
0100
,
0000
0001
0000
0100
,
0000
0010
0000
1000
,
0000
0010
0000
0100
,
0000
0001
0000
1000
,
0000
0001
0000
1000
,
0000
0100
0000
0010
,
0000
0002
0000
0003
,
0000
1000
0000
0010
,
0000
0100
0000
0001
,
0000
0100
0000
0010
,
0000
2000
0000
3000
,
0000
0001
0000
0010
,
0000
0100
0000
1000
,
0000
0001
0000
1000
,
0000
0001
0000
1000
,
0000
2002
0000
0000
,
0000
0000
0000
3003
,
0000
1001
0000
0000
,
0000
0000
0000
0000
,
0000
0000
0000
1001
0000
0000
0000
0000
,
0000
0000
0000
1000
0000
0000
0000
0000
,
0000
0000
0000
0001
0000
0000
0000
0000
,
0000
0000
0000
0100
0000
0100
0000
0000
,
0000
0000
0000
0010
0000
0010
0000
0000
,
0000
0000
0000
0100
0000
0100
0000
0000
,
0000
0010
0000
0000
0000
1000
0000
0000
,
0000
0001
0000
0000
0000
0010
0000
0000
,
0000
0100
0000
0000
0000
1000
0000
0000
,
0000
0001
0000
0000
0000
0000
0000
0000
,
0000
0010
0000
0000
0000
0001
0000
0000
,
0000
1000
0000
0000
0000
0000
0000
0000
,
0000
0010
0000
0000
0000
0100
0000
0000
,
0000
0010
0000
0000
0000
0100
0000
0000
,
0000
0020
0000
0000
0000
0000
0000
0000
,
0000
0000
0000
0000
0000
0000
0000
0030
,
0000
0000
0000
0010
0000
0010
0000
0000
,
0000
1000
0000
0000
0000
0100
0000
0000
,
0000
1000
0000
0000
0000
0001
0000
0000
,
0000
1000
0000
0000
0000
0100
0000
0000
,
0000
0010
0000
0000
0000
0001
0000
0000
,
0000
1000
0000
0000
0000
0001
0000
0000
,
0000
0010
0000
0000
0000
0001
0000
0000
,
0000
0200
0000
0000
0000
0000
0000
0300
,
0000
0000
0000
0010
0000
0010
0000
0000
,
0000
1000
0000
0000
0000
0001
0000
0000
,
0000
1001
0000
0000
,
0000
0000
0000
0000
0000
1000
0000
1000
,
0000
1000
0000
0000
0000
0001
0000
0000
,
0000
0010
0000
0000
0000
0100
0000
0000
,
0000
1000
0000
0000
0000
0000
0000
0010
,
0000
0010
0000
0010
0000
0000
0000
0000
,
0000
0000
0000
0100
0000
0000
0000
0000
,
0000
0000
0000
0220
0000
0000
0000
0000
,
0000
0330
0000
1000
0000
0000
0000
1000
,
0000
0000
0000
0100
0000
0000
0000
0100
,
0000
0000
0000
0010
0000
0000
0000
0010
,
0000
0000
0000
0001
0000
0000
0000
0001
,
0000
0000
0000
0100
0000
0000
0000
0100
,
0000
0000
0000
1000
0000
0000
0000
1000
,
0000
0000
0000
0010
0000
0000
0000
0010
,
0000
0000
0000
0001
0000
0000
0000
0001
,
0000
0001
0000
0000
0000
1000
0000
1000
,
0000
0000
0000
0010
0000
0000
0000
0100
,
0000
0000
0000
0001
0000
0000
0000
0010
,
0000
0000
0000
1000
0000
0000
0000
0100
,
0000
0000
0000
0010
0000
0000
0000
0010
,
0000
0000
0000
0010
0000
0000
0000
0010
,
0000
0000
0000
1001
0000
0000
0000
0000
,
0000
0000
0000
1001
0000
0000
0000
0000
,
0000
0000
0000
1001
0000
0000
0000
0000
,
0000
0000
0000
1000
0000
0000
0000
0010
,
0000
0000
0000
0001
0000
0000
0000
0100
,
0000
0100
0000
0000
0000
0000
0000
0000
;

//---------------dance-single - ----------------
#NOTEDATA:;
#CHARTNAME:;
#STEPSTYPE:dance-single;
#DESCRIPTION:;
#CHARTSTYLE:;
#DIFFICULTY:Easy;
#METER:11;
#RADARVALUES:0.374129,0.560412,0.143155,0.210523,0.004210,311.000000,294.000000,17.000000,25.000000,0.000000,0.000000,0.000000,0.000000,0.000000,0.374129,0.560412,0.143155,0.210523,0.004210,311.000000,294.000000,17.000000,25.000000,0.000000,0.000000,0.000000,0.000000,0.000000;
#CREDIT:MILEN;
#NOTES:
0000
0000
0000
0000
,
0000
0000
0000
0000
,
0000
0000
0000
0000
,
0000
0000
0000
0000
,
0000
0000
0000
0000
,
0000
0100
0100
0200
,
0000
0300
0001
0000
,
1000
0000
0010
0000
,
0100
0000
0010
0000
,
1000
0000
0001
0000
,
0100
0000
0000
0100
0000
0000
0100
0000
,
0000
0010
0100
0010
,
0010
0000
1000
0000
,
0001
0000
0100
0000
,
0220
0000
0000
0000
,
0000
0000
0000
0330
,
1001
1001
0000
0000
,
0000
0000
0000
0000
,
0000
0000
0000
0000
,
0000
1000
0000
1000
,
0000
0010
0000
0010
,
0000
0001
0000
0001
,
0000
0100
0000
0100
,
0000
1000
0000
0010
,
0000
0001
0000
0100
,
0000
0000
1000
0000
0000
1000
0000
0000
,
0001
0000
0000
0001
0000
0000
1000
0000
,
0001
0002
0000
0003
,
1000
2000
0000
3000
,
0010
0010
0000
0100
,
0000
0110
0000
0010
,
0100
0010
0000
1000
,
0001
1000
0000
0010
,
0100
0010
0000
1010
,
0000
0101
0000
0100
,
0010
0200
0000
0301
,
0010
0100
1000
0010
,
0100
0000
0010
0000
0000
1000
0001
0000
,
0000
0000
0100
0000
0010
0000
0000
0010
0000
0000
0010
0000
0000
0000
0100
0000
,
0100
0001
1000
0000
0000
0000
0010
0000
,
0000
1000
0000
0010
,
0000
0001
0000
0100
,
0000
0001
0000
0100
,
0000
0000
1000
0000
0000
1000
0000
0000
,
0001
0000
0000
0001
0000
0000
0100
0000
,
0010
0200
0000
0000
,
0000
0310
0000
0110
,
0110
1000
0000
0001
,
0000
0010
0000
0001
,
0000
1000
0000
0100
,
0000
1000
0000
0001
,
0000
0100
0000
0010
,
0000
1000
0000
0100
,
0000
0010
0000
0001
,
0000
2002
0000
0000
,
3003
1000
0010
1000
,
0000
0001
0010
0001
,
0000
1000
0100
1000
,
0000
0001
0100
0001
,
0000
0000
1000
0000
0000
0001
0000
0000
,
1000
1000
0100
0010
,
0001
0100
0010
0100
,
0010
1000
0001
1000
,
0001
2002
0000
0000
,
0000
0000
0000
0000
,
3003
1001
0000
0010
,
0100
0010
1000
0001
,
1000
0000
0010
0010
0000
0100
0000
0000
,
0010
0000
0000
0100
0000
0100
0000
0000
,
0001
0000
0000
0100
0000
0100
0000
0000
,
1000
0000
0000
0100
0000
0100
0000
0000
,
0001
0000
0000
0010
0000
0010
0000
0000
,
1000
0000
0000
0010
0000
0010
0000
0001
,
0000
0100
0000
0000
0010
0000
0000
1000
,
0000
0001
0000
1000
0000
0001
0000
2002
,
0000
3003
0000
1000
0000
0100
0000
1000
,
0000
0100
0000
0000
0000
1000
0000
0000
,
0000
0001
0000
0010
0000
0001
0000
0010
,
0000
0001
0000
0000
0000
1001
0000
0000
,
0000
1000
0000
0000
0010
0000
0010
0000
,
0010
0000
0000
0100
0000
0010
0000
0100
,
0000
0001
0000
0000
0010
0000
0000
0100
,
0000
0000
1000
0000
0000
0010
0000
0200
,
0000
0300
0000
0110
0000
0010
0000
1000
,
0000
0010
0000
0100
0000
0001
0000
0100
,
0000
0010
0000
0000
0000
1000
0000
0001
,
0000
1000
0000
0000
0000
0010
0000
0100
,
0000
0010
0000
0000
0000
1000
0000
0100
,
0000
0010
0000
0000
0000
0010
0000
0001
,
0000
0200
0000
0000
0000
0300
0000
0010
,
0000
0010
0000
1000
0000
0001
0000
1001
,
0000
0000
0000
1000
0000
0100
0000
1000
,
0000
0001
0000
0000
0000
1000
0000
1000
,
0000
2002
0000
0000
,
0000
3003
0000
0000
0000
0100
0000
0100
,
0000
0010
0000
0000
0100
0000
0000
0001
,
0000
0000
1000
0000
0000
0010
0000
0010
,
0000
0200
0000
0000
0000
0000
0000
0320
,
0000
0000
0000
1030
0000
0000
0000
0100
,
0000
0000
0000
0001
0000
0000
0000
0010
,
0000
0000
0000
2000
0000
0000
0000
0002
,
0000
3003
0000
1000
0000
0000
0000
0010
,
0000
0000
0000
0100
0000
0000
0000
0001
,
0000
0000
0000
0010
0000
0000
0000
0100
,
0000
0000
0000
1000
0000
0000
0000
0010
,
0000
0000
0000
0001
0000
0000
0000
1000
,
0000
0000
0000
0100
0000
0000
0000
0001
,
0000
0000
0000
0010
0000
0000
0000
0100
,
0000
0000
0000
1000
0000
0000
0000
0001
,
0000
0001
0000
0002
0000
1003
0000
0100
,
0000
1000
0000
0100
0000
0010
0000
0100
,
0000
0010
0000
0001
0000
0010
0000
0001
,
0000
0010
0000
0100
0000
0010
0000
0100
,
0000
0010
0000
1000
0000
0000
0000
0010
,
0000
0000
0000
0001
0000
0000
0000
0100
,
0000
0000
0000
0010
0000
1000
0000
0020
,
0000
0030
0000
0100
0000
0001
0000
0200
,
0000
0300
0000
0110
0000
0000
0000
0000
,
0000
0000
0000
0001
0000
0000
0000
0010
,
0000
0000
0000
1000
0000
0000
0000
0100
,
0000
0010
0200
0000
0000
0000
0000
0000
,
0300
0000
0000
0000
;

//---------------dance-single - ----------------
#NOTEDATA:;
#CHARTNAME:;
#STEPSTYPE:dance-single;
#DESCRIPTION:;
#CHARTSTYLE:;
#DIFFICULTY:Medium;
#METER:15;
#RADARVALUES:0.751867,0.967984,0.496834,0.505255,0.126314,625.000000,566.000000,59.000000,60.000000,0.000000,0.000000,0.000000,0.000000,0.000000,0.751867,0.967984,0.496834,0.505255,0.126314,625.000000,566.000000,59.000000,60.000000,0.000000,0.000000,0.000000,0.000000,0.000000;
#CREDIT:MILEN;
#NOTES:
0000
0000
0000
0000
,
0000
0000
0000
0000
,
0000
0000
0000
0000
,
0000
0000
0000
0000
,
0000
0000
0000
0000
,
0000
1000
0001
2002
,
3003
0000
1000
0000
0010
0100
0000
0020
,
0000
0000
0130
0001
1000
0000
0010
0000
,
0200
0000
0310
1000
0000
0001
0000
0200
,
0000
0310
1010
0101
,
1001
0000
0000
1100
0000
0010
0000
0011
,
0000
0000
0002
0000
0103
0010
0000
0100
,
0000
0000
0110
0000
0010
1000
0000
0020
,
0000
0000
0130
0001
0010
0000
0010
0100
,
1000
0000
0010
0000
1000
0000
0001
0000
0010
0000
0001
0000
,
1000
0000
0100
0000
1000
0000
0001
0000
0100
0000
0001
0000
,
1000
2002
0000
0000
,
0000
0000
0000
0000
,
0000
0000
0000
0000
,
3003
0000
1001
0000
0001
0100
0000
0010
,
0100
0020
0000
0000
1030
0000
0100
0000
,
0010
0000
0001
0000
0100
0001
0000
0010
,
0100
0010
0000
0000
0110
0000
0100
0000
,
1000
0000
0100
0000
0010
0100
0000
0010
,
0001
0000
0010
0100
1000
0000
0010
0000
,
0100
0000
0001
0000
1000
0010
0000
0100
,
0010
0000
0001
0010
0001
0010
0100
0000
,
0010
0000
1000
0000
0100
0000
0000
0100
0000
0000
0100
0000
0000
0000
1000
0000
,
0100
0000
0010
0000
0001
0000
0000
0001
0000
0000
0001
0000
0000
0000
0010
0000
,
0001
0000
0000
0010
0000
0000
0001
0000
0000
0100
0000
0000
0001
0000
0000
0000
0000
0000
1000
0000
0000
0000
0010
0000
,
0000
0000
0100
0000
0000
0000
0001
0000
0000
0000
0000
0000
0010
0000
0000
0001
0000
0000
0010
0000
0000
0000
0100
0000
,
0000
0000
1000
0000
0000
0000
0100
0000
0000
0000
0000
0000
1000
0000
0000
0001
0000
0000
0010
0000
0000
0000
0100
0000
,
0000
0000
0010
0000
0000
0000
0001
0000
0000
0000
0000
0000
1000
0000
0000
0010
0000
0000
0100
0000
0000
0010
0000
0000
,
1000
0020
0200
0330
0000
0202
0303
0000
,
2020
3030
1001
0110
,
1001
0220
0300
0100
,
0001
0100
1000
0100
,
0001
0000
0000
0000
0130
0000
0100
0001
0010
0000
0100
1000
0020
0000
0000
0000
,
0000
0000
0130
0000
0101
0000
0000
0011
0000
0000
1010
0000
0000
0000
1100
0000
,
0100
0010
0001
0000
0100
0000
1000
0100
,
0000
0110
0000
0000
0010
0000
0001
0010
,
0000
0110
0000
0000
1010
0000
1000
0000
,
1100
0100
0110
0010
,
0011
0000
0101
0000
0000
1100
0000
0000
,
1010
0000
0000
0011
0000
0000
1001
0000
,
0110
0000
0010
0100
0000
1000
0100
0000
,
0001
0100
0000
0110
0000
0000
1010
0000
,
0101
0000
0001
0010
0100
0000
0010
0001
,
0100
0000
0010
1000
0100
0000
0010
0100
,
1000
0000
0001
0100
0010
0000
0001
0010
,
0100
0000
0010
1000
0100
0000
0010
0100
,
1000
0000
0001
1000
0100
0000
1000
0001
,
0010
0000
0001
1000
0010
0000
1000
0001
,
0100
0000
0001
0010
0100
0000
1000
0100
,
0010
0002
0203
0320
,
2030
0000
3001
0010
0001
0010
0001
0010
,
0001
0000
1000
0100
1000
0100
1000
0100
,
1000
0000
0001
0100
0001
0100
0001
0100
,
0001
0000
1000
0010
1000
0010
1000
0010
,
1000
0000
0001
0010
0001
0010
0100
1000
,
0100
0000
1000
0010
1000
0010
0100
0001
,
0100
0101
0001
0011
,
0010
1010
1000
1100
,
0100
0000
0001
0010
0001
0010
0100
0010
,
0100
0010
0100
1000
0100
1000
0100
0010
,
0001
1000
2002
0000
0000
0000
0000
0000
,
0000
0000
0000
3003
,
0110
0000
0010
0100
0010
0100
0010
0000
0000
0000
0100
0000
0000
0000
0010
0000
,
0000
1000
0000
0100
0000
0001
0000
1000
,
0000
0010
0000
0001
0000
0100
0000
0010
,
0000
0100
0000
0101
0000
1010
0000
1000
,
0200
0000
0000
1300
0000
1000
0000
0001
,
0020
0000
0000
0031
0000
0001
0000
0100
,
0000
0220
0330
0000
2002
3003
0000
0110
,
0000
0010
0000
1000
0000
0100
0000
0010
,
0000
0001
0000
0100
0010
0000
0100
0000
,
2000
0000
0000
3100
0000
0010
0000
0100
,
0000
0001
0000
0010
0100
0000
0010
0000
,
0002
0000
0000
0103
0000
0010
0000
0100
,
0000
0110
0000
0010
1000
0000
0001
0000
,
0202
0303
0000
0100
0000
0010
0000
0100
,
0000
0001
0000
1000
0010
0000
0010
0001
,
0000
0001
0100
0000
0100
1000
0100
2000
,
0000
3000
0000
1001
0000
0010
0000
0110
,
0000
1000
0010
0000
0100
0000
0001
0000
,
0022
0033
0000
0010
0000
0100
1000
0000
,
2020
3030
0000
0010
0000
0100
0000
0010
,
0200
0000
0000
0301
0000
1000
0000
0001
,
2000
0000
0000
3100
0000
0010
0000
0100
,
0000
0000
0010
0000
0000
0010
0000
0000
0020
0000
0000
0000
0000
0000
0031
0000
,
0000
0100
0000
1000
0000
0100
0000
0002
,
0000
0000
0000
0013
0000
0100
0010
0000
,
0200
0000
0000
1300
0000
0010
0000
0220
,
0330
0000
0000
0100
0000
0001
0000
0010
0000
0100
0000
1000
,
0000
0000
0020
0000
0000
0000
0000
0000
0000
0030
0000
0000
0000
0000
0000
1010
0000
0000
0000
0000
0000
0101
0000
0000
,
0000
0011
0000
0010
0001
0000
0001
0100
,
0000
0100
1000
0000
1000
0010
0000
0010
,
0100
0000
0020
0000
0000
2030
0000
0000
3002
0000
0000
0203
0000
0000
0310
0000
,
0000
0010
0000
0000
0000
0010
0000
0000
0000
1000
0000
0000
0100
0000
0000
1000
0000
0000
0100
0000
0000
1000
0000
0000
,
0100
0010
0000
0001
0100
0001
0100
0001
,
0100
0010
0000
2010
0000
3002
0000
0203
,
0000
0320
0000
1030
0100
1000
0000
1000
,
0001
1000
0000
0001
0010
0001
0000
0001
,
1000
0001
0000
0100
0010
0100
0000
0100
,
0001
0100
0000
0010
0100
0010
0000
0010
,
1000
0010
0000
0010
1000
0100
0000
0100
,
0010
0001
0000
1000
0100
0010
0000
0010
,
0001
0100
0000
0100
0010
0100
0001
1000
,
0001
1000
0000
0010
0100
0010
1000
0001
,
1000
0001
0000
0200
0000
0310
1000
0001
,
0100
0010
0000
0100
0001
0010
0001
0010
,
0100
1000
0000
0010
1000
0100
1000
0100
,
0010
0001
0000
0100
0010
1000
0001
0010
,
0100
1000
0000
0010
0000
0001
0000
1000
,
0000
0100
0000
0001
0000
0010
0000
0100
,
0000
0110
0000
0010
0100
1000
0100
0001
,
0100
1000
0000
0100
0010
0001
0010
1000
,
0010
0001
0000
2002
0000
0000
0000
0000
,
0000
3003
0000
1000
0010
0100
1000
0100
,
0001
1000
0010
0001
0010
0100
0001
0010
,
1000
0001
0200
0000
0000
0000
0000
0000
,
0300
0000
0000
0000
;

//---------------dance-single - ----------------
#NOTEDATA:;
#CHARTNAME:;
#STEPSTYPE:dance-single;
#DESCRIPTION:;
#CHARTSTYLE:;
#DIFFICULTY:Hard;
#METER:17;
#RADARVALUES:0.903443,1.120823,0.757882,0.623147,0.269469,751.000000,661.000000,90.000000,74.000000,0.000000,0.000000,0.000000,0.000000,0.000000,0.903443,1.120823,0.757882,0.623147,0.269469,751.000000,661.000000,90.000000,74.000000,0.000000,0.000000,0.000000,0.000000,0.000000;
#CREDIT:MILEN;
#NOTES:
// measure 0
0000
0000
0000
0000
,  // measure 1
0000
0000
0000
0000
,  // measure 2
0000
0000
0000
0000
,  // measure 3
0000
0000
0000
0000
,  // measure 4
0000
0000
0000
0000
,  // measure 5
0000
1001
1001
2002
,  // measure 6
3003
0000
0110
0000
0010
0100
0000
0010
,  // measure 7
0000
0100
0001
0100
0010
1000
0010
1000
,  // measure 8
0001
0000
0010
0001
0000
0010
0000
0100
,  // measure 9
0000
1000
0100
1000
0100
0010
0100
0010
,  // measure 10
0002
0003
0000
0101
0000
0110
0000
2020
,  // measure 11
3030
0000
1100
0000
0100
0010
0000
0110
,  // measure 12
0000
0100
0010
0001
0010
0001
1000
0100
,  // measure 13
0000
0100
1000
0010
0100
0001
0010
0100
,  // measure 14
1000
0000
0010
0000
1000
0000
0001
0000
0010
0000
0001
0000
,  // measure 15
1000
0000
0100
0000
1000
0000
0001
0000
0100
0000
0001
0000
,  // measure 16
1000
2002
0000
0000
,  // measure 17
0000
0000
0000
0000
,  // measure 18
0000
0000
0000
0000
,  // measure 19
3003
1001
0110
1001
,  // measure 20
0001
0000
2000
0010
3000
0002
0100
0003
,  // measure 21
1000
1010
0101
1010
,  // measure 22
1000
0000
0002
0010
0003
2000
0100
3000
,  // measure 23
0001
0000
0011
0000
0000
0110
0000
0000
,  // measure 24
1100
0000
0200
0010
0300
2000
0001
3000
,  // measure 25
0010
0000
1010
0000
0000
1100
0000
0000
,  // measure 26
0101
0000
0000
0022
0000
0000
0033
0000
,  // measure 27
0010
0000
0100
0000
1000
0000
0000
0100
0000
0000
0020
0000
0000
0000
0031
0000
,  // measure 28
0100
0000
0010
0000
1000
0000
0000
0001
0000
0000
2000
0000
0000
0000
3010
0000
,  // measure 29
0100
0000
0000
0001
0000
0000
0100
0000
0000
0001
0000
0000
1000
0000
0000
0100
0000
0000
0010
0000
0000
0000
0001
0000
,  // measure 30
0000
0000
0010
0000
0000
0000
0200
0000
0000
0000
0000
0000
1300
0000
0000
0010
0000
0000
0100
0000
0000
0000
0001
0000
,  // measure 31
0000
0000
0100
0000
0000
0000
0020
0000
0000
0000
0000
0000
1030
0000
0000
0100
0000
0000
0010
0000
0000
0000
0001
0000
,  // measure 32
0000
0000
1000
0000
0000
0000
0002
0000
0000
0000
0000
0000
0013
0000
0000
0100
0000
0000
1000
0000
0000
0100
0000
0000
,  // measure 33
0010
0100
1000
0000
1000
0010
0000
0010
,  // measure 34
0002
0003
0011
1010
,  // measure 35
1100
0202
0303
0001
,  // measure 36
0010
0000
0000
0000
0100
0010
0100
0010
0100
0000
0000
0000
1000
0000
0000
0000
,  // measure 37
0010
0000
0000
0000
0100
0000
0010
0100
0001
0000
0100
0010
1000
0000
0000
0000
,  // measure 38
1001
0000
0000
0000
0101
0000
0000
1100
0000
0000
1010
0000
0011
0000
0001
0000
,  // measure 39
0100
0010
1000
0100
1000
0000
1000
0010
,  // measure 40
1000
0000
0001
0100
0001
0000
0001
0010
,  // measure 41
0001
0000
0100
0001
0100
0000
0100
1000
,  // measure 42
0100
0000
0010
0001
0010
0000
0010
1000
,  // measure 43
0010
0000
1000
0100
1000
0100
0010
0001
,  // measure 44
0010
0001
0100
0001
0100
0001
1000
0010
,  // measure 45
1000
0010
0100
0001
0000
0001
0010
0000
,  // measure 46
0010
1000
0000
2200
3300
0000
0110
0000
,  // measure 47
1001
0000
0001
0100
0010
0100
0001
0100
,  // measure 48
0010
0000
1000
0100
0010
0100
1000
0100
,  // measure 49
0010
0000
0001
0010
0100
0010
0001
0010
,  // measure 50
0100
0000
1000
0010
0100
0010
1000
0010
,  // measure 51
0100
0000
0001
1000
0100
1000
0001
1000
,  // measure 52
0100
0000
1000
0001
0010
0001
1000
0001
,  // measure 53
0010
0000
0100
1000
0100
0010
0100
0010
,  // measure 54
0001
2002
0000
0000
,  // measure 55
3003
0000
1000
0010
1000
0010
0001
0010
,  // measure 56
0001
0010
1000
0100
1000
0100
0001
0100
,  // measure 57
0001
0100
1000
0010
0100
0001
0010
0100
,  // measure 58
1000
0000
0000
0001
0000
0000
0100
0000
0001
0000
0100
0000
0001
0000
0010
0000
0100
0000
0010
0000
0100
0000
1000
0000
,  // measure 59
0010
0000
1000
0000
0010
0000
0100
0000
0000
0010
0000
0000
1000
0000
0000
0100
0000
0000
0010
0000
0000
0100
0000
0000
,  // measure 60
1000
0100
0001
1000
0010
0001
0010
0100
,  // measure 61
0010
0001
0100
0000
1000
0000
0010
0000
,  // measure 62
0001
0100
1000
0010
,  // measure 63
1001
0000
0001
0100
0010
0100
1000
0100
,  // measure 64
0010
0100
0001
0010
0100
0010
1000
0010
,  // measure 65
0100
0010
0002
0000
0000
0000
2003
0000
,  // measure 66
3020
0032
0203
2300
,  // measure 67
3001
0000
0001
0100
0001
0100
0010
0000
0010
0000
1000
0000
0100
0000
0000
0000
,  // measure 68
1100
0000
0100
0010
0010
0001
0100
0000
,  // measure 69
0101
0000
0001
0010
0010
0100
1000
0000
,  // measure 70
2020
3030
0000
0101
0000
0011
0000
0010
,  // measure 71
0200
0000
0000
1300
0000
1010
0000
0010
,  // measure 72
0200
0000
0000
0301
0000
0011
0000
1100
,  // measure 73
0000
1001
0000
0001
0100
1000
0100
0001
,  // measure 74
0020
0030
0000
0110
0000
1100
0000
0011
,  // measure 75
0000
1001
0000
1000
0010
0000
0001
0000
,  // measure 76
0200
0300
0000
1100
0000
0101
0000
0011
,  // measure 77
0000
1010
0000
1000
0001
0000
0101
0000
,  // measure 78
2020
3030
0000
0011
0000
0101
0000
1100
,  // measure 79
0000
2002
3003
0000
1010
0000
0011
0000
,  // measure 80
0202
0303
0000
0001
0010
0100
1000
0100
,  // measure 81
0010
0002
0000
0013
2000
0000
3010
0002
,  // measure 82
0000
0013
2000
0000
3010
0001
0100
0010
,  // measure 83
2000
0000
0000
3100
0000
0101
0000
1010
,  // measure 84
0000
0001
0010
0000
0110
0000
1100
0000
,  // measure 85
0022
0033
0000
0101
0000
0100
0010
0000
,  // measure 86
2020
3030
0000
1001
0000
0110
0000
0010
,  // measure 87
0200
0000
0301
0010
0100
0010
0001
0100
,  // measure 88
1000
0000
0001
0010
1000
0100
0010
0100
,  // measure 89
1000
0000
0010
0000
0000
0100
0000
0000
0002
0000
0000
0000
1003
0000
0010
0000
,  // measure 90
0100
0001
1000
0100
0000
0101
0000
1100
,  // measure 91
0000
1010
0000
0020
0000
0031
0010
0000
,  // measure 92
0110
0000
0000
1010
0000
0101
0000
0022
,  // measure 93
0033
0000
0000
0001
0000
0100
0000
1000
0000
0001
0000
0010
,  // measure 94
0000
0000
0200
0000
0000
0000
0000
0000
0000
0300
0000
0000
0000
0000
0000
0110
0000
0000
0000
0000
0000
1001
0000
0000
,  // measure 95
0000
0001
0100
0020
1000
0030
0200
0001
,  // measure 96
0300
0020
1000
0030
0100
0001
0010
0100
,  // measure 97
1000
0000
0002
0000
0000
0203
0000
0000
2300
0000
0000
3020
0000
0000
0031
0000
,  // measure 98
0000
0100
0000
0000
0000
0010
0000
0000
0000
1000
0000
0000
0100
0000
0000
0010
0000
0000
0100
0000
0000
1000
0000
0000
,  // measure 99
0100
0001
0000
1000
0010
0001
0010
0100
,  // measure 100
0010
0001
0200
0020
0000
0000
0000
0000
,  // measure 101
0000
0330
0000
0110
0000
0010
1000
0100
,  // measure 102
0010
0100
1000
0000
1000
0010
0001
0010
,  // measure 103
1000
0100
0010
0100
1000
0010
0001
0010
,  // measure 104
1000
0100
0010
0000
0010
0001
0100
0010
,  // measure 105
0100
0001
0010
1000
0010
0001
0100
1000
,  // measure 106
0100
0001
0010
0000
0010
0100
0010
0001
,  // measure 107
1000
0100
0010
0100
1000
0010
0001
0010
,  // measure 108
1000
0100
0001
0100
1000
0010
0001
0010
,  // measure 109
1000
0100
0020
0000
0000
0031
0100
0001
,  // measure 110
0100
1000
0100
1000
0001
0010
0001
0010
,  // measure 111
1000
0010
1000
0100
0001
0100
1000
0010
,  // measure 112
0001
0010
1000
0100
0001
1000
0010
0001
,  // measure 113
0100
0010
1000
1100
0000
0101
0000
0011
,  // measure 114
0000
1010
0000
1100
0000
0101
0000
0011
,  // measure 115
0020
0000
0000
0000
0000
0000
0000
0000
0000
0130
0000
1000
0000
0100
0000
1000
0000
0100
0000
1000
0000
0010
0000
1000
,  // measure 116
0000
0010
0000
1000
0000
0000
0000
0000
0000
0001
0000
0100
0000
0001
0000
0100
0000
0001
0000
0010
0000
0001
0000
0010
,  // measure 117
0000
0001
0000
0010
0000
0000
0000
0000
0000
0220
0000
0000
0000
0000
0000
0000
0000
0000
0000
0000
0000
0000
0000
0000
,  // measure 118
0000
0000
0000
0330
0000
0000
0000
0000
0000
0100
0000
1000
0000
0100
0000
1000
0000
0100
0000
0010
0000
0100
0000
0010
,  // measure 119
0000
0001
0000
0010
0000
0001
0000
0010
0000
0100
0000
1000
0000
0010
0000
0100
0000
0001
0000
0010
0000
0100
0000
0000
,  // measure 120
1000
0010
0002
0000
0000
0000
0000
0000
,  // measure 121
0003
0000
0000
0000
;

//---------------dance-double - ----------------
#NOTEDATA:;
#CHARTNAME:;
#STEPSTYPE:dance-double;
#DESCRIPTION:;
#CHARTSTYLE:;
#DIFFICULTY:Hard;
#METER:17;
#RADARVALUES:0.870963,1.069877,0.757882,0.581043,0.134735,724.000000,634.000000,90.000000,69.000000,0.000000,0.000000,0.000000,0.000000,0.000000,0.870963,1.069877,0.757882,0.581043,0.134735,724.000000,634.000000,90.000000,69.000000,0.000000,0.000000,0.000000,0.000000,0.000000;
#CREDIT:MILEN;
#NOTES:
00000000
00000000
00000000
00000000
,
00000000
00000000
00000000
00000000
,
00000000
00000000
00000000
00000000
,
00000000
00000000
00000000
00000000
,
00000000
00000000
00000000
00000000
,
00000000
00011000
00011000
00022000
,
00033000
00000000
00011000
00000000
00010000
01000000
00000000
10000000
,
00000000
00100000
01000000
00100000
01000000
00010000
00100000
01000000
,
00010000
00000000
00010000
00001000
00000000
00000010
00000000
00000001
,
00000000
00000100
00000010
00000100
00001000
00010000
00100000
01000000
,
00200000
00300000
00000000
10100000
00000000
01000000
00000000
02020000
,
03030000
00000000
00110000
00000000
00100000
00001000
00000000
00011000
,
00000000
00010000
00000100
00001000
00000100
00001000
00000100
00000010
,
00000000
00000010
00000001
00000100
00000010
00001000
00000100
00000010
,
00000001
00000000
00000100
00000000
00001000
00000000
00010000
00000000
01000000
00000000
00010000
00000000
,
00001000
00000000
00000100
00000000
00001000
00000000
00010000
00000000
01000000
00000000
10000000
00000000
,
00100000
00022000
00000000
00000000
,
00000000
00000000
00000000
00000000
,
00000000
00000000
00000000
00000000
,
00033000
00011000
01001000
00010010
,
00010000
00000000
00000200
00001000
00000300
00000020
00000001
00000030
,
00001000
00011000
00010100
00101000
,
00001000
00000000
02000000
00010000
03000000
00200000
10000000
00300000
,
00010000
00000000
00011000
00000000
00000000
01001000
00000000
00000000
,
00010010
00000000
00020000
00001000
00030000
00000200
00000010
00000300
,
00001000
00000000
00001001
00000000
00000000
00010010
00000000
00000000
,
00101000
00000000
00000000
02200000
00000000
00000000
03300000
00000000
,
10000000
00000000
00100000
00000000
00010000
00000000
00000000
00010000
00000000
00000000
00020000
00000000
00000000
00000000
00031000
00000000
,
00000100
00000000
00001000
00000000
00000100
00000000
00000000
00000100
00000000
00000000
00000200
00000000
00000000
00000000
00000301
00000000
,
00000010
00000000
00000000
00000001
00000000
00000000
00000010
00000000
00000000
00001000
00000000
00000000
00010000
00000000
00000000
01000000
00000000
00000000
10000000
00000000
00000000
00000000
00100000
00000000
,
00000000
00000000
01000000
00000000
00000000
00000000
00020000
00000000
00000000
00000000
00000000
00000000
00130000
00000000
00000000
00001000
00000000
00000000
00010000
00000000
00000000
00000000
00000100
00000000
,
00000000
00000000
00001000
00000000
00000000
00000000
00000002
00000000
00000000
00000000
00000000
00000000
00001003
00000000
00000000
00000100
00000000
00000000
00000010
00000000
00000000
00000000
00000001
00000000
,
00000000
00000000
00000100
00000000
00000000
00000000
00000020
00000000
00000000
00000000
00000000
00000000
00010030
00000000
00000000
00001000
00000000
00000000
01000000
00000000
00000000
00010000
00000000
00000000
,
00100000
01000000
10000000
00000000
10000000
00100000
00000000
00100000
,
00020000
00030000
00011000
00001100
,
00000101
00000022
00000033
00000010
,
00001000
00000000
00000000
00000000
00010000
00001000
00010000
00001000
00010000
00000000
00000000
00000000
01000000
00000000
00000000
00000000
,
10000000
00000000
00000000
00000000
00100000
00000000
01000000
00010000
00100000
00000000
00100000
00010000
01000000
00000000
00000000
00000000
,
01001000
00000000
00000000
00000000
00011000
00000000
00000000
00001100
00000000
00000000
00000101
00000000
00001001
00000000
00001000
00000000
,
00000010
00010000
00001000
01000000
00001000
00000000
00001000
00010000
,
00001000
00000000
00001000
00000100
00001000
00000000
00001000
00010000
,
00001000
00000000
00010000
00000010
00010000
00000000
00010000
00001000
,
00010000
00000000
00010000
00100000
00010000
00000000
00010000
00001000
,
00010000
00000000
00001000
00100000
00001000
00100000
00010000
01000000
,
00010000
01000000
00001000
00100000
00010000
01000000
00001000
00100000
,
00010000
01000000
00100000
10000000
00000000
10000000
01000000
00000000
,
01000000
00010000
00000000
00022000
00033000
00000000
01001000
00000000
,
00010100
00000000
00000100
00000010
00000001
00000000
00001000
00000100
,
00000010
00000000
00001000
00010000
00100000
00000000
00010000
00001000
,
00000010
00000000
00001000
00010000
01000000
00000000
00010000
00001000
,
00000100
00000000
00001000
00010000
00100000
10000000
01000000
00100000
,
00010000
00000000
01000000
00100000
10000000
00000000
00010000
01000000
,
00100000
00000000
00010000
00001000
00000010
00000000
00001000
00010000
,
00100000
00000000
00010000
00001000
00000100
00000000
00001000
00010000
,
01000000
20020000
00000000
00000000
,
30030000
00000000
10000000
00100000
01000000
00010000
00100000
01000000
,
00010000
00000000
00010000
00001000
00000010
00000100
00001000
00000010
,
00000001
00000000
00000001
00000010
00000100
00001000
00010000
00100000
,
01000000
00010000
10000000
00100000
00010000
00001000
00000100
00000001
,
00001001
00000000
00001000
00000100
00000010
00001000
00010000
01000000
,
10000000
00000000
10000000
00100000
00010000
00001000
00100000
01000000
,
00010000
00011000
00000010
00011000
,
01000000
00011000
00000100
00011000
,
00100000
00000000
00010000
01000000
00100000
10000000
01000000
00100000
,
00010000
00100000
00001000
00010000
00000100
00001000
00000100
00000010
,
00000001
00000100
00002000
00000000
00000000
00000000
00023000
00000000
,
00230000
20300000
32000000
03020000
,
00031000
00000000
00010000
00001000
00000100
00000010
00000100
00000000
00000100
00000000
00000001
00000000
00000010
00000000
00000000
00000000
,
00000011
00000000
00000001
00000100
00000100
00001000
00010000
00000000
,
00011000
00000000
00001000
00010000
00010000
00100000
10000000
00000000
,
22000000
33000000
00000000
01010000
00000000
00011000
00000000
00001000
,
00000020
00000000
00000000
00000130
00000000
00001100
00000000
00001000
,
00000002
00000000
00000000
00000013
00000000
00000110
00000000
00010100
,
00000000
01001000
00000000
01000000
00010000
00100000
01000000
10000000
,
00200000
00300000
00000000
01100000
00000000
01001000
00000000
00011000
,
00000000
00010100
00000000
00000100
00000010
00000000
00000100
00000000
,
00002002
00003003
00000000
00000101
00000000
00001010
00000000
00011000
,
00000000
00110000
00000000
00100000
10000000
00000000
11000000
00000000
,
00220000
00330000
00000000
01010000
00000000
00011000
00000000
00001100
,
00000000
00002002
00003003
00000000
00000101
00000000
00001010
00000000
,
00000022
00000033
00000000
00000001
00000100
00000010
00001000
00000100
,
00000010
00000001
00000000
00000001
00000100
00000000
00000100
00001000
,
00000000
00001000
00010000
00000000
00010000
01000000
10000000
00100000
,
02000000
00000000
00000000
03010000
00000000
00110000
00000000
00101000
,
00000000
00001000
00010000
00000000
00010010
00000000
00001000
00000000
,
00002200
00003300
00000000
00000011
00000000
00000001
00000100
00000000
,
00002020
00003030
00000000
00011000
00000000
00110000
00000000
00100000
,
20000000
00000000
31000000
00100000
01000000
10000000
01000000
00010000
,
00001000
00000000
00010000
00001000
00000010
00000001
00000010
00000100
,
00000010
00000000
00000001
00000000
00000000
00000100
00000000
00000000
00002000
00000000
00000000
00000000
00013000
00000000
00100000
00000000
,
01000000
00100000
00010000
00001000
00000000
00101000
00000000
00100000
,
00000000
01010000
00000000
20000000
00000000
30100000
00010000
00000000
,
00011000
00000000
00000000
00001100
00000000
00000100
00000000
00020020
,
00030030
00000000
00000000
00010000
00000000
00001000
00000000
00000100
00000000
00000010
00000000
00001000
,
00000000
00000000
00000200
00000000
00000000
00000000
00000000
00000000
00000000
00000300
00000000
00000000
00000000
00000000
00000000
00000110
00000000
00000000
00000000
00000000
00000000
00001001
00000000
00000000
,
00000000
00000001
00000100
00001000
00010000
00000000
00010000
00000100
,
00000000
00000100
00000010
00000000
00000010
00001000
00010000
01000000
,
10000000
00000000
00200000
00000000
00000000
00320000
00000000
00000000
00032000
00000000
00000000
00003200
00000000
00000000
00000301
00000000
,
00000000
00000010
00000000
00000000
00000000
00000100
00000000
00000000
00000000
00001000
00000000
00000000
00000010
00000000
00000000
00010000
00000000
00000000
00001000
00000000
00000000
00100000
00000000
00000000
,
01000000
10000000
00000000
00010000
01000000
00001000
00010000
00000100
,
00000010
00000001
00000100
00002000
00000000
00023000
00000000
00002000
,
00000000
00033000
00000000
00011000
00000000
00010000
00100000
10000000
,
01000000
00100000
01000000
00000000
01000000
00010000
00001000
00010000
,
00001000
00000100
00000000
00000100
00000001
00000010
00000100
00001000
,
00000100
00010000
00001000
00000000
00001000
01000000
00010000
00100000
,
01000000
10000000
00000000
10000000
00100000
00010000
00001000
00010000
,
00001000
00000100
00000001
00000000
00000001
00000010
00000100
00001000
,
00000100
00000010
00000000
00000010
00000001
00000010
00000001
00000100
,
00001000
00010000
00100000
10000000
01000000
00100000
00010000
00001000
,
00010000
00001000
00000200
00000000
00000000
00000310
00000001
00000100
,
00000010
00001000
00000100
00010000
00001000
00100000
00010000
01000000
,
00100000
10000000
00010000
01000000
00001000
00010000
00000010
00001000
,
00000001
00000100
00000010
00000100
00001000
00010000
00100000
01000000
,
00100000
10000000
01000000
00010000
00000000
00011000
00000000
01001000
,
00000000
00010100
00000000
00101000
00000000
00010010
00000000
00011000
,
00002000
00000000
00000000
00003100
00000001
00000010
00001000
00010000
,
01000000
10000000
00000000
10000000
00100000
01000000
00010000
00001000
,
00000010
00000100
00000001
00002002
00000000
00000000
00000000
00000000
,
00000000
00003003
00000000
00001000
00000100
00000010
00001000
00010000
,
01000000
00100000
00010000
10000000
01000000
00010000
00001000
00000010
,
00000001
00000100
00002000
00000000
00000000
00000000
00000000
00000000
,
00003000
00000000
00000000
00000000
;

//---------------dance-double - ----------------
#NOTEDATA:;
#CHARTNAME:;
#STEPSTYPE:dance-double;
#DESCRIPTION:;
#CHARTSTYLE:;
#DIFFICULTY:Easy;
#METER:11;
#RADARVALUES:0.365708,0.560412,0.151576,0.185260,0.004210,304.000000,286.000000,18.000000,22.000000,0.000000,0.000000,0.000000,0.000000,0.000000,0.365708,0.560412,0.151576,0.185260,0.004210,304.000000,286.000000,18.000000,22.000000,0.000000,0.000000,0.000000,0.000000,0.000000;
#CREDIT:MILEN;
#NOTES:
00000000
00000000
00000000
00000000
,
00000000
00000000
00000000
00000000
,
00000000
00000000
00000000
00000000
,
00000000
00000000
00000000
00000000
,
00000000
00000000
00000000
00000000
,
00000000
00001000
00001000
00002000
,
00000000
00003000
00010000
00000000
,
00001000
00000000
00000100
00000000
,
00000010
00000000
00001000
00000000
,
00000100
00000000
00000010
00000000
,
00000001
00000000
00000000
00000001
00000000
00000000
00000001
00000000
,
00000000
00001000
00000010
00010000
,
00010000
00000000
00001000
00000000
,
01000000
00000000
00010000
00000000
,
10000000
00000000
00100000
00000000
,
00010000
00000000
00001000
00000000
,
00011000
00011000
00000000
00000000
,
00000000
00000000
00000000
00000000
,
00000000
00000000
00000000
00000000
,
00000000
00010000
00000000
00010000
,
00000000
00001000
00000000
00001000
,
00000000
00000100
00000000
00000100
,
00000000
00000001
00000000
00000001
,
00000000
00000010
00000000
00001000
,
00000000
00010000
00000000
01000000
,
00000000
00000000
10000000
00000000
00000000
10000000
00000000
00000000
,
10000000
00000000
00000000
10000000
00000000
00000000
00100000
00000000
,
01000000
00200000
00000000
00300000
,
01000000
00200000
00000000
00300000
,
01000000
01000000
00000000
00001000
,
00000000
00011000
00000000
00010000
,
00000100
00010000
00000000
00001000
,
00100000
00001000
00000000
00010000
,
00001000
00010000
00000000
00010010
,
00000000
01001000
00000000
00001000
,
00010000
00002000
00000000
00003100
,
00000001
00000010
00000100
00001000
,
00000010
00000000
00010000
00000000
00000000
00001000
00001000
00000000
,
00000000
00000000
00100000
00000000
00010000
00000000
00000000
00010000
00000000
00000000
00010000
00000000
00000000
00000000
01000000
00000000
,
01000000
01100000
00000000
10000000
,
00000000
01000000
00000000
00010000
,
00000000
00001000
00000000
00000010
,
00000000
00000001
00000000
00000100
,
00000000
00000000
00000010
00000000
00000000
00000010
00000000
00000000
,
00000010
00000000
00000000
00000010
00000000
00000000
00010000
00000000
,
00001000
00020000
00000000
00000000
,
00000000
00031000
00000000
00011000
,
00011000
00010000
00000000
01000000
,
00000000
10000000
00000000
00100000
,
00000000
00010000
00000000
00001000
,
00000000
00000100
00000000
00000001
,
00000000
00000010
00000000
00001000
,
00000000
00010000
00000000
00001000
,
00000000
00010000
00000000
01000000
,
00000000
20020000
00000000
00000000
,
30030000
00010000
00000000
00100000
,
00000000
01000000
00000000
00010000
,
00000000
00001000
00000000
00000010
,
00000000
00000100
00000000
00001000
,
00000000
00000000
00000001
00000000
00000000
00000001
00000000
00000000
,
00000001
00000100
00000010
00001000
,
00000100
00010000
00001000
00100000
,
00010000
01000000
00100000
10000000
,
00010000
20020000
00000000
00000000
,
00000000
00000000
00000000
00000000
,
30030000
10010000
00000000
10000000
,
01000000
00010000
00001000
00000100
,
00000001
00000000
00000010
00000010
00000000
00000100
00000000
00000000
,
00000010
00000000
00000000
00000001
00000000
00000001
00000000
00000000
,
00000100
00000000
00000000
00001000
00000000
00001000
00000000
00000000
,
00010000
00000000
00000000
00001000
00000000
00001000
00000000
00000000
,
00010000
00000000
00000000
01000000
00000000
01000000
00000000
00000000
,
10000000
00000000
00000000
00100000
00000000
00100000
00000000
00010000
,
00000000
00001000
00000000
00000000
00010000
00000000
00000000
00001000
,
00000000
00000100
00000000
00000001
00000000
00001000
00000000
00002002
,
00000000
00003003
00000000
00000001
00000000
00000100
00000000
00000001
,
00000000
00000100
00000000
00000000
00000000
00000010
00000000
00000000
,
00000000
00001000
00000000
00000100
00000000
00001000
00000000
00000100
,
00000000
00010000
00000000
00000000
00000000
00011000
00000000
00000000
,
00000000
00001000
00000000
00000000
01000000
00000000
01000000
00000000
,
01000000
00000000
00000000
00100000
00000000
01000000
00000000
00100000
,
00000000
10000000
00000000
00000000
10000000
00000000
00000000
01000000
,
00000000
00000000
01000000
00000000
00000000
00010000
00000000
00002000
,
00000000
00003000
00000000
00011000
00000000
00010000
00000000
00001000
,
00000000
00000100
00000000
00001000
00000000
00010000
00000000
00001000
,
00000000
00000100
00000000
00000000
00000000
00000001
00000000
00000010
,
00000000
00000001
00000000
00000000
00000000
00001000
00000000
00000100
,
00000000
00001000
00000000
00000000
00000000
00010000
00000000
01000000
,
00000000
00010000
00000000
00000000
00000000
10000000
00000000
00100000
,
00000000
20000000
00000000
00000000
00000000
30000000
00000000
00010000
,
00000000
00010000
00000000
00100000
00000000
00001000
00000000
00011000
,
00000000
00000000
00000000
00010000
00000000
00001000
00000000
00000100
,
00000000
00000010
00000000
00000000
00000000
00000100
00000000
00000100
,
00000000
00002002
00000000
00000000
,
00000000
00003003
00000000
00000000
00000000
00000001
00000000
00000001
,
00000000
00000001
00000000
00000000
00000001
00000000
00000000
00000100
,
00000000
00000000
00000100
00000000
00000000
00001000
00000000
00010000
,
00000000
00002000
00000000
00000000
00000000
00000000
00000000
00023000
,
00000000
00000000
00000000
00030010
00000000
00000000
00000000
00000000
,
00000000
00000000
00000000
00100000
00000000
00000000
00000000
00000000
,
00000000
00000000
00000000
00002000
00000000
00000000
00000000
00020000
,
00000000
00033000
00000000
00010000
00000000
00000000
00000000
01000000
,
00000000
00000000
00000000
10000000
00000000
00000000
00000000
00100000
,
00000000
00000000
00000000
00010000
00000000
00000000
00000000
00001000
,
00000000
00000000
00000000
00000100
00000000
00000000
00000000
00000001
,
00000000
00000000
00000000
00000010
00000000
00000000
00000000
00000100
,
00000000
00000000
00000000
00010000
00000000
00000000
00000000
00001000
,
00000000
00000000
00000000
00100000
00000000
00000000
00000000
01000000
,
00000000
00000000
00000000
10000000
00000000
00000000
00000000
00100000
,
00000000
00100000
00000000
00200000
00000000
01300000
00000000
00010000
,
00000000
00100000
00000000
00000000
00000000
00100000
00000000
01000000
,
00000000
00010000
00000000
00000000
00000000
00010000
00000000
00001000
,
00000000
00000010
00000000
00000000
00000000
00000010
00000000
00000001
,
00000000
00000100
00000000
00001000
00000000
00000000
00000000
00010000
,
00000000
00000000
00000000
00100000
00000000
00000000
00000000
10000000
,
00000000
00000000
00000000
01000000
00000000
00010000
00000000
00001000
,
00000000
00000000
00000000
00010000
00000000
00001000
00000000
00000100
,
00000000
00000000
00000000
00000110
00000000
00000000
00000000
00000000
,
00000000
00000000
00000000
00000001
00000000
00000000
00000000
00000100
,
00000000
00000000
00000000
00001000
00000000
00000000
00000000
00010000
,
00000000
00022000
00000000
00000000
,
00033000
00000000
00000000
00000000
;

//---------------dance-double - ----------------
#NOTEDATA:;
#CHARTNAME:;
#STEPSTYPE:dance-double;
#DESCRIPTION:;
#CHARTSTYLE:;
#DIFFICULTY:Medium;
#METER:15;
#RADARVALUES:0.730213,0.967984,0.463150,0.446308,0.105261,607.000000,552.000000,55.000000,53.000000,0.000000,0.000000,0.000000,0.000000,0.000000,0.730213,0.967984,0.463150,0.446308,0.105261,607.000000,552.000000,55.000000,53.000000,0.000000,0.000000,0.000000,0.000000,0.000000;
#CREDIT:MILEN;
#NOTES:
00000000
00000000
00000000
00000000
,
00000000
00000000
00000000
00000000
,
00000000
00000000
00000000
00000000
,
00000000
00000000
00000000
00000000
,
00000000
00000000
00000000
00000000
,
00000000
00001000
00010000
00022000
,
00033000
00000000
00001000
00000000
00010000
00000100
00000000
00002000
,
00000000
00000000
00003010
00000100
00000010
00000000
00001000
00000000
,
00000002
00000000
00000103
00000010
00000000
00001000
00000000
00000200
,
00000000
00010300
00011000
00001000
,
00100000
00000000
00000000
01100000
00000000
01000000
00000000
10010000
,
00000000
00000000
20000000
00000000
30100000
01000000
00000000
00010000
,
00000000
00000000
01010000
00000000
01000000
00001000
00000000
00020000
,
00000000
00000000
00030100
00001000
00000100
00000000
00000010
00000001
,
00000010
00000000
00000001
00000000
00001000
00000000
00000100
00000000
00010000
00000000
00001000
00000000
,
00100000
00000000
00010000
00000000
10000000
00000000
01000000
00000000
00100000
00000000
00001000
00000000
,
00010000
00022000
00000000
00000000
,
00000000
00000000
00000000
00000000
,
00000000
00000000
00000000
00000000
,
00033000
00000000
00011000
00000000
00001000
00100000
00000000
00010000
,
01000000
00001000
00020000
00000000
00030100
00000000
00000100
00000000
,
00001000
00000000
00000010
00000000
00000100
00000001
00000000
00000010
,
00000100
00000010
00000000
00000000
00000011
00000000
00000001
00000000
,
00000100
00000000
00001000
00000000
00010000
00001000
00000000
00010000
,
00100000
00000000
00010000
00001000
00010000
00000000
01000000
00000000
,
10000000
00000000
00100000
00000000
01000000
00100000
00000000
00010000
,
00100000
00000000
10000000
01000000
10000000
01000000
00010000
00000000
,
00001000
00000010
00000002
00000000
00000000
00000003
00000000
00000001
,
00000100
00001000
00020000
00000000
00000000
00030000
00000000
00010000
,
00100000
00000000
00000000
01000000
00000000
00000000
00100000
00000000
00000000
10000000
00000000
00000000
01000000
00000000
00000000
00000000
00000000
00000000
00100000
00000000
00000000
00000000
01000000
00000000
,
00000000
00000000
00100000
00000000
00000000
00000000
00010000
00000000
00000000
00000000
00000000
00000000
00100000
00000000
00000000
00010000
00000000
00000000
00100000
00000000
00000000
00000000
00001000
00000000
,
00000000
00000000
00010000
00000000
00000000
00000000
00001000
00000000
00000000
00000000
00000000
00000000
00000100
00000000
00000000
00000001
00000000
00000000
00000100
00000000
00000000
00000000
00000001
00000000
,
00000000
00000000
00000010
00000000
00000000
00000000
00000100
00000000
00000000
00000000
00000000
00000000
00000010
00000000
00000000
00001000
00000000
00000000
00010000
00000000
00000000
00001000
00000000
00000000
,
00000010
00001000
00020000
00000000
00000000
00030100
00000000
00000000
,
00002000
00000000
00103000
00001000
,
00010000
00020020
00000030
00000010
,
00001000
01000000
00100000
00001000
,
00000010
00000000
00000000
00000000
00030100
00000000
00000100
00000010
00000001
00000000
00000100
00001000
00020000
00000000
00000000
00000000
,
00000000
00000000
00130000
00000000
10100000
00000000
00000000
11000000
00000000
00000000
01010000
00000000
00000000
00000000
00011000
00000000
,
00001000
00010000
00000100
00000000
00000010
00000000
00000001
00000100
,
00000000
00001010
00000000
00000000
00001000
00000000
00000100
00010000
,
00000000
00011000
00000000
00000000
00101000
00000000
01000000
00000000
,
01100000
10000000
10010000
00100000
,
01100000
00000000
11000000
00000000
00000000
10100000
00000000
00000000
,
00110000
00000000
00000000
00011000
00000000
00000000
00001100
00000000
,
00000101
00000000
00000001
00000010
00000000
00000001
00000100
00000000
,
00000001
00001000
00000000
00001010
00000000
00000000
00011000
00000000
,
00100000
00000000
00010000
00100000
01000000
00000000
10000000
01000000
,
00100000
00000000
01000000
00100000
00010000
00000000
00100000
00001000
,
00010000
00000000
00001000
00010000
00000100
00000000
00001000
00000100
,
00000010
00000000
00000100
00000010
00000001
00000000
00000001
00000100
,
00001000
00000000
00010000
01000000
10000000
00000000
10000000
00100000
,
00010000
00000000
00001000
00000010
00000001
00000000
00000001
00000010
,
00000100
00000000
00000100
00000010
00001000
00000000
00001000
00010000
,
01000000
20000000
30200000
02300000
,
03020000
00000000
00130000
00000000
00100000
01000000
00100000
01000000
,
10000000
00000000
00100000
00000000
00010000
00001000
00010000
00001000
,
00000100
00000000
00000001
00000000
00000010
00000100
00000010
00000100
,
00001000
00000000
00000010
00000000
00010000
00001000
00010000
00001000
,
00100000
00000000
00010000
01000000
00010000
01000000
00100000
10000000
,
00100000
00000000
10000000
01000000
10000000
01000000
00100000
00010000
,
00100000
00101000
00001000
00011000
,
00010000
00010010
00000010
00001010
,
00001000
00000000
00000001
00000010
00000001
00000010
00000100
00001000
,
00000100
00010000
00001000
00100000
00010000
00100000
01000000
10000000
,
01000000
10000000
20020000
00000000
00000000
00000000
00000000
00000000
,
00000000
00000000
00000000
30030000
,
10010000
00000000
00010000
01000000
00001000
00010000
00000100
00000000
00000000
00000000
00000010
00000000
00000000
00000000
00000001
00000000
,
00000000
00000100
00000000
00001000
00000000
00010000
00000000
00100000
,
00000000
10000000
00000000
01000000
00000000
00100000
00000000
00010000
,
00000000
01000000
00000000
01001000
00000000
00010010
00000000
00000010
,
00002000
00000000
00000000
00003100
00000000
00010000
00000000
00001000
,
00200000
00000000
00000000
00310000
00000000
01000000
00000000
00100000
,
00000000
20200000
30300000
00000000
02020000
03030000
00000000
00110000
,
00000000
00100000
00000000
01000000
00000000
00010000
00000000
00001000
,
00000000
00000010
00000000
00000100
00000010
00000000
00000100
00000000
,
00002000
00000000
00000000
00003001
00000000
00000100
00000000
00001000
,
00000000
00010000
00000000
01000000
00100000
00000000
01000000
00000000
,
20000000
00000000
00000000
30010000
00000000
00100000
00000000
00001000
,
00000000
00011000
00000000
00010000
00000100
00000000
00001000
00000000
,
00002002
00003003
00000000
00000001
00000000
00000100
00000000
00000010
,
00000000
00001000
00000000
00000100
00010000
00000000
00001000
00010000
,
00000000
01000000
00010000
00000000
00001000
00010000
00001000
00020000
,
00000000
00030000
00000000
00011000
00000000
00100000
00000000
01100000
,
00000000
10000000
01000000
00000000
00100000
00000000
00010000
00000000
,
02020000
03030000
00000000
01000000
00000000
00001000
00010000
00000000
,
00020200
00030300
00000000
00000100
00000000
00000010
00000000
00000001
,
00000200
00000000
00000000
00001300
00000000
00010000
00000000
00100000
,
20000000
00000000
00000000
31000000
00000000
00100000
00000000
00010000
,
00000000
02000000
00000000
00000000
00000000
03000000
00000000
00010000
,
00000000
00100000
00000000
01000000
00000000
00010000
00000000
00002000
,
00000000
00000000
00000000
00003010
00000000
00000001
00000010
00000000
,
00000210
00000000
00000000
00001300
00000000
00000010
00000000
00020000
,
00000000
00000000
00000000
00031000
00000000
00010000
00000000
00100000
00000000
01000000
00000000
00100000
,
00000000
00000000
20000000
00000000
00000000
00000000
00000000
00000000
00000000
30000000
00000000
00000000
00000000
00000000
00000000
11000000
00000000
00000000
00000000
00000000
00000000
00110000
00000000
00000000
,
00000000
01001000
00000000
00001000
00010000
00000000
00010000
00000100
,
00000000
00000100
00000010
00000000
00000010
00000001
00000000
00000001
,
00000100
00000000
00001000
00000000
00000000
00010000
00000000
00000000
00001000
00000000
00000000
00010000
00000000
00000000
00002000
00000000
,
00000000
00000000
00000000
00103000
00010000
01000000
00001000
00010000
,
00000100
00001000
00000000
00000100
00001000
00000010
00010000
00001000
,
00100000
00010000
00000000
02010000
00000000
03002000
00000000
00023000
,
00000000
00030200
00000000
00000310
00000001
00000010
00000000
00000100
,
00001000
00000100
00000000
00010000
00001000
00010000
00000000
00001000
,
00010000
00001000
00000000
01000000
00010000
01000000
00000000
00100000
,
10000000
00100000
00000000
10000000
01000000
00100000
00000000
01000000
,
00100000
00010000
00000000
00100000
00010000
00001000
00000000
00010000
,
00001000
00000100
00000000
00001000
00000100
00000010
00000000
00000100
,
00000010
00000001
00000000
00000100
00000010
00001000
00000100
00010000
,
00001000
01000000
00000000
00100000
01000000
00010000
00100000
00001000
,
00010000
00000010
00000000
00000110
00000000
00000100
00000001
00000010
,
00000000
00000010
00001000
00010000
00000000
00010000
01000000
10000000
,
00000000
10000000
00100000
00010000
00000000
00010000
00001000
00100000
,
00000000
00100000
01000000
00010000
00000000
00010000
00001000
00000010
,
00000001
00001000
00000000
00001100
00000000
00000010
00000000
00011000
,
00000000
00100000
00000000
01010000
00000000
00001000
00000000
00010100
,
00000000
00000010
00000000
00001000
00000100
00000010
00000001
00000100
,
00001000
00010000
00000000
00001000
00010000
00100000
10000000
01000000
,
00100000
00010000
00000000
00022000
00000000
00000000
00000000
00000000
,
00000000
00033000
00000000
00001000
00010000
00100000
10000000
01000000
,
00010000
00001000
00010000
00001000
00000010
00000001
00000100
00001000
,
00010000
00001000
00020000
00000000
00000000
00000000
00000000
00000000
,
00030000
00000000
00000000
00000000
;
