#TITLE:Miss'S Story;
#SUBTITLE:;
#ARTIST:BanYa;
#TITLETRANSLIT:;
#SUBTITLETRANSLIT:;
#ARTISTTRANSLIT:;
#GENRE:VARIETY;
#CREDIT:MUINELIM;
#BANNER:Miss's Story.png;
#BACKGROUND:Miss's Story-bg.png;
#LYRICSPATH:;
#CDTITLE:;
#MUSIC:Miss's Story.mp3;
#OFFSET:-1.086000;
#SAMPLESTART:28.729092;
#SAMPLELENGTH:11.980000;
#SELECTABLE:YES;
#BPMS:0.000000=111.000000
;
#STOPS:
;
#BGCHANGES:;
#KEYSOUNDS:;
#ATTACKS:;

//---------------dance-single - ----------------
#NOTES:
     dance-single:
     :
     Hard:
     12:
     0.469645,0.510443,0.351189,0.000000,0.390210,337.000000,301.000000,36.000000,0.000000,0.000000,0.000000,0.469645,0.510443,0.351189,0.000000,0.390210,337.000000,301.000000,36.000000,0.000000,0.000000,0.000000:
0000
0000
0000
0000
,
0000
0000
0000
0000
,
0000
0000
0000
0000
,
0000
0000
0000
0000
,
0000
0000
0000
0000
0000
0000
0000
0000
0000
0000
0000
0000
0000
1000
0100
1000
,
0100
0000
1000
0000
0010
0000
0000
0000
0100
0000
0001
0000
0000
0010
0000
0100
,
0010
0000
0100
0000
0010
0000
0001
0100
0001
0000
1000
0000
0000
0010
0000
0000
,
0100
0000
0001
0000
1000
0000
0100
0000
0010
0001
0010
0001
0010
0000
0000
0000
,
0000
0100
1000
0100
1000
0000
0000
0000
0010
0000
0010
0000
0100
0001
0010
0001
,
0010
0000
0100
0000
1000
0000
0000
0000
0010
0000
0100
0000
0001
1000
0000
0100
,
0010
0000
0001
0000
0100
0000
0000
0000
0110
0000
0000
0000
0010
1000
0000
0100
,
1000
0000
0100
0000
0010
0000
1000
0000
0010
0000
0001
0000
0010
0100
0000
0000
,
0000
0000
1000
0010
1000
0000
0001
0000
0101
0000
0000
0000
0000
0100
0010
0100
,
0010
0000
0000
1000
0000
0000
0001
0000
0000
0000
0000
0000
0000
0010
0100
0010
,
0100
0000
0000
1000
0000
0000
0001
0000
0000
0000
0000
0000
0000
0100
0001
0100
,
0001
0000
0000
0010
0000
0000
0100
0000
0000
0000
0000
0000
0000
1000
0010
1000
,
0010
0000
0000
0110
0000
0000
0101
0000
0000
0000
0000
0000
0000
0001
0010
0100
,
0010
0000
0000
0001
0000
0000
0100
0000
0010
0000
1000
0000
0001
0010
0001
0010
,
0100
0000
0000
1000
0000
0000
0010
0000
0100
0000
0001
0000
1000
0100
1000
0100
,
0010
0000
0000
0001
0000
0000
0100
0000
0010
0000
1000
0000
0001
0010
0100
0010
,
0100
0000
0000
1100
0000
0000
1001
0000
0000
0000
0000
0000
0000
0001
0100
0010
,
1000
0100
0010
0001
0100
1000
0000
0001
,
0010
0000
0100
0010
0000
1000
0010
0000
1010
0000
0000
0000
0000
1000
0100
0000
,
0001
0000
0000
0000
0100
0000
0010
0000
0001
0000
0100
0000
0010
0100
0000
0000
,
0000
0000
0010
0000
1000
0000
0001
0000
0010
0000
0100
0000
0000
1000
0010
0100
,
0001
1000
0100
0001
0100
0010
0001
0100
,
1000
0100
0000
0000
0010
0000
1000
0010
0000
0100
0010
0000
0001
0000
0010
0100
,
0010
0000
0000
0000
0000
0000
1000
0100
0010
0000
0001
0000
0011
0000
0000
0000
,
0000
0001
0000
0100
0010
0000
1000
0010
0100
0000
0010
0000
0110
0000
0000
0000
,
1010
0000
0101
0000
0000
0011
0011
0000
,
0010
0000
0100
0000
1000
0010
0000
0000
0000
0000
0000
0000
0100
0001
0000
0001
,
0100
0000
0000
0000
0010
1000
0000
0000
1100
0000
0000
0000
0010
0000
0100
0010
,
0100
0000
0000
0000
0011
0000
0000
0000
1100
0000
0000
0000
0000
1010
0000
0101
,
0000
0000
0000
0000
1001
0000
0000
0000
0000
0000
0110
0000
0110
0000
0000
0010
,
0000
0000
1000
0000
0001
0100
0000
0000
0000
0000
0000
0000
1000
0100
0000
0010
,
0100
0000
0101
0000
0000
0011
0000
0000
1100
0000
0000
0000
1000
0010
0000
0001
,
0010
0000
0000
0000
0110
0000
0000
0000
1001
0000
0000
0000
0000
0001
0010
0100
,
1000
0010
0001
0010
1000
0100
0010
0001
,
0001
0100
1000
0100
0001
0010
0100
1000
,
1000
0010
0001
1000
0100
0001
0010
0100
,
1100
0000
0000
1010
0000
0000
0011
0000
0000
0000
0000
0000
0000
0001
0100
0010
,
1000
0000
0001
0000
0010
0000
0100
0000
0001
0000
0100
0000
1000
0000
0100
0010
,
0100
0000
0010
0000
1000
0000
0010
0000
0001
0000
0010
0000
0100
0000
1000
0010
,
1000
0000
0010
0000
0100
0000
0001
0010
0001
0000
0010
0000
0100
0000
1000
0000
,
1010
0010
0110
0100
0101
0001
0011
0010
,
1010
1100
1001
0000
;

//---------------dance-double - ----------------
#NOTES:
     dance-double:
     :
     Hard:
     13:
     0.457103,0.510443,0.370699,0.000000,0.195105,328.000000,290.000000,38.000000,0.000000,0.000000,0.000000,0.457103,0.510443,0.370699,0.000000,0.195105,328.000000,290.000000,38.000000,0.000000,0.000000,0.000000:
00000000
00000000
00000000
00000000
,
00000000
00000000
00000000
00000000
,
00000000
00000000
00000000
00000000
,
00000000
00000000
00000000
00000000
,
00000000
00000000
00000000
00000000
00000000
00000000
00000000
00000000
00000000
00000000
00000000
00000000
00000000
00001000
00010000
00001000
,
00010000
00000100
00001000
00000010
00001000
00000001
00000000
00000100
,
00001000
00010000
01000000
00010000
00001000
00010000
00100000
01000000
,
01100000
00000000
00000000
10000000
01000000
00010000
00011000
00000000
,
00000000
00000000
00000010
00000000
00000010
00000000
00000000
00000000
00000001
00000000
00000100
00000000
00001000
00010000
00001000
00010000
,
00001000
00100000
01100000
00000000
10000000
00100000
00010000
00100000
,
01000000
01000000
00000000
10000000
01000000
00100000
00010000
00000000
,
00001000
00000010
00000100
00000010
00000001
00000100
00001100
00000000
,
00000000
00000000
00001000
00000000
00010000
00000000
00001000
00000000
01001000
00000000
00000000
00000000
00000000
01000000
00010000
01000000
,
00100000
10000000
01000000
00100000
00010000
01000000
00001000
00000000
,
00010000
00100000
10000000
01000000
00100000
01000000
00010000
00000000
,
00001000
00100000
01000000
00010000
00001000
00000010
00000100
00000000
,
00000001
00001000
00000010
00000001
00000100
00000100
00001000
00001000
,
00011000
00010000
00000100
00000001
00000100
00000010
00000001
00000000
,
00000101
00000100
00001000
00010000
00001000
00100000
01000000
00000000
,
11000000
10000000
00100000
00001000
00100000
01000000
00010000
00000000
,
00110000
00000000
00100000
00000000
01000000
00000000
00010000
00000000
00001000
00000000
00000010
00000000
00000001
00000100
00000001
00000010
,
00000001
00001000
00000100
00000001
00000010
00000010
00000000
00000110
,
00001000
00000000
00010000
00100000
10000000
00000000
00000000
01000000
,
01100000
00000000
00010000
00100000
01000000
10000000
00100000
00000000
,
00000000
00000000
00010000
00000000
00100000
00000000
00001000
00000000
00000010
00000000
00000001
00000000
00000000
00000010
00000100
00000010
,
00001000
00010000
01000000
00010000
00100000
01000000
10000000
10000000
,
10000000
00000000
00100000
00010000
00001000
00000000
00000000
00010000
,
00000010
00000000
00000000
00001000
00000100
00000001
00000011
00000000
,
00000000
00001000
00000100
00000010
00001000
00010000
00010100
00000000
,
01001000
00000000
00110000
00000000
00000000
10000000
01000000
00000000
,
00100000
00000000
00010000
00000000
00001000
00000010
00000000
00000000
00000000
00000000
00000000
00000000
00000100
00000010
00000000
00000010
,
00001000
00000000
00000000
00000000
00000001
00000010
00000000
00000000
00001100
00000000
00000000
00000000
00010100
00000000
00010000
00001000
,
00100000
00000000
00000000
00000000
01100000
00000000
00000000
00000000
11000000
00000000
00000000
00000000
00000000
10100000
00000000
00110000
,
00000000
00000000
00000000
00000000
00011000
00000000
00000000
00000000
00000000
00000000
00010100
00000000
00001100
00000000
00000000
00001001
,
00000000
00000000
00000110
00000000
00000010
00010000
00000000
00000000
00000000
00000000
00000000
00000000
00001000
00010000
00000000
00100000
,
00010000
00000000
00001000
00000000
00000000
00100000
00000000
00000000
01000000
00000000
00000000
00000000
10000000
00100000
00000000
00010000
,
00100000
00000000
00000000
00000000
01100000
00000000
00000000
00000000
10010000
00000000
00000000
00000000
00000000
10000000
00100000
01000000
,
00010000
00000000
00100000
00000000
01000000
00010000
01000000
00000000
00010000
00000000
00001000
00000000
00000010
00001000
00000010
00000000
,
00000001
00000000
00000100
00000000
00001000
00010000
00001000
00000000
00010000
00000000
01000000
00000000
10000000
00100000
10000000
00000000
,
00100000
00000000
00010000
00000000
00001000
00010000
00001000
00000000
00000100
00000000
00000001
00000000
00000010
00000100
00000010
00000000
,
00001010
00000000
00000000
00011000
00000000
00000000
00110000
00000000
00000000
00000000
00000000
00000000
00000000
00010000
00001000
00000100
,
00000010
00000000
00000100
00000000
00000001
00000000
00000010
00000100
00001000
00000000
00000100
00000000
00010000
00000000
00001000
01000000
,
00010000
00000000
00100000
00000000
01000000
00000000
10000000
00100000
01000000
00000000
00010000
00000000
00100000
00000000
01000000
00100000
,
00010000
00000000
00001000
00000000
00010000
00000000
00001000
00000100
00000010
00000000
00000001
00000000
00000100
00000000
00001000
00000000
,
00011000
00010000
01010000
00010000
00011000
00001000
00001100
00001000
,
00011000
01100000
10010000
00000000
;

//---------------dance-single - ----------------
#NOTES:
     dance-single:
     :
     Beginner:
     3:
     0.117063,0.177545,0.009755,0.000000,0.000000,84.000000,83.000000,1.000000,0.000000,0.000000,0.000000,0.117063,0.177545,0.009755,0.000000,0.000000,84.000000,83.000000,1.000000,0.000000,0.000000,0.000000:
0000
0000
0000
0000
,
0000
0000
0000
0000
,
0000
0000
0000
0000
,
0000
0000
0000
0000
,
0000
0000
0000
0000
,
1000
1000
1000
0000
,
0001
0000
1000
0000
,
0010
0000
0001
0001
,
0000
0000
0100
0100
,
0100
0000
1000
0000
,
0001
0000
1000
0000
,
0001
0000
0010
0010
,
0000
0100
0100
0000
,
0010
0000
0000
0000
,
1000
0000
0000
0000
,
0100
0000
0000
0000
,
0001
0001
0001
0000
,
0010
0000
0000
0000
,
1000
0000
0000
0000
,
0100
0000
0000
0000
,
0001
0001
0001
0000
,
0010
0000
0100
0000
,
0010
0010
0010
0000
,
1000
0000
0001
0000
,
0000
0100
0100
0000
,
1000
0000
0010
0000
,
0001
0000
1000
0000
,
0001
0000
1000
1000
,
0000
0001
0001
0001
,
0000
0000
0000
0000
,
0100
0100
0000
0000
,
0000
0000
0000
0000
,
0010
0010
0010
0000
,
0000
1000
0000
0000
,
0000
0001
0000
0000
,
1000
1000
1000
0000
,
0000
0000
1001
0000
,
0001
0000
0010
0000
,
0100
0000
1000
0000
,
0001
0000
0010
0000
,
0100
0100
0100
0000
,
1000
0000
0010
0000
,
0001
0000
0100
0000
,
1000
0000
0010
0000
,
0001
0001
0001
0001
,
0001
0001
0001
0000
;

//---------------dance-single - ----------------
#NOTES:
     dance-single:
     :
     Easy:
     7:
     0.257817,0.288511,0.224371,0.000000,0.000000,185.000000,162.000000,23.000000,0.000000,0.000000,0.000000,0.257817,0.288511,0.224371,0.000000,0.000000,185.000000,162.000000,23.000000,0.000000,0.000000,0.000000:
0000
0000
0000
0000
,
0000
0000
0000
0000
,
0000
0000
0000
0000
,
0000
0000
0000
0000
,
0000
0000
0000
0000
,
1000
0001
1000
0100
,
1000
0001
1000
0100
,
1100
0000
0000
1000
1000
0000
0001
0000
,
0000
0010
0010
0000
0001
0000
0001
0000
,
0101
1000
0100
0010
,
0001
0000
0010
0100
,
0010
0001
0010
0100
,
1000
0000
0001
0000
1001
0000
0000
0010
,
0010
0000
0001
0000
0100
0000
0000
0100
,
0100
0000
1000
0000
0010
0000
0000
0010
,
0010
0000
0001
0000
0100
0000
0000
0100
,
0100
1000
0001
1001
,
0110
0000
1000
0100
,
0110
0000
0001
0010
,
0110
0000
1000
0100
,
0110
0000
1001
0000
0110
0000
0000
0001
,
0001
0010
0001
0100
,
1000
0000
0010
0010
0010
0000
0000
0000
,
0001
1000
0001
0100
,
1000
0000
0001
0000
1001
0000
0000
0010
,
0010
1000
0100
1000
,
1010
0010
0011
0000
,
0001
0101
0100
1100
,
0000
0000
1000
0000
0001
1000
0001
0000
,
1000
0100
0010
0001
,
0010
0100
0000
0010
,
0010
0001
0100
0100
,
1000
0010
0110
0000
,
1000
0000
0001
0000
1000
1000
1000
0000
,
0001
0000
1000
0000
0000
0000
0001
0001
,
0001
0000
0100
0000
1000
0000
0000
0010
,
0010
0100
0110
0000
,
1000
0000
0100
0000
0010
0000
0001
0010
,
0001
0000
0010
0000
0100
0000
1000
0100
,
1000
0100
0010
0001
,
0101
0000
1010
0000
1001
0000
0000
0010
,
0010
0000
1000
0000
0100
0000
0010
0010
,
0010
0000
0001
0000
1000
0000
0100
0100
,
0100
0000
1000
1000
1000
0000
0001
0001
,
0001
0010
1000
0100
,
0101
0011
1001
0000
;

//---------------dance-double - ----------------
#NOTES:
     dance-double:
     :
     Easy:
     7:
     0.239700,0.288511,0.243881,0.000000,0.000000,172.000000,147.000000,25.000000,0.000000,0.000000,0.000000,0.239700,0.288511,0.243881,0.000000,0.000000,172.000000,147.000000,25.000000,0.000000,0.000000,0.000000:
00000000
00000000
00000000
00000000
,
00000000
00000000
00000000
00000000
,
00000000
00000000
00000000
00000000
,
00000000
00000000
00000000
00000000
,
00000000
00000000
00000000
00000000
,
00001000
00010000
00000010
00010000
,
00001000
00010000
00000010
00010000
,
00011000
00000000
00001000
00010000
,
00100000
10000000
01000000
01000000
,
01100000
00010000
10000000
00100000
,
00010000
00000000
00100000
00010000
,
00001000
00010000
00100000
00010000
,
00001000
00000100
00000101
00000000
,
00000011
00000010
00001000
00000000
,
00011000
00001000
00000010
00000000
,
00000101
00000100
00001000
00000000
,
00011000
00001000
00000100
00000001
,
00000110
00000000
00001000
00010000
,
01010000
00000000
00010000
00001000
,
00001100
00000000
00001000
00010000
,
00110000
00000000
10000000
00000000
11000000
00000000
00000000
00100000
,
00100000
00010000
01000000
00001000
,
00000100
00000001
00000010
00000000
,
00001000
00010000
01000000
10000000
,
00100000
01000000
01100000
00000000
,
00010000
00100000
00001000
00000010
,
00000011
00000001
00000101
00000000
,
00001000
00011000
00010000
01010000
,
00000000
10000000
00100000
01100000
,
00010000
00100000
01000000
00010000
,
00001000
00000010
00000000
00001000
,
00000010
00000100
00010000
00001000
,
00000010
00000100
00001001
00000000
,
00000001
00000100
00010000
01000000
,
00100000
10000000
00000000
10000000
,
01000000
00001000
00000100
00000010
,
00000001
00000000
00001001
00000000
,
00001000
00000010
00010000
00100000
,
00001000
00000100
00010000
01000000
,
10000000
00010000
00001000
00000010
,
00000110
00000000
00001001
00000000
00000110
00000000
00000000
00000001
,
00000001
00000000
00000100
00000000
00001000
00000000
00100000
01000000
,
00100000
00010000
10000000
00100000
,
00010000
00000000
00001000
00000010
00001000
00000000
00010000
00000000
,
00000100
00000001
00000010
00001000
,
00010000
01100000
10010000
00000000
;

//---------------dance-single - ----------------
#NOTES:
     dance-single:
     :
     Medium:
     9:
     0.365125,0.399477,0.282902,0.000000,0.087797,262.000000,233.000000,29.000000,0.000000,0.000000,0.000000,0.365125,0.399477,0.282902,0.000000,0.087797,262.000000,233.000000,29.000000,0.000000,0.000000,0.000000:
0000
0000
0000
0000
,
0000
0000
0000
0000
,
0000
0000
0000
0000
,
0000
0000
0000
0000
,
0000
0000
0000
0000
,
1000
0100
1000
0001
0010
0001
0000
0100
,
0100
0000
0110
0000
0001
0010
1000
0000
,
0100
0000
0000
0010
0000
0000
0100
0000
0001
0000
0001
0000
0001
0000
0000
0000
,
0000
0010
1000
0000
0100
0010
0100
0110
,
0000
0001
0001
0000
0010
1000
0100
0000
,
0101
0000
0000
1000
1000
0000
0010
0001
,
0000
0100
0100
0010
1000
0001
0100
0010
,
0000
1000
0001
1000
1001
0000
0000
0001
,
0001
0000
0000
0010
0000
0000
0100
0000
0000
0000
0000
0000
1000
0000
1000
0000
,
1000
0000
0000
0010
0000
0000
0100
0000
0000
0000
0000
0000
0001
0000
0001
0000
,
0001
0000
0000
0100
0000
0000
0010
0000
0000
0000
0000
0000
1000
0000
1000
0000
,
1000
0000
0000
0100
0000
0000
0010
0000
0000
0000
0000
0000
0001
0000
0001
0000
,
0001
0000
0000
0100
0000
0000
0010
0000
1000
0000
0010
0000
1000
0000
0001
0000
,
0001
0000
0000
0010
0000
0000
0100
0000
1000
0000
0100
0000
1000
0000
0010
0000
,
0010
0000
0000
0100
0000
0000
0001
0000
1000
0000
0001
0000
1000
0000
0100
0000
,
0100
0000
0000
0010
0000
0000
0100
0000
0010
0000
0001
0000
0010
0000
0001
0000
,
0000
1000
1000
0000
0110
0000
0001
0100
,
1000
0010
0100
0001
1000
0000
0000
0100
,
0110
0000
0001
1000
0010
0100
0001
1000
,
0000
0100
0100
0010
0010
0010
0000
0001
,
0101
0000
1000
0000
0010
0001
0010
0100
,
0010
0000
1000
0000
1100
0000
0000
0001
,
0001
0000
0000
0010
0100
1000
1001
0000
,
0000
0011
0000
0000
0110
0000
0000
0000
1000
0000
0010
0000
0101
0000
0000
0000
,
0011
0000
1100
0000
0000
1000
0010
0000
,
0001
0000
0010
0000
0100
0000
0000
0000
0000
0000
0000
0000
0001
0000
0000
0001
,
0010
0000
0000
0000
1000
0100
0000
0000
0110
0000
0000
0000
0001
0000
0100
0000
,
1000
0000
0000
0000
1010
0000
0000
0000
0101
0000
0000
0000
0000
0110
0000
0110
,
0000
0000
1001
0000
0000
0001
0001
0000
,
0100
0000
1000
0000
0010
0000
0000
0000
0000
0000
0000
0000
0100
0010
0000
0000
,
0101
0000
0001
0000
0000
1000
0000
0000
0010
0000
0000
0000
0001
0100
0000
0000
,
1100
0000
0001
0000
0110
0000
0000
0010
,
0010
1000
0100
0000
1000
0010
0100
0000
,
0001
0100
0010
0000
0100
0001
0010
0000
,
0100
1000
0001
0000
0010
0001
1000
0000
,
1100
0000
0000
0110
0000
0000
1001
0000
0000
0000
0000
0000
0000
0000
0001
0000
,
0100
0100
1000
0010
0100
0001
0100
0010
,
1000
0010
0100
0001
0010
0001
1000
0100
,
1000
0010
0010
0001
0100
0010
1000
0001
,
0100
0100
0100
0100
0010
0010
0010
0010
,
1010
0011
0101
0000
;

//---------------dance-double - ----------------
#NOTES:
     dance-double:
     :
     Medium:
     11:
     0.362338,0.399477,0.380454,0.000000,0.082920,260.000000,221.000000,39.000000,0.000000,0.000000,0.000000,0.362338,0.399477,0.380454,0.000000,0.082920,260.000000,221.000000,39.000000,0.000000,0.000000,0.000000:
// measure 0
00000000
00000000
00000000
00000000
,  // measure 1
00000000
00000000
00000000
00000000
,  // measure 2
00000000
00000000
00000000
00000000
,  // measure 3
00000000
00000000
00000000
00000000
,  // measure 4
00000000
00000000
00000000
00000000
,  // measure 5
01000000
00010000
00001000
00010000
00001000
00000100
00000000
00000001
,  // measure 6
00000001
00000000
00000110
00000000
00001000
00010000
01000000
00000000
,  // measure 7
10000000
00000000
00000000
00100000
00000000
00000000
01000000
00000000
00100000
00000000
00100000
00000000
00100000
00000000
00000000
00000000
,  // measure 8
00000000
00010000
00001000
00000000
00010000
00000100
00001000
00001010
,  // measure 9
00000000
00000001
00000001
00000000
00000100
00001000
00010000
00000000
,  // measure 10
00110000
00000000
00000000
01000000
01000000
00000000
00100000
10000000
,  // measure 11
00000000
01000000
01000000
00010000
00001000
00010000
01000000
00010000
,  // measure 12
00000000
00001000
00010000
00001000
00001010
00000000
00000000
00000100
,  // measure 13
00000100
00000000
00000000
00000010
00000000
00000000
00000011
00000000
00000000
00000000
00000000
00000000
00000001
00000000
00000001
00000000
,  // measure 14
00000100
00000000
00000000
00001000
00000000
00000000
00011000
00000000
00000000
00000000
00000000
00000000
00100000
00000000
00100000
00000000
,  // measure 15
10000000
00000000
00000000
01000000
00000000
00000000
11000000
00000000
00000000
00000000
00000000
00000000
00100000
00000000
00100000
00000000
,  // measure 16
00001000
00000000
00000000
00010000
00000000
00000000
00010010
00000000
00000000
00000000
00000000
00000000
00001000
00000000
00001000
00000000
,  // measure 17
00000100
00000000
00000000
00000001
00000000
00000000
00000011
00000000
00000000
00000000
00000000
00000000
00001000
00000000
00001000
00000000
,  // measure 18
00010000
00000000
00000000
00100000
00000000
00000000
10100000
00000000
00000000
00000000
00000000
00000000
01000000
00000000
01000000
00000000
,  // measure 19
00100000
00000000
00000000
00010000
00000000
00000000
00011000
00000000
00000000
00000000
00000000
00000000
00001000
00000000
00001000
00000000
,  // measure 20
00000010
00000000
00000000
00000001
00000000
00000000
00000101
00000000
00000000
00000000
00001000
00000000
00001000
00000000
00000100
00000000
,  // measure 21
00000000
00010000
01000000
00000000
10100000
00000000
00010000
00100000
,  // measure 22
01000000
00010000
00001000
00000010
00000100
00000000
00000000
00001000
,  // measure 23
00001001
00000000
00000001
00000100
00001000
00010000
00100000
01000000
,  // measure 24
00000000
00100000
00100000
10000000
01000000
11000000
00000000
00010000
,  // measure 25
00011000
00000000
00000100
00000000
00000010
00000001
00001000
00000100
,  // measure 26
00000010
00000000
00001000
00000000
00011000
00000000
00000000
01000000
,  // measure 27
01000000
00000000
00000000
10000000
00100000
00010000
00011000
00000000
,  // measure 28
00000000
00000000
00001100
00000000
00000001
00000010
00001000
00000000
,  // measure 29
00011000
00000000
01010000
00000000
00000000
10000000
01000000
00000000
,  // measure 30
00100000
00000000
00010000
00000000
00001000
00000000
00000000
00000000
00000000
00000000
00000000
00000000
00000010
00000000
00000000
00000100
,  // measure 31
00000001
00000000
00000000
00000000
00001000
00000010
00000000
00000000
00000110
00000000
00000000
00000000
00001000
00000000
00010000
00000000
,  // measure 32
00100000
00000000
00000000
00000000
01100000
00000000
00000000
00000000
10010000
00000000
00000000
00000000
00000000
11000000
00000000
11000000
,  // measure 33
00000000
00000000
01010000
00000000
00000000
00001000
00001000
00000000
,  // measure 34
00100000
00000000
01000000
00000000
00010000
00000000
00000000
00000000
00000000
00000000
00000000
00000000
00001000
00000010
00000000
00000000
,  // measure 35
00000100
00000000
00000010
00000000
00000000
00000001
00000000
00000000
00000100
00000000
00000000
00000000
00001000
00010000
00000000
00000000
,  // measure 36
00010010
00000000
00001000
00000000
00101000
00000000
00000000
00010000
,  // measure 37
00010000
00001000
00000100
00000000
00010000
00001000
00000010
00000000
,  // measure 38
00010000
00001000
00000100
00000000
00001000
00010000
00100000
00000000
,  // measure 39
00001000
00010000
01000000
00000000
00001000
00010000
00100000
00000000
,  // measure 40
10100000
00000000
00000000
11000000
00000000
00000000
10010000
00000000
00000000
00000000
00000000
00000000
00000000
00000000
00010000
00000000
,  // measure 41
01000000
00001000
00010000
00001000
01000000
00010000
00100000
00001000
,  // measure 42
00010000
00000010
00001000
00000100
00010000
00001000
00010000
00000100
,  // measure 43
00001000
00000010
00000001
00000010
00000100
00001000
00010000
00100000
,  // measure 44
10100000
11000000
01010000
00011000
,  // measure 45
00001010
00010010
00101000
00000000
;
