#VERSION:0.83;
#TITLE:Misery;
#SUBTITLE:;
#ARTIST:Maroon5;
#TITLETRANSLIT:;
#SUBTITLETRANSLIT:;
#ARTISTTRANSLIT:;
#GENRE:POP CHARTS;
#ORIGIN:;
#CREDIT:MUINELIM;
#BANNER:Misery.png;
#BACKGROUND:Misery-bg.png;
#PREVIEWVID:;
#JACKET:Misery-jacket.png;
#CDIMAGE:;
#DISCIMAGE:;
#LYRICSPATH:;
#CDTITLE:;
#MUSIC:Misery.ogg;
#OFFSET:-0.872999;
#SAMPLESTART:33.470718;
#SAMPLELENGTH:14.659184;
#SELECTABLE:YES;
#DISPLAYBPM:103.000000;
#BPMS:0.000=103.100;
#STOPS:;
#DELAYS:;
#WARPS:;
#TIMESIGNATURES:0.000=4=4;
#TICKCOUNTS:0.000=4;
#COMBOS:0.000=1;
#SPEEDS:0.000=1.000=0.000=0;
#SCROLLS:0.000=1.000;
#FAKES:;
#LABELS:0.000=Song Start;
#BGCHANGES:;
#KEYSOUNDS:;
#ATTACKS:
;

//---------------dance-single - ----------------
#NOTEDATA:;
#CHARTNAME:;
#STEPSTYPE:dance-single;
#DESCRIPTION:;
#CHARTSTYLE:;
#DIFFICULTY:Beginner;
#METER:3;
#RADARVALUES:0.120177,0.123805,0.015872,0.000000,0.000000,106.000000,104.000000,2.000000,0.000000,0.000000,0.000000,0.000000,0.000000,0.000000,0.120177,0.123805,0.015872,0.000000,0.000000,106.000000,104.000000,2.000000,0.000000,0.000000,0.000000,0.000000,0.000000,0.000000;
#CREDIT:MILEN;
#DISPLAYBPM:103.000000;
#NOTES:
0000
0000
0000
0000
,
0000
0000
0000
0000
,
0000
0000
0000
0000
,
0000
0000
0000
0000
,
1000
0000
1000
0000
,
1000
0000
1000
0000
,
0001
0000
0001
0000
,
0001
0000
0001
0000
,
0100
0000
0100
0000
,
0100
0000
0100
0000
,
0010
0000
0010
0000
,
0010
0000
0010
0000
,
1000
0000
0001
0000
,
0100
0000
0010
0000
,
1000
0000
1000
0000
,
1000
1000
1000
0000
,
0001
0000
0001
0000
,
0001
0001
0001
0000
,
0100
0000
0100
0000
,
0100
0100
0100
0000
,
0010
0000
0010
0000
,
0010
0010
0010
0000
,
1000
0000
1000
0000
,
0100
0000
0100
0000
,
0010
0000
0010
0000
,
0001
0000
0001
0000
,
1001
0000
0000
0000
,
1000
0000
1000
0000
,
0010
0000
0010
0000
,
0100
0000
0100
0000
,
0001
0000
0001
0000
,
0010
0000
0010
0000
,
0100
0000
0100
0000
,
1000
0000
1000
0000
,
0010
0000
0010
0000
,
0100
0000
0100
0000
,
0010
0000
1000
0000
,
0010
0010
0010
0000
,
0100
0000
0001
0000
,
0100
0100
0100
0000
,
0001
0000
0010
0000
,
0001
0001
0001
0000
,
1000
0000
0100
0000
,
1000
1000
1000
0000
,
0001
0000
0001
0000
,
0100
0000
0100
0000
,
1000
0000
1000
0000
,
0010
0000
0010
0000
,
0001
0000
0100
0000
,
1000
0000
0010
0000
,
0001
0000
0100
0000
,
1000
0000
0010
0000
,
0110
0000
0000
0000
;

//---------------dance-single - ----------------
#NOTEDATA:;
#CHARTNAME:;
#STEPSTYPE:dance-single;
#DESCRIPTION:;
#CHARTSTYLE:;
#DIFFICULTY:Easy;
#METER:4;
#RADARVALUES:0.149654,0.191064,0.015872,0.015872,0.000000,132.000000,130.000000,2.000000,2.000000,0.000000,0.000000,0.000000,0.000000,0.000000,0.149654,0.191064,0.015872,0.015872,0.000000,132.000000,130.000000,2.000000,2.000000,0.000000,0.000000,0.000000,0.000000,0.000000;
#CREDIT:MILEN;
#DISPLAYBPM:103.000000;
#NOTES:
0000
0000
0000
0000
,
0000
0000
0000
0000
,
0000
0000
0000
0000
,
0000
0000
0000
0000
,
1000
0000
0001
0000
,
1000
1000
1000
0000
,
0001
0000
1000
0000
,
0001
0001
0001
0000
,
0100
0000
0010
0000
,
0100
0100
0100
0000
,
0010
0000
0100
0000
,
0010
0010
0010
0000
,
1000
0000
0100
0000
,
0010
0000
0001
0000
,
1000
0000
0001
0000
,
1000
0100
1000
0000
,
0001
0000
1000
0000
,
0001
0010
0001
0000
,
0100
0000
0010
0000
,
0100
0001
0100
0000
,
0010
0000
0100
0000
,
0010
1000
0010
0000
,
1000
0000
0001
0000
,
1000
0100
0010
0000
,
0001
0000
1000
0000
,
0001
0010
0100
0000
,
0110
0000
0000
0000
,
1000
0010
0100
0000
,
0010
0000
1000
0000
,
0001
0100
0010
0000
,
0100
0000
0001
0000
,
0010
0100
1000
0000
,
0010
0000
1000
0000
,
0100
0010
0001
0000
,
1000
0001
0100
0000
,
0001
1000
0010
0000
,
1000
0100
0010
0001
,
0100
0000
0100
0000
,
0001
0010
0100
1000
,
0010
0000
0010
0000
,
1000
0001
0010
0100
,
1000
0000
1000
0000
,
0001
1000
0100
0010
,
0001
0000
0001
0000
,
1000
0010
0100
0000
,
0100
0010
1000
0000
,
0001
0100
0010
0000
,
0010
0100
0001
0000
,
1000
0001
0010
0010
,
0010
0001
1000
0000
,
0001
1000
0100
0100
,
0100
1000
0001
0000
,
2002
0000
0000
0000
,
0000
0000
3003
0000
;

//---------------dance-double - ----------------
#NOTEDATA:;
#CHARTNAME:;
#STEPSTYPE:dance-double;
#DESCRIPTION:;
#CHARTSTYLE:;
#DIFFICULTY:Easy;
#METER:4;
#RADARVALUES:0.145119,0.169835,0.031745,0.015872,0.000000,128.000000,124.000000,4.000000,2.000000,0.000000,0.000000,0.000000,0.000000,0.000000,0.145119,0.169835,0.031745,0.015872,0.000000,128.000000,124.000000,4.000000,2.000000,0.000000,0.000000,0.000000,0.000000,0.000000;
#CREDIT:MILEN;
#DISPLAYBPM:103.000000;
#NOTES:
00000000
00000000
00000000
00000000
,
00000000
00000000
00000000
00000000
,
00000000
00000000
00000000
00000000
,
00000000
00000000
00000000
00000000
,
01000000
00000000
00001000
00000000
,
00010000
00000000
00010000
00000000
,
00000010
00000000
00010000
00000000
,
00001000
00000000
00001000
00000000
,
00100000
00000000
00001000
00000000
,
00010000
00000000
00010000
00000000
,
00000100
00000000
00010000
00000000
,
00001000
00000000
00001000
00000000
,
00010000
00010000
00010000
00000000
,
00001000
00001000
00001000
00000000
,
01000000
00000000
00100000
00000000
,
01000000
00010000
01000000
00000000
,
00001000
00000000
00010000
00000000
,
00001000
00010000
00011000
00000000
,
00000010
00000000
00000100
00000000
,
00000010
00001000
00000010
00000000
,
00010000
00000000
00001000
00000000
,
00010000
00001000
00011000
00000000
,
00010000
00000000
00000100
00000000
,
00001000
00000000
00000010
00000000
,
00010000
00000000
00001000
00000000
,
00100000
00000000
00010000
00000000
,
10010000
00000000
00000000
00000000
,
10000000
01000000
10000000
00000000
,
00100000
00000000
00010000
00000000
,
00001000
00010000
00001000
00000000
,
00010000
00000000
00001000
00000000
,
00000100
00000001
00000100
00000000
,
00000001
00000000
00000010
00000000
,
00001000
00010000
00001000
00000000
,
00010000
00001000
01000000
00000000
,
00001000
00010000
00000010
00000000
,
00010000
00001000
00000100
00000010
,
00000100
00000000
00000100
00000000
,
00001000
00010000
00100000
01000000
,
00100000
00000000
00100000
00000000
,
00010000
00100000
10000000
01000000
,
00010000
00000000
00010000
00000000
,
00001000
00000100
00000001
00000010
,
00001000
00000000
00001000
00000000
,
00010000
00000100
00010000
00000000
,
00001000
00100000
00001000
00000000
,
00010000
00000010
00010000
00000000
,
00001000
01000000
00001000
00000000
,
00010000
00001000
00000100
00000000
,
00001000
00010000
00100000
00000000
,
00010000
00001000
00000010
00000000
,
00001000
00010000
01000000
00000000
,
00022000
00000000
00000000
00000000
,
00000000
00000000
00033000
00000000
;

//---------------dance-single - ----------------
#NOTEDATA:;
#CHARTNAME:;
#STEPSTYPE:dance-single;
#DESCRIPTION:;
#CHARTSTYLE:;
#DIFFICULTY:Medium;
#METER:8;
#RADARVALUES:0.298174,0.318440,0.277767,0.031745,0.000000,263.000000,228.000000,35.000000,4.000000,0.000000,0.000000,0.000000,0.000000,0.000000,0.298174,0.318440,0.277767,0.031745,0.000000,263.000000,228.000000,35.000000,4.000000,0.000000,0.000000,0.000000,0.000000,0.000000;
#CREDIT:MILEN;
#DISPLAYBPM:103.000000;
#NOTES:
0000
0000
0000
0000
,
0000
0000
0000
0000
,
0000
0000
0000
0000
,
0000
0000
0000
0000
,
1000
0100
0010
0001
,
0100
0010
0100
0000
0010
0000
0110
0000
,
0001
0010
0100
1000
,
0010
0100
0010
0000
0100
0000
0110
0000
,
0001
0100
0010
1000
,
0100
0010
0100
0000
1000
0000
1001
0000
,
1000
0010
0100
0001
,
0010
0100
0010
0000
0001
0000
1001
0000
,
0001
0000
0100
0010
1000
0000
0001
0000
,
1000
0000
0010
0100
0001
0000
1000
0000
,
0001
0011
1010
1100
,
0101
0000
0001
0010
0000
0000
0000
1000
,
0100
0000
1100
0000
0010
0001
0100
0000
,
0010
0000
0010
0000
0010
1000
0100
0000
,
1000
1010
0011
0101
,
1100
0000
1000
0010
0000
0000
0000
0001
,
0100
0010
0100
0000
0001
0000
0011
0000
,
0100
0000
1100
0000
1000
0001
1000
0000
,
0010
0000
0010
0000
0010
0100
0001
0000
,
0000
0100
0010
0100
0001
0000
1001
0000
,
0100
0000
0100
0000
0100
0010
1000
0000
,
0000
0010
0100
0010
1000
0000
0001
0000
,
2002
0000
0000
3003
,
1000
0000
0010
0000
0001
0010
0001
0000
,
0010
1000
0001
0110
,
0001
0000
0100
0000
1000
0100
1000
0000
,
0100
0001
1000
0110
,
1000
0000
0100
0000
0001
0100
0001
0000
,
0100
1000
0001
0110
,
0001
0000
0010
0000
1000
0010
1000
0000
,
0010
0001
0100
1001
,
0010
1000
0100
1001
,
0010
1010
1100
0101
,
0011
0000
0010
1000
0000
0000
0100
0001
,
0010
0000
0110
0000
0100
1000
0010
1000
,
0100
0000
0010
0000
0001
0100
0010
0000
,
0100
0101
0011
1010
,
1100
0000
0100
0001
0000
0000
0010
1000
,
0100
1000
0010
0000
0110
0000
1001
0000
,
0001
0010
0100
1000
0000
0010
0100
0000
,
0010
1000
0001
0000
0010
0000
0100
0000
,
0010
0001
1000
0000
0100
0000
0010
0000
,
0100
1000
0010
0000
0100
0000
0010
0000
,
0100
0001
0010
0000
0100
0000
0010
0000
,
0001
0100
0010
0000
1000
0010
0100
0000
,
0001
1000
0100
1000
0001
0000
0110
0000
,
1000
0100
0010
0000
0001
0010
0100
0000
,
1000
0001
0100
0001
1000
0000
0010
0000
,
0220
0000
0000
0000
,
0000
0000
0330
0000
;

//---------------dance-single - ----------------
#NOTEDATA:;
#CHARTNAME:;
#STEPSTYPE:dance-single;
#DESCRIPTION:;
#CHARTSTYLE:;
#DIFFICULTY:Hard;
#METER:11;
#RADARVALUES:0.386606,0.424586,0.317448,0.301575,0.087298,341.000000,301.000000,40.000000,38.000000,0.000000,0.000000,0.000000,0.000000,0.000000,0.386606,0.424586,0.317448,0.301575,0.087298,341.000000,301.000000,40.000000,38.000000,0.000000,0.000000,0.000000,0.000000,0.000000;
#CREDIT:MILEN;
#DISPLAYBPM:103.000000;
#NOTES:
0000
0000
0000
0000
,
0000
0000
0000
0000
,
0000
0000
0000
0000
,
0000
0000
0000
0000
,
1000
0001
0100
0000
0001
1000
0100
0000
,
1000
0001
0100
0010
1000
0000
1001
0000
,
0001
1000
0010
0000
1000
0001
0010
0000
,
0001
1000
0010
0100
0001
0000
1001
0000
,
1000
0100
0010
0000
0001
0010
0100
0000
,
1000
0010
0100
0001
0010
0000
0110
0000
,
0001
0100
0010
0000
1000
0010
0100
0000
,
0001
0010
0100
1000
0010
0000
0110
0000
,
0101
0000
0000
0011
0000
0000
1001
0000
0000
0000
1100
0000
0100
0000
0010
0000
,
0001
0000
0000
0101
0000
0000
1010
0000
0000
0000
0010
0000
0100
0000
0001
0000
,
0201
0320
2030
3200
,
0320
0000
0001
0031
0000
0000
0001
0100
,
0120
0000
2030
0000
3001
0100
0010
1000
,
0001
0000
0000
0101
0000
0000
1100
0000
0000
0000
1000
0000
0010
0000
1000
0000
,
1200
0320
0032
0203
,
0320
0000
1000
1030
0000
0000
1000
0010
,
0100
0001
0020
0000
0230
0000
2300
0000
,
3010
0000
0000
0110
0000
0000
0101
0000
0000
0000
1000
0000
1000
0000
0000
0000
,
0001
0000
0020
0000
0000
0000
0130
1000
0100
0000
0010
0000
0001
0000
0000
0000
,
0100
0000
0010
1000
0010
0000
0100
0000
0001
0000
0010
0000
0001
0000
0010
0000
,
0100
0000
2000
0000
0000
0000
3001
0010
0001
0000
0100
0000
0010
0000
0000
0000
,
1000
0000
0100
0010
0100
0000
0010
0000
0001
0000
0100
0000
0001
0000
0100
0000
,
0220
0000
0000
0330
,
0010
1000
0100
0010
0001
0000
1001
0000
,
0010
1000
0100
0010
0001
1000
0010
0000
,
0100
0001
0010
0100
1000
0000
1001
0000
,
0100
0001
0010
0100
1000
0001
0100
0000
,
0001
0010
0100
1000
0010
0000
0110
0000
,
1000
0010
0100
0001
1000
0100
0010
0000
,
0001
0100
0010
1000
0100
0000
0110
0000
,
0011
0000
0000
1100
0000
0000
1010
0000
0000
0000
0010
0000
0100
0000
0001
0000
,
0101
0000
0000
1010
0000
0000
1100
0000
0000
0000
0100
0000
0010
0000
0001
0000
,
0201
2300
3200
0302
,
0013
0100
1000
0001
0010
0100
1100
0000
,
1020
0000
0230
0000
0301
1000
0100
0010
,
0011
0000
0000
0101
0000
0000
1100
0000
0000
0000
1000
0000
0010
0000
1000
0000
,
1200
0302
0203
2300
,
3010
0100
0001
1000
0010
0100
0101
0000
,
0001
0010
0210
0000
2300
0000
3002
0000
,
0103
0000
0000
0110
0000
0000
1010
0000
0000
0000
0001
0000
0001
0000
0000
0000
,
0010
0000
0200
0000
0000
0000
1300
0010
1000
0000
0001
0000
0010
0000
0000
0000
,
0001
0000
0100
0010
0100
0000
0010
0000
1000
0000
0100
0000
1000
0000
0100
0000
,
0010
0000
0002
0000
0000
0000
1003
0100
1000
0000
0010
0000
0100
0000
0000
0000
,
0001
0000
0010
0100
0010
0000
0100
0000
1000
0010
1000
0000
0001
0010
0001
0000
,
1000
0000
0200
0000
0000
0000
0310
0001
0100
0000
0010
0000
1000
0000
0000
0000
,
0001
0000
0010
0100
1000
0000
0010
0000
0100
0000
0001
0000
0100
0000
0001
0000
,
0010
0000
0200
0000
0000
0000
1300
0001
0100
0000
0010
0000
1000
0000
0000
0000
,
0001
0000
0010
0100
1000
0000
0001
0000
0100
0000
0010
0000
1000
0000
0001
0000
,
2002
0000
0000
0000
,
0000
0000
3003
0000
;

//---------------dance-double - ----------------
#NOTEDATA:;
#CHARTNAME:;
#STEPSTYPE:dance-double;
#DESCRIPTION:;
#CHARTSTYLE:;
#DIFFICULTY:Hard;
#METER:10;
#RADARVALUES:0.371867,0.424586,0.269831,0.309512,0.059521,328.000000,294.000000,34.000000,39.000000,0.000000,0.000000,0.000000,0.000000,0.000000,0.371867,0.424586,0.269831,0.309512,0.059521,328.000000,294.000000,34.000000,39.000000,0.000000,0.000000,0.000000,0.000000,0.000000;
#CREDIT:MILEN;
#DISPLAYBPM:103.000000;
#NOTES:
00000000
00000000
00000000
00000000
,
00000000
00000000
00000000
00000000
,
00000000
00000000
00000000
00000000
,
00000000
00000000
00000000
00000000
,
10000000
01000000
00010000
00000000
01000000
00010000
00001000
00000000
,
00100000
00001000
00010000
00001000
00000010
00000000
00001001
00000000
,
00000001
00000100
00001000
00000000
00000100
00001000
00010000
00000000
,
00000010
00010000
00001000
00010000
00100000
00000000
10010000
00000000
,
10000000
01000000
00100000
00000000
01000000
00010000
00001000
00000000
,
00100000
00001000
00000010
00000100
00001000
00000000
00000110
00000000
,
00000001
00000100
00000010
00000000
00000100
00001000
00010000
00000000
,
00000100
00010000
01000000
00100000
00010000
00000000
01100000
00000000
,
10000000
00000000
00000000
00100000
00000000
00000000
00020000
00000000
00000000
00000000
00031000
00000000
00001000
00000000
00000100
00000000
,
00000001
00000000
00000000
00000010
00000000
00000000
00000110
00000000
00000000
00000000
00000100
00000000
00010000
00000000
00001000
00000000
,
02001000
03020000
00230000
00302000
,
00003020
00000000
00000001
00000031
00000000
00000000
00000001
00000100
,
00002100
00000000
00023000
00000000
00130000
10000000
01000000
10000000
,
00100000
00000000
00000000
00110000
00000000
00000000
00011000
00000000
00000000
00000000
00010000
00000000
00001000
00000000
00010000
00000000
,
00010020
00002030
00003200
00020300
,
02030000
00000000
10000000
13000000
00000000
00000000
10000000
00100000
,
01000000
00010000
00200000
00000000
02300000
00000000
03020000
00000000
,
00031000
00000000
00000000
00101000
00000000
00000000
00010010
00000000
00000000
00000000
00000010
00000000
00000010
00000000
00000000
00000000
,
00001000
00000200
00000000
00000310
00000010
00000001
00000100
00000000
,
00001000
00000000
00010000
00001000
00010000
00000000
00100000
00000000
01000000
00000000
00100000
00000000
10000000
00000000
01000000
00000000
,
00100000
00020000
00000000
10030000
10000000
00100000
01000000
00000000
,
00010000
00000000
00100000
00010000
00100000
00000000
00001000
00000000
00010000
00000000
00000100
00000000
00001000
00000000
00000010
00000000
,
00000220
00000000
00000000
00000330
,
00001000
00000001
00000100
00001000
00010000
00000000
00011000
00000000
,
00001000
00100000
01000000
00100000
00001000
00010000
00100000
00000000
,
10000000
01000000
00100000
01000000
10000000
00000000
10010000
00000000
,
00010000
10000000
01000000
00010000
00001000
00010000
01000000
00000000
,
00100000
00001000
00010000
00000010
00000100
00000000
00000110
00000000
,
00000001
00000100
00001000
00000100
00000001
00000010
00000100
00000000
,
00010000
00001000
00100000
01000000
10000000
00000000
10100000
00000000
,
00110000
00000000
00000000
00011000
00000000
00000000
00001100
00000000
00000000
00000000
00000100
00000000
00000001
00000000
00000010
00000000
,
00000011
00000000
00000000
00001100
00000000
00000000
00010010
00000000
00000000
00000000
00010000
00000000
00001000
00000000
00100000
00000000
,
02100000
23000000
30200000
00320000
,
00031000
00100000
01000000
10000000
00010000
00100000
01100000
00000000
,
21000000
00000000
30200000
00000000
00310000
00001000
00000100
00000001
,
00000011
00000000
00000000
00001100
00000000
00000000
00001001
00000000
00000000
00000000
00000001
00000000
00001000
00000000
00000010
00000000
,
00000210
00000302
00000023
00002030
,
00013000
00000010
00000100
00000001
00001000
00000010
00000110
00000000
,
00000001
00000010
00002000
00000000
00023000
00000000
02030000
00000000
,
13000000
00000000
00000000
10100000
00000000
00000000
01010000
00000000
00000000
00000000
00010000
00000000
00010000
00000000
00000000
00000000
,
00100000
02000000
00000000
03010000
00010000
00001000
00000010
00000000
,
00000001
00000000
00000100
00000010
00000100
00000000
00001000
00000000
00010000
00000000
00100000
00000000
00010000
00000000
00100000
00000000
,
10000000
02000000
00000000
03100000
00100000
00010000
01000000
00000000
,
00001000
00000000
00010000
00001000
00010000
00000000
00000100
00000000
00000010
00000001
00000100
00000000
00000010
00000000
00001000
00000000
,
00000100
00000020
00000000
00000031
00000001
00001000
00000010
00000000
,
00010000
00000000
00001000
00010000
00001000
00000000
00100000
00000000
01000000
00000000
10000000
00000000
01000000
00000000
10000000
00000000
,
00100000
00020000
00000000
00031000
00001000
00000010
00000100
00000000
,
00001000
00000000
00000100
00000010
00000100
00000000
00000010
00000000
00000001
00000000
00000100
00000000
00001000
00000000
00010000
00000000
,
00022000
00000000
00000000
00000000
,
00000000
00000000
00033000
00000000
;

//---------------dance-double - ----------------
#NOTEDATA:;
#CHARTNAME:;
#STEPSTYPE:dance-double;
#DESCRIPTION:;
#CHARTSTYLE:;
#DIFFICULTY:Medium;
#METER:8;
#RADARVALUES:0.293639,0.318440,0.261894,0.031745,0.000000,259.000000,226.000000,33.000000,4.000000,0.000000,0.000000,0.000000,0.000000,0.000000,0.293639,0.318440,0.261894,0.031745,0.000000,259.000000,226.000000,33.000000,4.000000,0.000000,0.000000,0.000000,0.000000,0.000000;
#CREDIT:MILEN;
#DISPLAYBPM:103.000000;
#NOTES:
// measure 0
00000000
00000000
00000000
00000000
,  // measure 1
00000000
00000000
00000000
00000000
,  // measure 2
00000000
00000000
00000000
00000000
,  // measure 3
00000000
00000000
00000000
00000000
,  // measure 4
00010000
00001000
00000100
00000001
,  // measure 5
00000010
00000100
00000010
00000000
00001000
00000000
00011000
00000000
,  // measure 6
00001000
00010000
00100000
10000000
,  // measure 7
01000000
00100000
01000000
00000000
00010000
00000000
00011000
00000000
,  // measure 8
00010000
00001000
00000010
00000001
,  // measure 9
00000100
00000010
00000100
00000000
00001000
00000000
00011000
00000000
,  // measure 10
00001000
00010000
00100000
10000000
,  // measure 11
01000000
00100000
01000000
00000000
00010000
00000000
00011000
00000000
,  // measure 12
00010000
00000000
00000100
00001000
00000010
00000000
00010000
00000000
,  // measure 13
00001000
00000000
00100000
00010000
01000000
00000000
00001000
00000000
,  // measure 14
00010000
00011000
00001100
00000101
,  // measure 15
00000011
00000000
00000010
00001000
00000000
00000000
00000000
00001000
,  // measure 16
00010000
00000000
00011000
00000000
00001000
00100000
00010000
00000000
,  // measure 17
01000000
00000000
00100000
00000000
01000000
00001000
00010000
00000000
,  // measure 18
00001000
00011000
00110000
10100000
,  // measure 19
11000000
00000000
01000000
00010000
00000000
00000000
00000000
00010000
,  // measure 20
00001000
00010000
00001000
00000000
00010000
00000000
00010010
00000000
,  // measure 21
00001000
00000000
01001000
00000000
01000000
00010000
01000000
00000000
,  // measure 22
00100000
00000000
10000000
00000000
01000000
00100000
01000000
00000000
,  // measure 23
00000000
00010000
00001000
00010000
00000010
00000000
00000110
00000000
,  // measure 24
00000100
00000000
00000001
00000000
00000010
00000100
00000010
00000000
,  // measure 25
00000000
00001000
00010000
00001000
00100000
00000000
00001000
00000000
,  // measure 26
00022000
00000000
00000000
00033000
,  // measure 27
00010000
00000000
01000000
00000000
10000000
00100000
10000000
00000000
,  // measure 28
01000000
00010000
00001000
00011000
,  // measure 29
00001000
00000000
00000010
00000000
00000001
00000100
00000001
00000000
,  // measure 30
00000010
00001000
00010000
00011000
,  // measure 31
00010000
00000000
00100000
00000000
10000000
01000000
10000000
00000000
,  // measure 32
00100000
00010000
00001000
00011000
,  // measure 33
00001000
00000000
00000100
00000000
00000001
00000010
00000001
00000000
,  // measure 34
00000100
00001000
00010000
00011000
,  // measure 35
00001000
00010000
00100000
10000000
,  // measure 36
01000000
01010000
00011000
00001010
,  // measure 37
00000011
00000000
00000001
00000100
00000000
00000000
00000100
00000010
,  // measure 38
00001000
00000000
00001100
00000000
00000100
00010000
00001000
00010000
,  // measure 39
00000100
00000000
00000010
00000000
00000001
00001000
00000010
00000000
,  // measure 40
00000100
00001100
00011000
00110000
,  // measure 41
10100000
00000000
10000000
01000000
00000000
00000000
01000000
00100000
,  // measure 42
00010000
00100000
01000000
00000000
00010000
00000000
00011000
00000000
,  // measure 43
00001000
00010000
00000100
00000010
00000000
00000010
00000001
00000000
,  // measure 44
00000100
00001000
00010000
00000000
00100000
00000000
01000000
00000000
,  // measure 45
00100000
00010000
00001000
00000000
00000010
00000000
00000100
00000000
,  // measure 46
00000010
00001000
00010000
00000000
01000000
00000000
00100000
00000000
,  // measure 47
01000000
00010000
00001000
00000000
00000100
00000000
00000010
00000000
,  // measure 48
00001000
00000001
00000100
00000000
00001000
00010000
00100000
00000000
,  // measure 49
10000000
01000000
00100000
00000000
01000000
00000000
01100000
00000000
,  // measure 50
00010000
10000000
01000000
00000000
00010000
00001000
00000010
00000000
,  // measure 51
00000001
00000100
00000010
00000000
00010000
00000000
00001000
00000000
,  // measure 52
00022000
00000000
00000000
00000000
,  // measure 53
00000000
00000000
00033000
00000000
;
